#TITLE:4ever;
#SUBTITLE:(triple j like a version);
#ARTIST:Cat & Calmell;
#TITLETRANSLIT:;
#SUBTITLETRANSLIT:;
#ARTISTTRANSLIT:;
#GENRE:;
#CREDIT:;
#BANNER:;
#BACKGROUND:;
#LYRICSPATH:;
#CDTITLE:;
#MUSIC:4ever (triple j Like A Version).ogg;
#OFFSET:0.000000;
#SAMPLESTART:100.059883;
#SAMPLELENGTH:12.000000;
#SELECTABLE:YES;
#BPMS:0.000000=145.000000
;
#STOPS:0.000000=0.400000
;
#BGCHANGES:;
#KEYSOUNDS:;
#ATTACKS:;

//---------------dance-single - ----------------
#NOTES:
     dance-single:
     :
     Hard:
     15:
     0.743573,0.873987,0.044193,0.034373,0.540142,1060.000000,1051.000000,9.000000,7.000000,0.000000,0.000000,0.743573,0.873987,0.044193,0.034373,0.540142,1060.000000,1051.000000,9.000000,7.000000,0.000000,0.000000:
// measure 0
0000
0000
0000
0000
,  // measure 1
0000
0000
0000
0000
,  // measure 2
1000
0000
0001
0000
0100
0010
0000
0001
,  // measure 3
0000
0100
0000
0010
0000
0001
0100
0000
,  // measure 4
0010
0100
0001
0100
0010
0001
0010
0100
,  // measure 5
0010
0001
0100
0001
0100
1000
0100
0010
,  // measure 6
0001
0100
0010
0001
1000
0001
0010
0100
,  // measure 7
0001
0100
0001
0100
0010
0001
1000
0001
,  // measure 8
0100
0001
0010
0100
0001
0100
0010
0001
,  // measure 9
1000
0001
0100
0010
0001
0100
0001
0100
,  // measure 10
0010
0001
0100
0001
0100
0001
0100
1000
,  // measure 11
0001
0000
0100
0000
0010
0000
0100
0000
0001
0000
0010
0000
1000
0000
0100
0001
,  // measure 12
0010
0001
1000
0001
0100
0010
0001
0100
,  // measure 13
0001
0100
0010
0001
1000
0001
0100
0010
,  // measure 14
0001
0100
0001
0100
0010
0001
0100
0001
,  // measure 15
0100
0010
0001
0100
0001
0100
0010
0001
,  // measure 16
0100
0001
0100
0010
0001
1000
0001
0100
,  // measure 17
0010
0001
0100
0001
0100
0010
0001
1000
,  // measure 18
0001
0100
0010
0001
0100
0001
0100
0010
,  // measure 19
0001
0100
0001
0100
1000
0000
0000
0000
,  // measure 20
0100
0001
1000
0001
0010
0100
0001
0010
,  // measure 21
0100
0000
0010
0001
0000
0100
0000
0000
,  // measure 22
0000
0000
0100
0010
0001
0100
0001
0100
,  // measure 23
1000
0000
0100
0010
0000
0001
0000
0100
,  // measure 24
0000
0000
0000
0100
0001
0010
0100
0010
,  // measure 25
0100
0000
0010
0001
0000
0100
0000
0000
,  // measure 26
0000
0001
0100
0000
0001
0000
0100
0000
,  // measure 27
0010
0000
0100
0010
0000
0100
0000
0001
,  // measure 28
0100
0010
1000
0000
0100
0001
0010
0000
0100
0001
1000
0000
0100
0001
0010
0000
,  // measure 29
0100
0001
0010
0000
0100
0001
1000
0000
0100
0001
0010
0000
0100
0001
0010
0000
,  // measure 30
0010
0001
0100
0000
0010
0100
0001
0000
0010
0001
0100
0000
0010
0001
0100
0000
,  // measure 31
1000
0100
0010
0000
0001
0100
0010
0000
0001
0100
0010
0000
0001
1000
0100
0000
,  // measure 32
0001
0100
0010
0000
0001
0100
0010
0000
0001
0100
0010
0000
0001
1000
0100
0000
,  // measure 33
0010
0100
0001
0000
1000
0100
0001
0000
0010
0100
0001
0000
0010
0100
0001
0000
,  // measure 34
0001
0100
0010
0000
0001
0100
1000
0000
0001
0100
0010
0000
0001
0100
0010
0000
,  // measure 35
0100
0001
0100
0010
0001
1000
0001
0100
0010
0001
0100
0010
0001
0100
0001
1000
,  // measure 36
0100
0000
0100
0000
0010
0001
0000
0100
,  // measure 37
0000
1000
0000
0001
0000
0100
0000
0000
,  // measure 38
0100
0000
0001
1000
0100
0000
0001
0000
0010
0000
0100
0001
1000
0000
0100
0000
,  // measure 39
0001
0000
0010
0100
0001
0000
1000
0000
0100
0000
0001
0010
0100
0000
0001
0000
,  // measure 40
1000
0000
0100
0001
0010
0000
0100
0000
0001
0000
1000
0100
0001
0000
0010
0000
,  // measure 41
0100
0000
0001
0100
0010
0000
0001
0000
0100
0000
0010
0001
1000
0000
0100
0000
,  // measure 42
0001
0000
0100
0010
0001
0000
0100
0000
0010
0000
0001
1000
0100
0000
0010
0000
,  // measure 43
0100
0000
0001
1000
0100
0000
0001
0000
0010
0000
0100
0001
0100
0000
0010
0000
,  // measure 44
0001
0000
0010
0100
0001
0000
1000
0000
0100
0000
0001
0010
0100
0000
0001
0000
,  // measure 45
0100
0000
0010
0001
0100
0000
1000
0000
0010
0000
0100
0010
0001
0000
0100
0000
,  // measure 46
0010
0000
0001
0100
1000
0000
0010
0000
0001
0000
0010
0100
0001
0000
1000
0000
,  // measure 47
0100
0000
0010
0100
0001
0000
1000
0000
0100
0000
0001
0010
0100
0000
0001
0000
,  // measure 48
1000
0000
0100
0001
0010
0000
0100
0000
0001
0000
0010
0100
0001
0000
1000
0000
,  // measure 49
0100
0000
0010
0001
0100
0000
0010
0000
0100
0000
0001
1000
0100
0000
0001
0000
,  // measure 50
0010
0000
0100
0010
0001
0000
0100
0000
0010
0000
0100
0001
1000
0000
0100
0000
,  // measure 51
0001
0000
0100
0010
0100
0000
0010
0000
0001
0000
0100
0010
0001
0000
0100
0000
,  // measure 52
1000
0000
0100
0010
0001
0000
0100
0000
0010
0000
0100
0010
0001
0000
1000
0000
,  // measure 53
0100
0000
0010
0100
0001
0000
1000
0000
0100
0000
0000
0000
0010
0000
0000
0000
,  // measure 54
0001
0100
0001
0100
1000
0100
0001
1000
,  // measure 55
0100
0000
0001
0100
0000
1000
0000
0000
,  // measure 56
0100
0001
1000
0000
0100
0001
0010
0000
0100
0001
0010
0000
0100
0001
1000
0000
,  // measure 57
0100
0001
0010
0000
0100
0001
1000
0000
0100
0001
0010
0000
0100
0001
0010
0000
,  // measure 58
0100
0001
1000
0000
0100
0001
0010
0000
0100
0001
1000
0000
0100
0001
0010
0000
,  // measure 59
0010
0100
0010
0000
0100
0010
0100
0000
0001
1000
0100
0000
0001
0100
0001
0000
,  // measure 60
0010
0100
0001
0000
1000
0100
0001
0000
0010
0100
0001
0000
0100
0010
0100
0000
,  // measure 61
0001
1000
0100
0000
0001
0100
0001
0000
0010
0100
0001
0000
0100
0010
0100
0000
,  // measure 62
0100
0010
0100
0000
0001
0100
0010
0000
0001
0100
0010
0000
0001
1000
0100
0000
,  // measure 63
0010
0100
0001
0000
1000
0100
0001
0000
0010
0100
0001
0000
0100
0001
0010
0000
,  // measure 64
0010
0100
0001
0000
1000
0100
0001
0000
0010
0100
0001
0000
1000
0100
0001
0000
,  // measure 65
0010
0100
0001
0000
0100
0001
0010
0000
0100
0001
1000
0000
0100
0001
0010
0000
,  // measure 66
0010
0100
0001
0000
0100
0001
0010
0000
0100
0001
1000
0000
0100
0001
0010
0000
,  // measure 67
0100
0001
1000
0000
0100
0001
0010
0000
0100
0001
0100
0000
0010
0100
0001
0000
,  // measure 68
0001
0100
0010
0000
0001
0100
0010
0000
0001
0100
0010
0000
0001
0100
1000
0000
,  // measure 69
0001
0100
0010
0000
0001
0100
0010
0000
0001
0100
1000
0000
0001
0100
0010
0000
,  // measure 70
0100
0100
0100
0000
0000
0010
0000
0000
,  // measure 71
0100
0000
0000
0100
0010
0001
0100
1000
,  // measure 72
1001
0100
0010
0001
0100
0000
1000
0010
,  // measure 73
0100
0010
0100
0000
0100
0001
0100
0010
,  // measure 74
1001
0000
0001
0000
0000
0100
0000
0000
,  // measure 75
0010
0000
0000
0001
0100
0001
0100
0010
,  // measure 76
1001
0100
0010
0100
0001
0100
0010
0001
,  // measure 77
1000
0001
0100
0010
0100
0001
0100
0010
,  // measure 78
2002
0000
0000
0000
,  // measure 79
0000
0000
3003
0000
1000
0001
0100
0010
,  // measure 80
1001
0100
0010
0001
1000
0001
0100
0010
,  // measure 81
2002
0000
3003
0000
1000
0010
0100
0001
,  // measure 82
1001
0001
0100
0001
0100
0010
0001
1000
,  // measure 83
0001
0100
0010
0001
1000
0001
0100
0001
,  // measure 84
0110
0000
0010
0000
0100
0001
0000
1000
,  // measure 85
0000
0100
0000
0001
0000
0010
0000
0100
,  // measure 86
0001
0000
1000
0000
0100
0001
0000
0010
,  // measure 87
0000
0100
0000
0001
0000
1000
0000
0000
,  // measure 88
0001
0100
0001
0010
0100
0001
1000
0001
,  // measure 89
0010
0000
0100
0001
0000
0001
0000
2002
,  // measure 90
3003
0000
0001
0100
0010
0001
1000
0001
,  // measure 91
0100
0000
0001
0010
0000
0001
0000
0100
,  // measure 92
0000
0000
0000
0000
0001
0100
0001
0100
,  // measure 93
1000
0000
0010
0001
0000
0100
0000
0000
,  // measure 94
0000
0010
0001
0000
0100
0000
1000
0000
,  // measure 95
0001
0000
0100
0010
0000
0100
0000
0001
,  // measure 96
0100
0001
1000
0000
0100
0010
0100
0000
0001
1000
0100
0000
0001
0100
0010
0000
,  // measure 97
0100
0010
0100
0000
1000
0100
0001
0000
0010
0100
0001
0000
1000
0100
0001
0000
,  // measure 98
0010
0100
0001
0000
0100
0010
0100
0000
0010
0100
0010
0000
1000
0100
0001
0000
,  // measure 99
0010
0100
0001
0000
1000
0100
0001
0000
0010
0100
0001
0000
0010
0100
0010
0000
,  // measure 100
0100
1000
0100
0000
0010
0100
0001
0000
0100
0010
0100
0000
0001
1000
0100
0000
,  // measure 101
0001
0100
0010
0000
0100
0001
1000
0000
0100
0001
0010
0000
0100
0001
0100
0000
,  // measure 102
0010
0100
0001
0000
1000
0100
0001
0000
0010
0100
0001
0000
1000
0100
0001
0000
,  // measure 103
0010
0100
0001
0000
1000
0100
0001
0000
0010
0100
0001
0000
0010
0001
0100
0000
,  // measure 104
0010
0001
0100
0000
1000
0100
0001
0000
0010
0100
0001
0000
0010
0100
0010
0000
,  // measure 105
0001
0100
1000
0000
0001
0100
0010
0000
0001
0100
0010
0000
1000
0100
0001
0000
,  // measure 106
0100
0001
0010
0000
0100
0001
1000
0000
0100
0001
0010
0000
0100
0001
0010
0000
,  // measure 107
0100
0001
0010
0000
0100
1000
0100
0000
0001
0100
0010
0000
0100
0001
0100
0000
,  // measure 108
0010
0100
0001
0000
1000
0100
0001
0000
0010
0100
0001
0000
1000
0100
0001
0000
,  // measure 109
0010
0100
0001
0000
1000
0100
0001
0000
0010
0100
0001
0000
1000
0100
0001
0000
,  // measure 110
0010
0100
0010
0000
0100
0010
0100
0000
1000
0100
0010
0000
0100
0001
0100
0000
,  // measure 111
0010
0100
0010
0000
1000
0100
0001
0000
0010
0100
0001
0000
1000
0100
0001
0000
,  // measure 112
0001
0100
1000
0000
0001
0100
0010
0000
0001
0100
0010
0000
0001
1000
0100
0000
,  // measure 113
0100
0010
0001
0000
1000
0100
0001
0000
0010
0100
0001
0000
1000
0100
0001
0000
,  // measure 114
0010
0100
0001
0000
1000
0100
0001
0000
0010
0100
0001
0000
1000
0100
0001
0000
,  // measure 115
0001
0100
1000
0000
0001
0100
0010
0000
0001
0100
0010
0000
0001
1000
0100
0000
,  // measure 116
0100
0010
0001
0000
1000
0100
0001
0000
0010
0100
0001
0000
1000
0100
0001
0000
,  // measure 117
0010
0100
0001
0000
1000
0100
0001
0000
0010
0100
0001
0000
1000
0100
0001
0000
,  // measure 118
0001
0100
1000
0000
0001
0100
0010
0000
0001
0100
0010
0000
0001
1000
0100
0000
,  // measure 119
0100
0010
0001
0000
1000
0100
0001
0000
0010
0100
0001
0000
1000
0100
0001
0000
,  // measure 120
0020
0000
0000
0000
,  // measure 121
0000
0000
0000
0000
,  // measure 122
0000
0000
0000
0030
;
