#TITLE:404;
#SUBTITLE:(new era);
#ARTIST:KiiKii;
#TITLETRANSLIT:;
#SUBTITLETRANSLIT:;
#ARTISTTRANSLIT:;
#GENRE:;
#CREDIT:;
#BANNER:;
#BACKGROUND:;
#LYRICSPATH:;
#CDTITLE:;
#MUSIC:404 (New Era).ogg;
#OFFSET:0.000000;
#SAMPLESTART:100.059883;
#SAMPLELENGTH:12.000000;
#SELECTABLE:YES;
#BPMS:0.000000=126.999992
;
#STOPS:0.000000=0.100000
;
#BGCHANGES:;
#KEYSOUNDS:;
#ATTACKS:;

//---------------dance-single - ----------------
#NOTES:
     dance-single:
     :
     Hard:
     12:
     0.481185,0.568017,0.167023,0.033405,0.495502,605.000000,575.000000,30.000000,6.000000,0.000000,0.000000,0.481185,0.568017,0.167023,0.033405,0.495502,605.000000,575.000000,30.000000,6.000000,0.000000,0.000000:
// measure 0
0000
0000
0000
0000
,  // measure 1
0000
0000
0000
0000
,  // measure 2
1000
0000
0010
0000
0100
0000
0000
0010
0000
0000
0000
0000
0010
0000
0000
0000
,  // measure 3
0100
0000
0010
0000
0100
0000
0000
0001
0000
0000
0000
0000
1000
0000
0000
0000
,  // measure 4
1000
0000
0000
0001
0000
0000
0010
0000
0100
0000
0001
1000
0100
0000
0010
0000
,  // measure 5
0100
0000
0000
0001
0000
1000
0100
0000
0010
0100
0000
0001
1000
0000
0000
0000
,  // measure 6
0100
0000
0000
0010
0000
0000
0100
0000
0001
0000
1000
0100
0001
0000
1000
0000
,  // measure 7
0100
0000
0000
0001
0000
1000
0100
0000
0010
0100
0000
0001
1000
0000
0000
0000
,  // measure 8
0010
0000
0000
0001
0000
0000
0100
0001
0010
0000
0100
0001
0010
0000
0100
0000
,  // measure 9
0010
0000
0000
0100
0000
0001
0100
0000
0010
0001
0000
1000
0100
0000
0000
0000
,  // measure 10
0100
0001
0000
0010
0100
0001
0010
0000
0100
0010
0001
1000
0001
0100
1000
0000
,  // measure 11
0100
0000
0000
0001
0000
1000
0100
0000
0001
0010
0000
0100
0001
0000
0000
0000
,  // measure 12
0100
0000
0010
0001
0100
0000
0010
0100
0001
0000
0000
0000
1000
0100
0001
0000
,  // measure 13
0100
0000
0001
1000
0100
0000
0000
0001
0000
0000
0000
0000
0000
0000
0000
0000
,  // measure 14
0010
0000
1000
0001
0100
0000
0010
0100
0000
0000
0000
0000
0000
0000
0100
0000
,  // measure 15
0001
1000
0000
0100
0000
0010
0100
0000
0000
0000
0000
0000
0010
0000
0000
0000
,  // measure 16
0100
0000
0010
0100
0001
0000
1000
0100
0000
0000
0000
0000
0010
0100
0001
0000
,  // measure 17
1000
0100
0000
0001
0000
1000
0100
0000
0000
0000
0000
0000
0100
0000
0000
0000
,  // measure 18
1000
0000
0100
0001
0000
1000
0100
0000
0000
0000
0000
0000
0000
0000
0000
0000
,  // measure 19
0100
0001
0000
0010
0000
0100
0001
0000
0000
0000
1000
0000
0000
0000
0000
0000
,  // measure 20
0000
0100
0001
0000
0100
1000
0000
0001
,  // measure 21
0100
0000
0000
0000
0010
0001
0100
0000
0000
0000
0011
0000
0000
0000
0101
0000
,  // measure 22
0000
0000
0001
1000
0100
0000
0000
0000
0001
0000
0100
0000
0000
0000
1000
0001
,  // measure 23
0100
0000
0000
0000
0010
0001
0100
0000
0000
0000
0001
1000
0100
0000
0000
0000
,  // measure 24
0110
0000
0000
0000
0000
0000
0001
0010
0000
0000
1000
0000
0100
0000
0000
0000
,  // measure 25
0110
0000
0000
0000
0000
0000
0010
0001
0000
0000
1000
0000
0100
0000
0000
0000
,  // measure 26
1001
0000
0000
0000
0000
0000
0001
0100
0000
0000
0010
0000
0100
0000
0000
0000
,  // measure 27
0000
0000
0000
0000
0000
0000
0001
0100
0000
0000
0001
0000
0100
0000
0000
0000
,  // measure 28
1001
0000
0000
0000
0000
0000
0100
0001
0000
0000
0010
0000
0100
0000
0010
0000
,  // measure 29
1001
0000
0000
0000
0101
0000
0001
0010
0000
0000
0100
0000
1000
0000
0000
0000
,  // measure 30
0101
0101
0110
0101
,  // measure 31
0110
0000
0100
0001
1000
0001
0100
0000
,  // measure 32
0100
0000
0000
0001
0000
0100
1000
0000
0001
0000
0010
0100
0001
0000
1000
0000
,  // measure 33
0100
0000
0000
0001
0000
0010
0100
0000
0010
0100
0000
0001
1000
0000
0000
0000
,  // measure 34
0100
0001
0000
1000
0000
0000
0100
0000
0001
0000
0001
1000
0100
0000
0000
0000
,  // measure 35
0010
0000
0000
0100
0000
0001
1000
0000
0100
0001
0000
0010
0100
0000
0000
0000
,  // measure 36
0010
0000
0000
0001
0000
0000
0100
0000
0001
0100
0010
0100
0001
0000
0100
0000
,  // measure 37
0010
0000
0100
0001
0000
1000
0100
0000
0010
0100
0000
0001
1000
0000
0000
0000
,  // measure 38
0100
0001
0000
1000
0000
0000
0100
0000
0010
0000
0100
0001
1000
0000
0100
0000
,  // measure 39
0010
0000
0000
0100
0000
1000
0100
0000
0001
0010
0000
0100
0001
0000
0000
0000
,  // measure 40
0110
0000
0110
0000
0101
0000
0001
0100
,  // measure 41
0010
0001
1000
0001
0100
0000
0100
1000
,  // measure 42
0001
0000
0001
0100
1000
0000
0110
0000
,  // measure 43
0110
1100
0101
1001
,  // measure 44
0000
0000
0001
0100
1000
0000
0001
0100
0000
0000
0000
0000
0000
0000
0100
0000
,  // measure 45
0001
1000
0000
0100
0000
0010
0100
0000
0000
0000
0000
0000
0000
0000
0000
0000
,  // measure 46
0000
0000
0100
0000
0001
0000
1000
0100
0000
0000
0000
0000
0000
0000
0000
0000
,  // measure 47
0010
0100
0000
0001
0000
1000
0100
0000
0000
0000
0000
0000
0000
0000
0000
0000
,  // measure 48
0110
0000
0000
0000
0000
0000
0100
1000
0000
0000
0100
0000
0001
0000
0000
0000
,  // measure 49
1001
0000
0000
0000
0000
0000
0100
0001
0000
0000
1000
0000
0100
0000
0000
0000
,  // measure 50
1001
0000
0000
0000
0000
0000
0100
0001
0000
0000
0010
0000
0100
0000
0000
0000
,  // measure 51
0000
0000
0000
0000
0000
0000
1000
0100
0000
0000
0001
0000
0010
0000
0000
0000
,  // measure 52
0000
0000
0000
0000
0000
0000
0100
0001
0000
0000
0010
0000
0100
0000
0000
0000
,  // measure 53
0000
0000
0000
0000
0000
0000
0100
0001
0000
0000
0010
0000
0100
0000
0000
0000
,  // measure 54
0110
1100
0110
0101
,  // measure 55
0000
0000
0001
0100
1000
0000
0010
0000
,  // measure 56
0100
0000
0000
0001
0000
0000
1000
0000
0100
0000
0001
1000
0010
0000
0100
0000
,  // measure 57
0010
0000
0100
0000
0000
0001
0010
0000
0100
0010
0000
0100
0001
0000
0000
0000
,  // measure 58
1000
0100
0000
0001
0000
0010
0100
0000
0010
0000
0100
0001
1000
0000
0100
0000
,  // measure 59
0001
0000
0000
0010
0000
0100
0001
0000
1000
0100
0000
0010
0100
0000
0000
0000
,  // measure 60
0100
0000
0000
0001
0000
0000
1000
0000
0100
0010
0001
1000
0100
0000
0010
0000
,  // measure 61
0100
0000
0000
0001
0000
1000
0100
0000
0010
0100
0000
0001
1000
0000
0000
0000
,  // measure 62
0100
0001
0000
1000
0000
0100
0001
0000
0010
0100
0001
1000
0100
0000
0010
0000
,  // measure 63
0100
0000
0000
0001
0000
1000
0100
0000
0001
0010
0000
0100
0001
0000
0000
0000
,  // measure 64
2002
0000
0000
0000
,  // measure 65
0000
0000
0000
0000
,  // measure 66
0000
0000
0000
0000
,  // measure 67
0000
0000
0000
0000
3003
0010
0001
0100
,  // measure 68
1000
0000
0000
0010
0001
1000
0001
0100
,  // measure 69
1000
0000
0000
0000
0001
0100
0001
0100
,  // measure 70
2000
0000
3000
0000
0001
0010
0100
0010
,  // measure 71
1000
0000
0000
0000
0001
0100
0001
0100
,  // measure 72
1000
0000
0000
0001
0100
0010
0100
0001
,  // measure 73
0010
0000
0000
0010
0001
1000
0001
0100
,  // measure 74
2000
0000
0000
0000
,  // measure 75
0000
0001
0001
3001
,  // measure 76
0001
0010
1000
0000
0010
0001
0100
0000
,  // measure 77
0100
0000
0000
0001
0000
0000
0010
0000
0100
0000
0001
1000
0100
0000
0001
0000
,  // measure 78
0010
0000
0100
0000
0000
0001
1000
0000
0100
0001
0000
0010
0100
0000
0000
0000
,  // measure 79
0010
0100
0000
0001
0000
1000
0100
0000
0010
0000
0100
0001
1000
0000
0100
0000
,  // measure 80
0001
0000
0000
1000
0000
0100
0001
0000
0010
0100
0000
0001
1000
0000
0000
0000
,  // measure 81
0100
0001
0000
0010
0000
0000
0100
0000
0001
1000
0100
0001
0010
0000
0100
0000
,  // measure 82
0001
0000
0000
1000
0000
0001
0100
0000
0010
0100
0000
0001
1000
0000
0000
0000
,  // measure 83
0100
0001
0000
1000
0000
0000
0100
0000
0001
0000
0010
0100
0010
0000
0001
0000
,  // measure 84
1000
0000
0100
0001
0000
0010
0100
0000
0001
1000
0000
0100
0001
0000
0000
0000
,  // measure 85
1001
0000
0000
0000
0010
0000
0100
0000
0001
0000
0000
0000
1000
0100
0002
0000
,  // measure 86
0000
0000
0000
0003
,  // measure 87
0100
0000
0000
0001
0000
0000
1000
0000
0100
0000
0010
0100
0000
0000
0001
0000
,  // measure 88
1000
0000
0000
0100
0000
0001
0010
0000
0100
0001
0000
0010
0100
0000
0000
0000
,  // measure 89
0010
0000
0100
0002
0000
0000
0000
0000
,  // measure 90
0000
0000
0000
0000
0000
1000
0000
1003
,  // measure 91
0100
0001
0000
0010
0000
0000
0100
0000
0001
0000
1000
0100
0000
0000
0010
0000
,  // measure 92
1000
0100
0000
0001
0000
0010
0100
0000
0001
1000
0000
0100
0001
0000
0000
0000
;
