#VERSION:0.83;
#TITLE:2sided;
#SUBTITLE:;
#ARTIST:Arlo Parks;
#TITLETRANSLIT:;
#SUBTITLETRANSLIT:;
#ARTISTTRANSLIT:;
#GENRE:;
#ORIGIN:;
#CREDIT:;
#BANNER:;
#BACKGROUND:;
#PREVIEWVID:;
#JACKET:;
#CDIMAGE:;
#DISCIMAGE:;
#LYRICSPATH:;
#CDTITLE:;
#MUSIC:Arlo Parks - 2SIDED.ogg;
#OFFSET:0.000000;
#SAMPLESTART:100.059883;
#SAMPLELENGTH:12.000000;
#SELECTABLE:YES;
#BPMS:0.000=115.000;
#STOPS:0.000=0.200;
#DELAYS:;
#WARPS:;
#TIMESIGNATURES:0.000=4=4;
#TICKCOUNTS:0.000=4;
#COMBOS:0.000=1;
#SPEEDS:0.000=1.000=0.000=0;
#SCROLLS:0.000=1.000;
#FAKES:;
#LABELS:0.000=Song Start;
#BGCHANGES:0.000=Arlo Parks - 2SIDED.mp4=1.000=0=0=1=====,
99999=-nosongbg-=1.000=0=0=0 // don't automatically add -songbackground-
;
#KEYSOUNDS:;
#ATTACKS:
;

//---------------dance-single - ----------------
#NOTEDATA:;
#CHARTNAME:;
#STEPSTYPE:dance-single;
#DESCRIPTION:;
#CHARTSTYLE:;
#DIFFICULTY:Hard;
#METER:12;
#RADARVALUES:0.422345,0.566787,0.067575,0.056313,0.380110,525.000000,513.000000,12.000000,10.000000,0.000000,0.000000,0.000000,0.000000,0.000000,0.422345,0.566787,0.067575,0.056313,0.380110,525.000000,513.000000,12.000000,10.000000,0.000000,0.000000,0.000000,0.000000,0.000000;
#CREDIT:;
#NOTES:
// measure 0
0000
0000
0000
0000
,  // measure 1
0000
0000
0000
0000
,  // measure 2
0000
0000
0000
0000
,  // measure 3
0000
0000
0000
0000
,  // measure 4
0100
0000
0000
0001
0000
0000
0100
0001
,  // measure 5
0010
0000
0010
0000
0100
0000
0001
0000
0100
0000
0010
0000
1000
0000
0100
0001
,  // measure 6
0010
0000
0000
0100
0000
0000
0100
0010
,  // measure 7
0001
0000
1000
0000
0001
0000
0100
0000
0010
0000
0100
0001
0000
0000
0000
0000
,  // measure 8
0100
0000
0000
0001
0000
0000
0001
1000
,  // measure 9
0001
0000
0100
0000
0001
0000
0100
0000
0100
0000
0001
0000
0010
0000
0000
0100
,  // measure 10
0001
0000
0000
0000
0000
0000
0100
0010
,  // measure 11
0001
1000
0001
0100
0001
0000
0100
0000
,  // measure 12
2002
0000
0000
0000
0000
0000
3003
0100
,  // measure 13
0001
1000
0001
0100
,  // measure 14
0020
0000
0000
0000
0000
0000
0030
0100
,  // measure 15
0010
0001
0100
1000
,  // measure 16
0200
0000
0000
0000
0000
0000
0300
0001
,  // measure 17
1000
0001
0100
0010
,  // measure 18
0002
0000
0000
0000
,  // measure 19
0000
0000
0000
0003
,  // measure 20
0000
0000
0000
0000
0100
0000
0000
0001
0000
0010
0000
0100
0001
0000
0000
0000
,  // measure 21
0110
0000
0000
0000
0010
0000
0000
1000
0000
0100
0000
0000
0001
0000
0000
0000
,  // measure 22
1001
0000
0000
0100
0001
0000
0000
1000
0000
0100
0001
0000
1000
0000
0000
0100
,  // measure 23
0001
0000
0100
0010
0000
0010
0100
0001
0100
0010
0000
0001
1000
0100
0000
0100
,  // measure 24
0001
0000
0000
0000
0100
0000
0000
0001
0000
0010
0000
0000
0100
0000
0000
0000
,  // measure 25
0110
0000
0000
0000
0010
0000
0000
0001
0000
0100
0000
0000
1000
0000
0000
0000
,  // measure 26
0110
0000
0000
0010
0001
0000
0000
1000
0000
0100
0000
0000
0001
0000
0000
0000
,  // measure 27
1000
0000
0000
0001
0000
0000
0000
0000
0000
0000
0000
0000
0000
0000
0001
0100
,  // measure 28
1000
0000
0010
0000
0100
0000
0001
0010
0100
0001
1000
0000
0100
0000
0000
0000
,  // measure 29
0110
0000
0000
0000
0001
0000
0000
0010
0000
0100
0000
0000
0001
0000
1000
0100
,  // measure 30
0001
0000
0010
0000
0001
0000
0001
1000
0001
0100
0010
0000
1000
0000
0100
0001
,  // measure 31
0010
0000
0100
0001
0000
1000
0100
0010
0100
0001
0000
1000
0100
0000
0010
0001
,  // measure 32
0010
0000
1000
0000
0100
0000
0001
0100
0001
0100
0010
0000
1000
0000
0000
0000
,  // measure 33
0110
0000
0000
0000
0001
0000
0000
0010
0000
0100
0000
0000
0001
0000
1000
0100
,  // measure 34
0001
0000
0100
0010
0001
0000
0100
0010
1000
0010
0100
0000
0001
0000
0000
0000
,  // measure 35
1000
0110
0110
0000
,  // measure 36
0001
0000
0000
0000
0000
0000
0000
0010
0000
0000
0000
0000
1000
0000
0100
0000
,  // measure 37
0001
0010
0001
1000
0001
0100
0010
0000
,  // measure 38
0010
0000
0000
0100
0000
0000
0100
0010
,  // measure 39
0001
1000
0001
0100
0001
0000
0100
0000
,  // measure 40
1000
0000
0000
0100
0000
0001
0100
0010
,  // measure 41
0001
1000
0001
0100
1000
0001
0100
0001
,  // measure 42
0010
0000
0000
0010
0000
0000
0001
0100
,  // measure 43
0001
0010
0001
0100
1000
0001
0100
0000
,  // measure 44
2002
0000
0000
0000
0000
0000
3003
0001
,  // measure 45
0100
0010
0100
0001
,  // measure 46
0200
0000
0000
0000
0000
0000
0300
0001
,  // measure 47
0010
0100
0001
1000
,  // measure 48
0002
0000
0000
0000
0000
0000
0003
0010
,  // measure 49
0100
0001
0100
0001
,  // measure 50
2000
0000
0000
0000
,  // measure 51
0000
0000
0000
0000
3000
0000
0000
0000
0100
0001
0000
0010
0000
0000
0100
0001
,  // measure 52
1000
0000
0100
0000
0001
0000
0010
0100
0001
1000
0001
0000
0010
0000
0000
0000
,  // measure 53
0110
0000
0000
0000
0001
0000
0000
0010
0000
0100
0000
0000
1000
0000
0001
0010
,  // measure 54
0100
0000
0010
0000
0001
0000
0100
0010
0100
0001
1000
0000
0010
0000
0000
0000
,  // measure 55
0100
0001
0000
0010
0100
0000
0001
1000
0000
0100
0001
0010
0100
0000
0010
0100
,  // measure 56
0001
0000
0001
0000
0100
0000
1000
0100
0001
0100
0001
0000
0010
0000
0000
0000
,  // measure 57
0110
0000
0000
0000
0001
0000
0000
0010
0000
0100
0000
0000
1000
0000
0001
0010
,  // measure 58
0100
0000
0010
0000
0100
0000
0001
1000
0100
0001
0010
0000
0100
0000
0000
0000
,  // measure 59
0010
0000
0000
0001
0000
0000
0000
0000
0000
0000
0000
0000
0000
0000
0100
0001
,  // measure 60
0010
0000
0100
0000
0001
0000
1000
0100
0001
0010
0100
0000
0001
0000
0000
0000
,  // measure 61
0001
0000
0000
0000
0100
0000
0000
0010
0000
0001
0000
0000
1000
0000
0100
0001
,  // measure 62
0100
0000
0010
0000
0100
0000
0001
0100
0001
1000
0001
0000
0100
0000
0000
0000
,  // measure 63
0010
0000
0000
0000
0000
0000
1000
0100
0000
0001
0010
0000
0010
0000
0010
0100
,  // measure 64
0001
0000
0100
0000
1000
0000
0100
0001
0100
0001
0010
0000
0100
0000
0000
0000
,  // measure 65
0001
0000
0000
0000
0010
0000
0000
0100
0000
0001
0000
0000
1000
0000
0100
0001
,  // measure 66
0010
0000
0100
0000
1000
0000
0010
0100
0001
1000
0001
0000
1000
0000
0100
0001
,  // measure 67
0010
0100
0000
0001
1000
0000
0100
0001
0000
0010
0100
0000
0001
0000
0100
0010
,  // measure 68
0100
0000
0001
0000
1000
0000
0100
0001
0010
0100
0001
0000
1000
0000
0000
0000
,  // measure 69
0100
0000
0000
0000
0001
0000
0000
0010
0000
0100
0000
0000
0001
0000
0001
1000
,  // measure 70
0100
0000
0010
0000
0100
0000
0001
1000
0100
0001
0010
0000
0100
0000
0010
0100
,  // measure 71
0000
0001
1000
0000
0010
0100
0000
0001
0100
0000
0010
0100
0000
0000
0010
0100
,  // measure 72
0001
0000
0100
0000
1000
0000
0010
0100
0001
1000
0001
0000
0010
0000
0000
0000
,  // measure 73
0001
0000
0000
0000
1000
0000
0000
0100
0000
0001
0000
0000
0010
0000
0100
0001
,  // measure 74
0010
0000
0100
0000
0001
0000
1000
0100
0001
0100
0001
0000
0010
0000
0000
0000
,  // measure 75
0000
0000
0000
0000
0000
0000
1000
0001
0100
0000
0010
0100
0001
0000
0100
0010
,  // measure 76
0100
0010
0001
0100
0000
0000
0000
0000
,  // measure 77
0010
0000
0000
0000
0000
0000
0001
0000
0000
0000
0000
0000
0100
0000
0100
1000
,  // measure 78
0001
0000
0010
0000
0100
0000
0001
0100
0001
0010
0100
0000
0010
0000
0000
0000
,  // measure 79
0100
0000
0000
0100
0000
0000
0010
0000
0000
0010
0000
0000
0100
0000
0001
1000
,  // measure 80
0100
0001
0100
1000
0000
0000
0000
0000
,  // measure 81
0100
0000
0000
0000
0000
0000
0010
0000
0000
0000
0000
0000
0001
0000
0010
0100
,  // measure 82
1000
0000
0010
0000
0100
0000
0001
0010
0100
0001
1000
0000
0100
0000
0000
0000
,  // measure 83
1000
0000
0100
0001
0010
0000
0001
0100
0010
0000
0001
0100
0001
0100
0010
0000
;
