#VERSION:0.83;
#TITLE:2026;
#SUBTITLE:;
#ARTIST:O, Nomak, & A.G. Cook;
#TITLETRANSLIT:;
#SUBTITLETRANSLIT:;
#ARTISTTRANSLIT:;
#GENRE:;
#ORIGIN:;
#CREDIT:;
#BANNER:;
#BACKGROUND:;
#PREVIEWVID:;
#JACKET:;
#CDIMAGE:;
#DISCIMAGE:;
#LYRICSPATH:;
#CDTITLE:;
#MUSIC:2026.ogg;
#OFFSET:0.000000;
#SAMPLESTART:100.059883;
#SAMPLELENGTH:12.000000;
#SELECTABLE:YES;
#BPMS:0.000=140.000;
#STOPS:0.000=0.400;
#DELAYS:;
#WARPS:;
#TIMESIGNATURES:0.000=4=4;
#TICKCOUNTS:0.000=4;
#COMBOS:0.000=1;
#SPEEDS:0.000=1.000=0.000=0;
#SCROLLS:0.000=1.000;
#FAKES:;
#LABELS:0.000=Song Start;
#BGCHANGES:;
#KEYSOUNDS:;
#ATTACKS:
;

//---------------dance-single - ----------------
#NOTEDATA:;
#CHARTNAME:;
#STEPSTYPE:dance-single;
#DESCRIPTION:;
#CHARTSTYLE:;
#DIFFICULTY:Hard;
#METER:14;
#RADARVALUES:0.626514,0.793416,0.074104,0.050525,0.444623,1302.000000,1280.000000,22.000000,15.000000,0.000000,0.000000,0.000000,0.000000,0.000000,0.626514,0.793416,0.074104,0.050525,0.444623,1302.000000,1280.000000,22.000000,15.000000,0.000000,0.000000,0.000000,0.000000,0.000000;
#CREDIT:;
#NOTES:
// measure 0
0000
0000
0000
0000
,  // measure 1
0000
0000
0000
0000
,  // measure 2
0000
0000
0000
0000
,  // measure 3
0000
0000
0000
0000
,  // measure 4
0001
0100
0010
0000
0001
0100
1000
0000
,  // measure 5
0001
0100
0010
0000
0001
0100
1000
0000
,  // measure 6
0001
0000
0100
0000
0010
0000
0000
0000
0100
0001
0100
0010
0100
1000
0001
0100
,  // measure 7
0001
0100
0010
0100
0001
0100
0010
0001
1000
0001
0100
0010
0001
1000
0001
0100
,  // measure 8
1000
0100
0010
0000
0001
0100
0010
0000
,  // measure 9
0001
0100
0010
0000
0001
0100
1000
0000
,  // measure 10
0001
0100
0010
0000
0001
0100
1000
0000
,  // measure 11
0001
0100
0010
0000
0001
0100
0010
0000
,  // measure 12
0001
1000
0001
0100
0010
0000
0000
0000
0001
0000
0100
0000
0010
0000
0000
0000
,  // measure 13
0001
1000
0001
0100
1000
0000
0000
0000
0001
0000
0100
0000
0010
0000
0000
0000
,  // measure 14
0001
0100
0001
1000
0100
0000
0000
0000
0100
0000
0001
0000
0100
0000
0000
0000
,  // measure 15
0010
0001
0100
0010
0001
0000
0000
0000
1000
0000
0100
0000
0010
0000
0000
0000
,  // measure 16
0001
1000
0001
0100
1000
0000
0000
0000
0001
0000
0100
0000
0010
0000
0000
0000
,  // measure 17
0001
1000
0001
0100
1000
0000
0000
0000
0100
0000
0010
0000
0100
0000
0000
0000
,  // measure 18
0001
1000
0001
0100
0010
0000
0000
0000
0001
0000
0100
0000
1000
0000
0000
0000
,  // measure 19
0001
0100
0001
1000
0100
0000
0000
0000
0010
0000
0001
0000
0100
0000
0000
0000
,  // measure 20
0010
0001
1000
0001
0100
0000
0000
0000
1000
0000
0001
0000
0100
0000
0010
0000
,  // measure 21
1000
0100
0001
1000
0001
0000
0010
0000
0100
0000
0000
0000
0010
0000
0000
0000
,  // measure 22
0001
1000
0001
0100
0010
1000
0001
0100
1000
0000
0100
0000
0010
0000
0000
0000
,  // measure 23
0001
0100
0010
0001
0100
0001
0100
1000
0100
0000
0100
0000
0010
0001
1000
0001
,  // measure 24
0100
0001
0100
0010
0001
1000
0001
0100
1000
0000
0001
0000
0100
0000
0100
0000
,  // measure 25
0010
0001
0100
0001
0100
0000
0000
0000
1000
0000
0100
0000
0010
0000
0000
0000
,  // measure 26
0001
0100
0001
1000
0100
0000
0000
0000
0001
0000
0100
0000
0010
0000
0000
0000
,  // measure 27
0001
1000
0001
0100
0010
0001
0010
0100
0100
0000
0010
0000
0100
0001
1000
0001
,  // measure 28
1000
0100
0001
1000
0001
0010
0100
0000
0000
0000
0000
0000
0000
0000
0000
0000
,  // measure 29
0001
0100
0010
0001
1000
0001
0100
0000
0000
0000
0000
0000
0000
0000
0000
0000
,  // measure 30
0100
0010
0001
1000
0001
0100
1000
0000
0000
0000
0000
0000
0000
0000
0000
0000
,  // measure 31
0100
0010
0001
1000
0001
0100
1000
0000
0000
0000
0000
0100
0001
0100
0001
1000
,  // measure 32
0100
0010
0100
0001
1000
0001
0010
0100
0001
0000
0000
0000
0000
0000
0000
0000
,  // measure 33
1000
0001
0100
0010
0001
1000
0001
0100
1000
0000
0000
0000
0000
0000
0000
0000
,  // measure 34
0010
0001
0100
0010
0001
1000
0001
0100
1000
0000
0000
0000
0000
0000
0000
0000
,  // measure 35
0100
0001
0100
0010
0001
1000
0001
0100
0010
0000
0000
0000
0100
0000
0100
0000
,  // measure 36
0100
0010
0000
0001
0000
0000
0000
0000
1000
0100
0000
0000
0001
0000
0010
0000
,  // measure 37
0001
0100
0000
0000
0010
0000
0100
0000
0001
0010
0000
0000
0100
0000
0001
0000
,  // measure 38
0010
0100
0000
0000
0100
0000
1000
0000
0001
0010
0000
0000
0100
0000
0010
0000
,  // measure 39
0010
0100
0000
0000
0001
0000
0100
0000
0100
1000
0000
0000
0001
0000
0010
0100
,  // measure 40
0001
1000
0000
0000
0100
0000
0001
0000
0001
0100
0000
0000
0010
0000
0001
0000
,  // measure 41
1000
0100
0000
0000
0100
0000
1000
0000
0010
0100
0000
0000
0001
0000
1000
0000
,  // measure 42
0100
0010
0000
0000
1000
0000
0001
0000
0100
0010
0000
0000
0001
0000
0100
0000
,  // measure 43
0010
0001
0000
0000
0100
0000
0010
0000
0010
0100
0000
0000
0010
0000
0100
0001
,  // measure 44
1000
0100
0000
0000
0001
0000
1000
0000
0100
0001
0000
0000
0010
0000
0100
0000
,  // measure 45
0010
0100
0000
0000
0001
0000
1000
0000
0100
0001
0000
0000
0010
0000
0100
0000
,  // measure 46
0001
0010
0000
0000
1000
0000
0100
0000
0010
0100
0000
0000
0100
0000
1000
0000
,  // measure 47
0100
0010
0000
0000
0100
0000
1000
0000
0100
0001
0000
0000
0010
0000
0100
0000
,  // measure 48
0010
0001
0000
0000
0100
0000
0010
0000
0001
0100
0000
0000
1000
0000
0001
0000
,  // measure 49
0100
0010
0000
0000
0001
0000
0100
0000
0001
0010
0000
0000
1000
0000
0100
0000
,  // measure 50
0001
0100
0000
0000
0010
0000
0001
0000
1000
0100
0000
0000
0100
0000
0001
0000
,  // measure 51
0100
0010
0000
0000
0100
0000
0001
0000
0001
0100
0000
0000
0010
0000
0100
0001
,  // measure 52
1000
0010
0000
0000
0100
0000
0001
0010
1000
0100
0000
0000
1000
0000
0100
0001
,  // measure 53
0010
0100
0000
0000
0001
0000
1000
0100
0001
0010
0000
0000
1000
0000
0100
0001
,  // measure 54
0010
0100
0000
0000
0001
0000
0010
0100
0001
1000
0000
0000
0100
0000
0001
1000
,  // measure 55
0100
0001
0000
0000
0010
0000
0100
0001
1000
0100
0000
0000
0001
0000
0010
0100
,  // measure 56
0001
1000
0000
0000
0100
0000
0001
1000
0100
0001
0000
0000
0010
0000
0100
0001
,  // measure 57
1000
0100
0000
0000
0001
0000
0010
0100
0001
1000
0000
0000
0100
0000
0001
1000
,  // measure 58
0100
0001
0000
0000
0010
0000
0100
0001
1000
0100
0000
0000
0001
0000
0010
0100
,  // measure 59
0001
1000
0000
0000
0100
0000
0010
0100
0001
0100
0000
0000
0000
0000
0000
0000
,  // measure 60
2000
0000
0000
3000
,  // measure 61
0200
0000
0000
0300
,  // measure 62
0002
0000
0000
0003
,  // measure 63
1000
0010
0000
0000
0100
0000
0001
1000
0100
0000
0000
0000
0000
0000
0000
0000
,  // measure 64
0010
0100
0000
0000
0001
0000
1000
0100
0001
0010
0000
0000
0100
0000
0001
1000
,  // measure 65
0100
0001
0000
0000
0010
0000
0100
0001
1000
0001
0000
0000
0010
0000
0100
0001
,  // measure 66
1000
0100
0000
0000
0001
0000
0010
0100
0001
1000
0000
0000
0100
0000
0001
1000
,  // measure 67
0100
0001
0000
0000
0010
0000
0100
0001
1000
0001
0000
0000
0010
0000
0100
0000
,  // measure 68
0010
0100
0000
0010
1000
0001
0100
0001
,  // measure 69
0100
0000
1000
0100
1000
0000
1000
0000
,  // measure 70
2000
0000
3000
0000
0100
0001
0100
0001
,  // measure 71
0100
0000
0001
0010
0100
0000
0100
0000
,  // measure 72
0010
0001
0100
0010
0001
1000
0001
0100
1000
0000
0100
0000
0001
0000
0100
0000
,  // measure 73
1000
0000
0001
0100
1000
0000
1000
0000
,  // measure 74
1000
0001
0100
0010
0001
1000
0001
0100
1000
0000
0100
0000
0001
0000
0100
0000
,  // measure 75
1000
0000
0100
0001
0010
0000
0001
0000
,  // measure 76
1000
0100
0100
0100
0100
0100
0100
0100
,  // measure 77
0100
1000
0100
0010
0100
0010
0100
0010
,  // measure 78
0100
0010
0001
0100
0001
0100
0010
0001
,  // measure 79
0100
0001
0100
0010
0001
1000
0001
0100
,  // measure 80
0010
0001
0100
0001
0100
0010
0001
1000
,  // measure 81
0001
0100
0010
0001
1000
0001
0100
0010
,  // measure 82
0001
0100
0001
0100
1000
0100
0010
0100
,  // measure 83
0010
0100
0010
0001
0100
0001
0100
0010
,  // measure 84
0100
0100
0100
0100
0100
0100
0100
0100
,  // measure 85
1000
1000
1000
1000
1000
0001
0100
0010
,  // measure 86
0001
0100
0001
0100
0010
0001
1000
0001
,  // measure 87
0100
0010
0001
1000
0001
0100
0010
0001
,  // measure 88
0100
0001
0100
0010
0001
1000
0001
0100
,  // measure 89
0010
0001
1000
0001
0100
0010
0010
0010
,  // measure 90
0001
0010
0001
0001
0100
0001
0100
0010
,  // measure 91
0001
0100
0001
0100
0001
0100
1000
0100
,  // measure 92
0001
0100
0010
0100
0010
0100
0010
0100
,  // measure 93
0010
0100
0010
0100
1000
0010
0100
0010
,  // measure 94
0100
0010
0001
0100
0001
0100
0010
0001
,  // measure 95
0100
0001
0100
1000
0010
0001
0100
0001
,  // measure 96
0100
0001
0100
0010
0001
1000
0001
0100
,  // measure 97
0010
0001
0100
0001
0100
0010
0001
1000
,  // measure 98
0001
0100
0010
0001
0100
0001
0100
0010
,  // measure 99
0001
1000
0001
0100
0010
0001
0100
0001
,  // measure 100
0100
0010
0001
0100
0001
0100
0010
0001
,  // measure 101
1000
0001
0100
0010
0001
1000
0001
0100
,  // measure 102
0010
0001
0100
0001
0100
0010
0001
1000
,  // measure 103
0001
0100
0100
0010
1000
0100
0000
0000
,  // measure 104
1001
0000
0110
0000
0101
0101
0000
1001
,  // measure 105
1001
0000
0000
0000
1000
0100
0001
0000
1001
0000
0101
0000
0000
0000
1001
0000
,  // measure 106
1001
0000
0101
0000
1001
1001
0000
0110
,  // measure 107
0220
0000
0000
0330
,  // measure 108
1001
0000
1001
0000
0000
0101
0000
1001
,  // measure 109
1001
0000
0000
0000
0100
0001
1000
0000
0100
0000
0010
0000
0100
0000
0010
0000
,  // measure 110
0001
0100
0010
0001
0100
0001
0100
0010
,  // measure 111
0001
0010
1000
0100
0001
0010
0100
0000
0010
0001
0100
0010
0001
1000
0001
0100
,  // measure 112
1000
0000
0100
0000
0001
0000
0010
0000
0100
0001
1000
0000
0100
0000
0010
0001
,  // measure 113
0100
0000
0010
0000
1000
0100
0001
0000
0100
0000
0010
0000
0100
0001
1000
0001
,  // measure 114
0010
0000
0010
0000
0100
0000
0001
0000
0010
0001
1000
0100
0010
0100
0001
1000
,  // measure 115
0001
0100
0010
0100
0001
0000
0000
0000
0220
0000
0000
0000
0330
0000
0000
0000
,  // measure 116
0001
0000
0100
0000
1000
0001
0100
0000
0010
0000
0010
0100
0100
0000
0001
0000
,  // measure 117
0100
0000
0010
0000
1000
0100
0000
0001
0010
0000
0100
0001
1000
0000
0100
0010
,  // measure 118
0100
0010
0001
0100
0010
0001
1000
0001
,  // measure 119
0100
0010
0001
1000
0001
0100
1000
0000
,  // measure 120
0100
0010
0001
1000
0001
0100
0010
0000
0000
0000
0000
0000
0000
0000
0000
0000
,  // measure 121
0100
0010
0001
1000
0001
0100
1000
0000
0000
0000
0000
0000
0000
0000
0000
0000
,  // measure 122
0100
0010
0001
1000
0001
0100
1000
0000
0200
0000
0000
0000
0300
0000
0000
0000
,  // measure 123
0010
0100
0001
0100
0010
0001
1000
0001
0100
0010
0001
1000
0001
0100
0010
0001
,  // measure 124
1000
0001
0100
0010
0100
1000
0001
0000
0200
0000
0000
0000
0300
0000
0000
0000
,  // measure 125
0010
0001
0100
0001
0100
1000
0001
0000
0200
0000
0000
0000
0300
0000
0000
0000
,  // measure 126
0100
0010
0001
1000
0001
0100
1000
0000
0020
0000
0000
0000
0030
0000
0000
0000
,  // measure 127
0100
0010
0100
0001
0100
1000
0001
0000
0200
0000
0000
0000
0300
0000
0000
0000
,  // measure 128
1000
0100
0000
0000
0010
0000
0100
0000
0001
1000
0000
0000
0100
0000
0001
0000
,  // measure 129
0010
0100
0000
0000
0010
0000
0001
0000
1000
0100
0000
0000
0100
0000
0010
0000
,  // measure 130
0001
0010
0000
0000
0100
0000
0001
0000
1000
0100
0000
0000
0001
0000
0010
0000
,  // measure 131
0100
0001
0000
0000
1000
0000
0100
0000
0010
0100
0000
0000
0001
0000
1000
0000
,  // measure 132
0010
0100
0000
0000
0001
0000
0010
0000
0100
0001
0000
0000
1000
0000
0100
0000
,  // measure 133
0001
0010
0000
0000
0100
0000
0001
0000
1000
0100
0000
0000
0001
0000
0010
0000
,  // measure 134
0100
1000
0000
0000
0100
0000
0001
0000
0100
0010
0000
0000
0001
0000
1000
0000
,  // measure 135
2002
0000
0000
3003
,  // measure 136
1000
0100
0000
0000
0001
0000
0010
0000
0100
0001
0000
0000
1000
0000
0100
0000
,  // measure 137
0100
0010
0000
0000
0001
0000
1000
0000
0100
0001
0000
0000
0010
0000
0100
0000
,  // measure 138
0001
0100
0000
0000
0010
0000
0001
0000
1000
0100
0000
0000
0001
0000
0010
0000
,  // measure 139
0100
0010
0000
0000
0100
0000
1000
0000
0001
0010
0000
0000
0100
0000
0001
0000
,  // measure 140
1000
0100
0000
0000
0010
0000
0100
0000
0001
1000
0000
0000
0100
0000
0001
0000
,  // measure 141
0010
0100
0000
0000
0001
0000
1000
0000
0100
0001
0000
0000
0010
0000
0100
0000
,  // measure 142
0010
0100
0000
0000
0001
0000
1000
0000
0100
0001
0000
0000
0010
0000
0100
0000
,  // measure 143
0100
0010
0000
0000
0001
0000
0100
0000
0010
0001
0000
0000
1000
0000
0100
0000
,  // measure 144
0010
0010
0010
0010
0010
0010
0010
0010
,  // measure 145
0010
0010
0010
0010
0010
0010
0010
0010
,  // measure 146
0010
0010
0010
0010
0010
0010
0010
0010
,  // measure 147
0010
0010
0010
0010
0010
0010
0010
0010
,  // measure 148
0010
0010
0010
0010
0010
0010
0010
0010
,  // measure 149
0010
0010
0010
0010
0010
0010
0010
0010
,  // measure 150
0010
0010
0010
0010
0010
0010
0010
0010
,  // measure 151
0010
0010
0010
0010
0010
0010
0010
0010
,  // measure 152
0010
0010
0010
0010
0010
0010
0010
0010
,  // measure 153
0010
0010
0010
0010
0010
0010
0010
0010
,  // measure 154
0010
0010
0010
0010
0010
0010
0010
0010
,  // measure 155
0010
0010
0010
0010
0010
0010
0010
0010
,  // measure 156
0010
0001
0100
0010
,  // measure 157
0001
0100
0001
0100
,  // measure 158
0010
0010
0100
0001
,  // measure 159
1000
0001
0100
0010
,  // measure 160
0001
1000
0001
0100
,  // measure 161
0010
0001
1000
0001
,  // measure 162
0100
0010
0001
0100
,  // measure 163
0001
0100
0010
0001
,  // measure 164
1000
0001
0100
0010
,  // measure 165
0001
0100
0001
0100
,  // measure 166
0010
0001
1000
0001
,  // measure 167
0100
0010
0001
1000
,  // measure 168
0001
0100
0000
0000
;
