#TITLE:2009;
#SUBTITLE:;
#ARTIST:Okinoth;
#TITLETRANSLIT:;
#SUBTITLETRANSLIT:;
#ARTISTTRANSLIT:;
#GENRE:;
#CREDIT:;
#BANNER:;
#BACKGROUND:;
#LYRICSPATH:;
#CDTITLE:;
#MUSIC:2009.ogg;
#OFFSET:0.000000;
#SAMPLESTART:100.059883;
#SAMPLELENGTH:12.000000;
#SELECTABLE:YES;
#BPMS:0.000000=130.000000
;
#STOPS:
;
#BGCHANGES:;
#KEYSOUNDS:;
#ATTACKS:;

//---------------dance-single - ----------------
#NOTES:
     dance-single:
     :
     Hard:
     14:
     0.604003,0.520041,0.000000,0.000000,0.359278,812.000000,812.000000,0.000000,0.000000,0.000000,0.000000,0.604003,0.520041,0.000000,0.000000,0.359278,812.000000,812.000000,0.000000,0.000000,0.000000,0.000000:
// measure 0
0000
0000
0000
0000
,  // measure 1
0000
0000
0000
0000
,  // measure 2
0100
0000
0010
0100
0000
0000
0001
0000
0010
0000
0010
0100
0000
0000
0001
0000
,  // measure 3
0100
0000
0001
1000
0000
0000
0100
0000
0001
0000
0010
0100
0000
0000
0001
0000
,  // measure 4
0010
0000
0100
0001
0000
0000
1000
0000
0100
0000
0001
0100
0000
0000
0010
0000
,  // measure 5
0100
0000
0001
1000
0000
0000
0100
0000
0001
0000
0010
0100
0000
0000
0001
0000
,  // measure 6
0010
0000
0100
0001
0000
0000
1000
0000
0100
0000
0001
0100
0000
0000
0010
0000
,  // measure 7
0100
0000
0001
1000
0000
0000
0100
0000
0001
0000
0010
0100
0000
0000
0001
0000
,  // measure 8
0010
0000
0001
0100
0000
0000
0010
0000
0001
0000
0100
1000
0000
0000
0100
0000
,  // measure 9
0010
0000
0001
0100
0000
0000
0010
0000
0001
0000
0100
1000
0000
0000
0100
0000
,  // measure 10
0100
0000
0010
0001
0000
0000
0100
0000
0010
0000
0100
0001
0000
0000
1000
0000
,  // measure 11
0010
0000
0100
0001
0000
0000
0010
0000
0001
0000
0100
1000
0000
0000
0100
0000
,  // measure 12
0010
0000
0010
0100
0001
0000
0100
0000
1000
0000
0100
0001
0000
0000
0010
0000
,  // measure 13
0010
0000
0001
1000
0100
0000
0010
0000
0100
0000
0010
0001
0000
0000
1000
0000
,  // measure 14
0100
0000
0001
0010
0100
0000
0100
0000
0010
0000
0100
0001
0000
0000
0100
0000
,  // measure 15
1000
0000
0001
0100
0010
0000
0001
0000
0100
0000
0010
0001
0000
0000
0100
0000
,  // measure 16
0100
0010
0001
1000
0001
0100
1000
0100
,  // measure 17
0010
0000
0001
0000
1000
0000
0001
0000
0100
0000
0010
0000
1000
0100
0001
0000
,  // measure 18
0100
0001
0100
0010
0001
1000
0001
0100
,  // measure 19
0010
0000
0001
0000
1000
0000
0010
0000
0100
0000
0010
0000
0100
0001
1000
0000
,  // measure 20
0010
0100
0001
0100
0010
0100
0001
0100
,  // measure 21
0010
0000
0001
0000
1000
0000
0001
0000
0100
0000
0010
0000
0001
1000
0100
0000
,  // measure 22
0010
0001
0100
0010
0001
1000
0001
0100
,  // measure 23
0010
0000
0001
0000
1000
0000
0001
0000
0100
0000
0010
0000
1000
0100
0001
0000
,  // measure 24
0010
0001
0100
0010
0001
1000
0001
0100
,  // measure 25
0010
0000
0001
0000
1000
0000
0001
0000
0100
0000
0010
0000
0001
0100
1000
0000
,  // measure 26
0100
0001
0100
0010
0001
0100
0001
0100
,  // measure 27
0010
0000
0001
0000
1000
0000
0001
0000
0100
0000
0010
0000
0001
0100
1000
0000
,  // measure 28
0010
0001
0100
0010
0001
1000
0001
0100
,  // measure 29
0010
0000
0001
0000
1000
0000
0001
0000
0100
0000
0010
0000
0001
0100
1000
0000
,  // measure 30
0010
0001
1000
0001
0100
0010
0001
0100
,  // measure 31
0001
0000
0100
0000
0010
0000
0001
0000
1000
0000
0001
0000
0100
0010
0100
0000
,  // measure 32
0001
0000
1000
0100
0000
0000
0001
0000
0010
0000
0100
0001
0000
0000
1000
0000
,  // measure 33
0001
0000
0010
0100
0000
0000
0001
0000
1000
0000
0100
0001
0000
0000
0010
0000
,  // measure 34
0100
0000
0001
1000
0000
0000
0100
0000
0001
0000
0010
0100
0000
0000
0001
0000
,  // measure 35
0010
0000
0100
0010
0000
0000
0001
0000
1000
0000
0100
0001
0000
0000
0010
0000
,  // measure 36
0001
0000
1000
0100
0000
0000
0010
0000
0001
0000
1000
0100
0000
0000
0010
0000
,  // measure 37
1000
0000
0100
0001
0000
0000
0010
0000
0001
0000
0010
0100
0000
0000
0001
0000
,  // measure 38
0100
0000
0010
0001
0000
0000
0100
0000
1000
0000
0001
0100
0000
0000
0010
0000
,  // measure 39
1000
0000
0100
0001
0000
0000
0010
0000
0100
0000
0010
0001
0000
0000
0100
0000
,  // measure 40
1000
0000
0010
0100
0000
0000
0001
0000
0010
0000
0100
0001
0000
0000
1000
0000
,  // measure 41
0100
0000
0001
0010
0000
0000
0100
0000
0001
0000
0010
0100
0000
0000
0001
0000
,  // measure 42
0100
0000
0010
0001
0000
0000
0100
0000
0010
0000
0100
0001
0000
0000
1000
0000
,  // measure 43
0100
0000
0001
0010
0000
0000
0100
0000
0001
0000
1000
0100
0000
0000
0001
0000
,  // measure 44
1000
0000
0100
0001
0000
0000
0010
0000
0100
0000
0001
1000
0000
0000
0100
0000
,  // measure 45
0010
0000
0100
0001
0000
0000
1000
0000
0100
0000
0001
0010
0000
0000
0100
0000
,  // measure 46
0010
0000
0100
0001
0000
0000
1000
0000
0100
0000
0001
0010
0000
0000
0100
0000
,  // measure 47
0010
0000
0100
0001
0000
0000
1000
0000
0100
0000
0001
0010
0000
0000
0001
0000
,  // measure 48
0001
1000
0001
0100
0010
0001
0100
0001
,  // measure 49
0100
0000
0010
0000
0001
0000
1000
0000
0001
0000
0100
0000
1000
0100
0001
0000
,  // measure 50
0010
0001
1000
0001
0100
0010
0001
0100
,  // measure 51
0010
0000
0001
0000
1000
0000
0001
0000
0100
0000
0010
0000
0001
0100
1000
0000
,  // measure 52
0010
0001
0100
0010
0001
1000
0001
0100
,  // measure 53
0010
0000
0001
0000
0100
0000
0001
0000
0100
0000
1000
0000
0001
0100
0010
0000
,  // measure 54
0001
0100
0001
0100
0010
0001
1000
0001
,  // measure 55
0100
0000
0010
0000
0001
0000
1000
0000
0001
0000
0100
0000
0010
0001
0100
0000
,  // measure 56
0010
0001
0100
0010
0001
1000
0001
0100
,  // measure 57
0010
0000
0001
0000
1000
0000
0001
0000
0100
0000
0010
0000
0001
0100
1000
0000
,  // measure 58
0100
0001
0100
0001
0100
0001
0100
0001
,  // measure 59
0100
0000
0010
0000
0001
0000
1000
0000
0001
0000
0100
0000
0010
0001
0100
0000
,  // measure 60
0010
0001
1000
0001
0100
0001
0100
0001
,  // measure 61
0100
0000
0010
0000
0001
0000
1000
0000
0001
0000
0100
0000
0010
0001
0100
0000
,  // measure 62
0010
0001
0100
0010
0001
1000
0001
0100
,  // measure 63
0010
0001
1000
0001
0100
0010
1000
0100
,  // measure 64
0001
0010
0100
0010
0001
0100
0001
0100
,  // measure 65
0010
0000
0001
0000
1000
0000
0001
0000
0100
0000
0010
0000
1000
0100
0001
0000
,  // measure 66
0010
0001
0100
0010
0001
1000
0001
0100
,  // measure 67
0010
0000
0001
0000
1000
0000
0001
0000
0100
0000
0010
0000
0001
0100
1000
0000
,  // measure 68
0010
0001
0100
0010
0001
1000
0001
0100
,  // measure 69
0010
0000
0001
0000
1000
0000
0001
0000
0100
0000
0010
0000
0001
0100
1000
0000
,  // measure 70
0010
0001
1000
0001
0100
0010
0001
0100
,  // measure 71
0001
0100
0010
0010
0001
0100
0001
1000
,  // measure 72
0100
0010
0001
0100
0010
0001
1000
0001
,  // measure 73
0100
0000
0010
0000
0001
0000
1000
0000
0001
0000
0100
0000
0010
0001
0100
0000
,  // measure 74
0010
0001
0100
0010
0001
0100
0001
0100
,  // measure 75
0010
0000
0001
0000
1000
0000
0001
0000
0100
0000
0010
0000
0100
1000
0001
0000
,  // measure 76
0010
0100
0001
0100
0010
0001
1000
0001
,  // measure 77
0100
0000
0010
0000
0001
0000
1000
0000
0001
0000
0100
0000
0010
0001
0100
0000
,  // measure 78
0010
0001
0100
0010
0001
1000
0001
0100
,  // measure 79
0010
0001
1000
0001
0100
0010
0100
0001
,  // measure 80
0010
0001
0000
0000
0100
1000
0000
0000
0001
0100
0000
0000
0010
0001
0000
0000
,  // measure 81
0100
0010
0000
0000
0100
0001
0000
0000
0100
0010
0000
0000
0100
0001
0000
0000
,  // measure 82
0001
0100
0000
0000
0010
0100
0000
0000
0001
1000
0000
0000
0100
0001
0000
0000
,  // measure 83
0010
0100
0000
0000
0001
1000
0000
0000
0100
0001
0000
0000
0010
0100
0000
0000
,  // measure 84
0010
0100
0000
0000
0001
1000
0000
0000
0100
0001
0000
0000
0010
0100
0000
0000
,  // measure 85
0010
0100
0000
0000
0001
1000
0000
0000
0100
0001
0000
0000
0010
0100
0000
0000
,  // measure 86
0001
0010
0000
0000
0100
0001
0000
0000
1000
0100
0000
0000
0010
0100
0000
0000
,  // measure 87
0001
1000
0000
0000
0100
0001
0000
0000
0010
0100
0001
0100
0010
1000
0100
0000
,  // measure 88
0010
0000
0100
0001
0000
0000
1000
0000
0100
0000
0001
0010
0000
0000
0100
0000
,  // measure 89
0001
0000
1000
0100
0000
0000
0001
0000
0010
0000
0100
0001
0000
0000
1000
0000
,  // measure 90
0100
0000
0001
0010
0000
0000
0100
0000
0001
0000
1000
0100
0000
0000
0001
0000
,  // measure 91
0010
0000
0100
0001
0000
0000
0010
0000
0100
0000
0001
1000
0000
0000
0100
0000
,  // measure 92
0001
0000
0010
0100
0000
0000
0001
0000
0100
0000
0010
0100
0000
0000
0001
0000
,  // measure 93
0010
0000
0100
0001
0000
0000
1000
0000
0100
0000
0001
0010
0000
0000
0100
0000
,  // measure 94
0010
0000
0100
0001
0000
0000
1000
0000
0100
0000
0001
0010
0000
0000
0100
0000
,  // measure 95
0010
0000
0100
0001
0000
0000
1000
0000
0100
0000
0001
0010
0000
0000
0100
0000
,  // measure 96
0001
0000
0100
1000
0000
0000
0001
0000
0010
0000
0100
0001
0000
0000
1000
0000
,  // measure 97
0010
0000
0001
0100
0000
0000
0010
0000
0001
0000
0010
0100
0000
0000
0001
0000
,  // measure 98
1000
0000
0100
0001
0000
0000
0010
0000
0100
0000
0001
1000
0000
0000
0100
0000
,  // measure 99
0010
0000
0100
0001
0000
0000
1000
0000
0100
0000
0001
0010
0000
0000
0100
0000
;
