#TITLE:17才;
#SUBTITLE:;
#ARTIST:MK;
#TITLETRANSLIT:17;
#SUBTITLETRANSLIT:;
#ARTISTTRANSLIT:;
#GENRE:;
#CREDIT:;
#BANNER:;
#BACKGROUND:;
#LYRICSPATH:;
#CDTITLE:;
#MUSIC:MK - 17 (Extended Mix).ogg;
#OFFSET:0.000000;
#SAMPLESTART:100.059883;
#SAMPLELENGTH:12.000000;
#SELECTABLE:YES;
#BPMS:0.000000=122.000000
;
#STOPS:0.000000=0.100000
;
#BGCHANGES:;
#KEYSOUNDS:;
#ATTACKS:;

//---------------dance-single - ----------------
#NOTES:
     dance-single:
     :
     Hard:
     12:
     0.524147,0.594519,0.016986,0.000000,0.232145,1296.000000,1290.000000,6.000000,0.000000,0.000000,0.000000,0.524147,0.594519,0.016986,0.000000,0.232145,1296.000000,1290.000000,6.000000,0.000000,0.000000,0.000000:
// measure 0
0000
0000
0000
0000
,  // measure 1
0000
0000
0000
0000
,  // measure 2
0000
0000
0000
0000
,  // measure 3
0000
0000
0000
0000
,  // measure 4
0010
0100
0001
0100
,  // measure 5
0001
0100
0001
0100
,  // measure 6
1000
0100
0010
0001
,  // measure 7
0100
0001
0100
0010
,  // measure 8
0100
0010
0001
0100
0001
0100
0010
0001
,  // measure 9
1000
0000
0001
0000
0100
0000
0010
0000
1000
0100
0001
0000
0100
0000
0010
0000
,  // measure 10
0001
0100
0001
0100
0010
0001
1000
0001
,  // measure 11
0100
0000
0001
0000
0100
0000
0010
0000
0001
0100
0010
0000
0001
0000
1000
0000
,  // measure 12
0100
0100
0010
0100
0001
0100
0010
0100
,  // measure 13
0001
0000
0100
0000
1000
0000
0100
0000
0010
0001
0100
0000
0010
0000
0100
0000
,  // measure 14
0001
0100
0010
0001
0100
0001
0100
0010
,  // measure 15
0001
0000
1000
0000
0001
0000
0100
0000
0010
0001
0100
0000
1000
0000
0001
0000
,  // measure 16
0100
0010
0100
0010
0001
1000
0001
0100
,  // measure 17
0010
0000
0001
0000
0100
0000
0010
0000
0100
0010
0100
0000
1000
0000
0100
0000
,  // measure 18
0010
0100
0010
0100
0001
0100
0010
0001
,  // measure 19
1000
0000
0001
0000
0100
0000
0010
0000
0100
1000
0100
0000
0010
0000
0100
0000
,  // measure 20
1000
0100
0010
0100
0001
0100
0001
0010
,  // measure 21
0001
0000
1000
0000
0001
0000
0100
0000
0010
0001
0100
0000
0100
0000
0010
0000
,  // measure 22
0001
0100
0001
0100
0010
0001
1000
0001
,  // measure 23
0100
0000
0010
0000
0001
0000
0100
0000
1000
0001
0100
0000
0010
0000
0001
0000
,  // measure 24
0101
0000
0010
0000
0100
0001
0000
0010
,  // measure 25
0000
0100
0000
1000
0001
0000
0100
0000
,  // measure 26
0100
0000
0010
0000
0100
1000
0000
0001
,  // measure 27
0000
0100
0000
0010
0001
0000
0100
0000
,  // measure 28
0000
0010
0001
0100
1000
0000
0001
0100
,  // measure 29
0010
0000
0000
0100
0000
0000
0001
0000
0000
0000
0000
0100
0000
0000
0001
0000
,  // measure 30
0010
0000
0000
0001
0000
0000
0010
0000
0000
0000
0010
0000
0001
0000
0100
0000
,  // measure 31
1000
0000
0000
0001
0000
0000
1000
0000
0000
0000
0010
0000
0001
0000
0100
0000
,  // measure 32
0010
0000
0000
0100
0000
0001
0000
0000
0100
0000
0000
0000
0001
0000
1000
0000
,  // measure 33
0100
0000
0000
0100
0000
0000
0010
0000
0000
0000
0001
0000
1000
0000
0100
0000
,  // measure 34
0010
0000
0000
0001
0000
0000
0100
0000
0000
0000
0010
0000
0001
0000
0100
0000
,  // measure 35
1000
0000
0000
0001
0000
0000
0100
0000
0000
0000
0010
0000
0001
0000
0100
0000
,  // measure 36
0010
0000
0000
0100
0000
0001
0000
0000
0100
0000
0000
0000
0001
0000
0100
0000
,  // measure 37
1000
0000
0000
0100
0000
0000
0001
0000
0000
0000
0010
0000
0100
0000
0001
0000
,  // measure 38
0010
0000
0000
0100
0000
0000
0010
0000
0000
0000
0001
0000
0100
0000
1000
0000
,  // measure 39
0001
0000
0000
0100
0000
0000
0010
0000
0000
0010
0000
0000
0000
0100
0000
0000
,  // measure 40
0001
0000
0010
0000
0100
0001
0000
0010
,  // measure 41
0000
0100
0000
0001
0100
0000
1000
0000
,  // measure 42
0001
0000
0100
0000
0010
0001
0000
0100
,  // measure 43
0000
0010
0000
0001
1000
0000
0100
0000
,  // measure 44
0000
1000
0001
0100
0010
0000
0001
0100
,  // measure 45
0010
0000
0000
0001
0000
0000
0100
0000
0010
0000
0001
0000
0100
0000
1000
0000
,  // measure 46
0001
0000
0000
0100
0000
0000
0010
0000
0000
0000
1000
0000
0001
0000
0100
0000
,  // measure 47
0010
0000
0000
0001
0000
0000
0100
0000
0000
0000
0001
0000
0100
0000
1000
0000
,  // measure 48
0110
0010
0001
0100
0001
0100
0010
0001
,  // measure 49
1000
0001
0100
0010
0001
0100
0001
1000
,  // measure 50
0100
0100
0010
0100
1000
0100
0100
0010
,  // measure 51
0100
0001
0100
1000
0100
0010
0100
0001
,  // measure 52
0010
0100
0100
0001
0100
0010
0001
1000
,  // measure 53
0001
0100
0010
0001
0100
0001
0100
0010
,  // measure 54
1000
0001
0100
0010
0100
0100
1000
0100
,  // measure 55
1000
0000
0000
0100
0000
0000
0010
0000
0000
0000
0000
0000
0100
0000
0010
0000
,  // measure 56
0101
0010
0100
0010
0100
0010
0100
0010
,  // measure 57
0001
1000
0001
0100
0010
0100
0001
0100
,  // measure 58
1000
0100
0010
0100
1000
0010
0100
0010
,  // measure 59
0100
0001
0100
0010
0100
1000
0100
0010
,  // measure 60
0100
0001
0100
0010
0001
1000
0001
0100
,  // measure 61
0010
0001
0100
0001
0100
0010
0001
0100
,  // measure 62
1000
0010
0100
0001
0100
0010
0001
0100
,  // measure 63
0010
0100
0001
0100
1000
0100
0010
0100
,  // measure 64
0010
0100
0001
0100
0010
0001
1000
0100
,  // measure 65
0010
0100
1000
0100
0010
0100
0001
0100
,  // measure 66
0010
0001
0100
1000
0100
0010
0100
0010
,  // measure 67
0100
0010
0100
0001
0100
1000
0100
0010
,  // measure 68
0100
0010
0100
0010
0100
0001
0100
1000
,  // measure 69
0100
0010
0001
0100
0001
0100
0010
0001
,  // measure 70
0100
0001
0100
0010
0100
0001
0100
0010
,  // measure 71
0001
1000
0001
0100
0010
0001
0100
0001
,  // measure 72
0100
0010
0001
0100
0001
1000
0100
0010
,  // measure 73
0100
0010
0100
0010
0100
0001
0100
0010
,  // measure 74
0100
0001
0100
0010
0001
0100
0001
1000
,  // measure 75
0100
0100
0010
0001
0100
1000
0100
0010
,  // measure 76
0100
0001
0100
0010
0001
0100
1000
0010
,  // measure 77
0100
0010
0100
0010
0100
0001
0100
0010
,  // measure 78
0001
1000
0001
0100
0010
0001
0100
1000
,  // measure 79
0001
0000
0000
0100
0000
0000
0010
0000
0000
0000
0001
0000
0100
0000
1000
0000
,  // measure 80
0101
0010
0100
0001
1000
0001
0010
0100
,  // measure 81
0001
0100
0010
0100
0001
1000
0100
0010
,  // measure 82
0100
1000
0010
0100
0010
0100
0010
0100
,  // measure 83
0001
0100
0010
1000
0100
0001
0010
0100
,  // measure 84
0010
0001
1000
0010
0100
0010
0100
0010
,  // measure 85
0100
1000
0010
0100
1000
0100
0010
0100
,  // measure 86
0010
0010
0010
0010
0100
0010
0100
0010
,  // measure 87
0001
0100
1000
0100
0010
0100
0010
0001
,  // measure 88
0100
0010
0100
0001
0100
0010
0001
0100
,  // measure 89
1000
0100
0010
0100
0010
0100
0001
1000
,  // measure 90
0100
0010
0001
0100
0010
0001
0100
1000
,  // measure 91
0100
0010
0100
0010
0100
0010
0100
0010
,  // measure 92
0100
1000
0100
0010
0100
0010
1000
0010
,  // measure 93
0100
0010
0100
0001
0100
0010
0100
0001
,  // measure 94
0100
0010
0001
1000
0001
0100
0010
0001
,  // measure 95
0100
0001
0100
0010
0001
1000
0001
0100
,  // measure 96
0010
0100
0001
0100
,  // measure 97
0100
0010
0100
0001
,  // measure 98
0100
0010
0001
0100
,  // measure 99
1000
0100
0100
0010
,  // measure 100
0100
0001
0100
0001
,  // measure 101
0100
0010
0001
1000
,  // measure 102
0001
0100
0010
0001
,  // measure 103
0100
0001
0100
0010
,  // measure 104
0110
0100
0010
0001
1000
0001
0100
0010
,  // measure 105
0010
0100
0010
0010
0100
1000
0010
0100
,  // measure 106
0010
0001
0010
0100
1000
0100
0010
0100
,  // measure 107
0001
0100
0010
0100
1000
0100
0010
0100
,  // measure 108
0010
0001
0010
0100
1000
0100
0010
0100
,  // measure 109
0001
0100
0010
0100
0010
0100
0001
0100
,  // measure 110
1000
0010
0100
0010
0001
1000
0001
0100
,  // measure 111
0010
0001
0100
1000
0001
0100
0010
0001
,  // measure 112
0010
1000
0001
0100
0010
0100
0010
0100
,  // measure 113
0100
1000
0100
0010
1000
0100
0010
0100
,  // measure 114
0010
0100
0010
0100
1000
0100
0010
0100
,  // measure 115
0001
0100
0010
0100
0010
0100
0001
0100
,  // measure 116
1000
0100
0001
0010
0100
0001
1000
0001
,  // measure 117
0100
0010
0001
1000
0001
0100
0010
0001
,  // measure 118
0100
0000
0000
0001
0000
0000
0010
0000
0000
0000
0010
0000
0100
0000
0001
0000
,  // measure 119
0001
0000
0000
0100
0000
0000
0010
0000
0000
0000
0001
0000
0000
1000
0000
0000
,  // measure 120
0110
0010
0100
0001
1000
0001
0010
0100
,  // measure 121
0001
1000
0001
0010
0100
0010
0001
0100
,  // measure 122
0010
0001
0100
0010
0001
1000
0001
0100
,  // measure 123
0010
0001
0100
0001
0100
0010
0001
1000
,  // measure 124
0100
0100
0010
0010
0100
0100
0010
0010
,  // measure 125
0100
0010
0100
1000
0100
0010
0100
0010
,  // measure 126
0100
1000
0010
0100
0001
0100
0100
0010
,  // measure 127
0100
1000
0100
0100
0010
0100
0010
0100
,  // measure 128
0010
0100
1000
0100
0010
0100
0010
0010
,  // measure 129
0100
1000
0100
0010
0100
0010
0100
1000
,  // measure 130
0100
0100
0100
0010
0010
0100
0010
0100
,  // measure 131
0010
0100
1000
0100
0010
0100
0001
0100
,  // measure 132
0010
0001
1000
0001
0100
0010
0001
0100
,  // measure 133
0001
0100
0010
0001
1000
0001
0100
0010
,  // measure 134
0100
0000
0000
0001
0000
0000
0000
0000
0010
0000
0000
0100
0000
0000
0000
0000
,  // measure 135
0010
0000
0000
0100
0000
0000
0000
0000
0001
0000
0000
0010
0000
0000
0000
0000
,  // measure 136
0100
0001
0000
1000
0000
0000
0010
0000
0100
0001
0000
0010
0000
0000
0010
0000
,  // measure 137
0100
0001
0000
0010
0000
0000
0100
0000
0100
0010
0000
1000
0000
0000
0100
0000
,  // measure 138
0001
0010
0000
0100
0000
0000
0001
0000
1000
0100
0000
0001
0000
0000
0010
0000
,  // measure 139
0100
0001
0000
0010
0000
0000
0100
0000
0010
0100
0000
0001
0000
0000
0010
0000
,  // measure 140
0001
0010
0000
0100
0000
0000
0001
0000
0100
1000
0000
0001
0000
0000
0010
0000
,  // measure 141
0010
0100
0000
0001
0000
0000
0010
0000
0100
0001
0000
0010
0000
0000
0100
0000
,  // measure 142
0001
1000
0000
0100
0000
0000
0010
0000
0001
0100
0000
1000
0000
0000
0100
0000
,  // measure 143
0010
0001
0000
0100
0000
0000
0010
0000
0100
0001
0000
1000
0000
0000
0100
0000
,  // measure 144
0010
0100
0001
1000
0001
0000
0010
0000
0100
0001
1000
0001
0010
0000
0100
0000
,  // measure 145
0010
0100
0001
1000
0001
0000
0010
0000
0100
0001
1000
0001
0010
0000
0100
0000
,  // measure 146
0010
0100
0001
1000
0001
0000
0010
0000
0100
0001
0100
0001
0010
0000
0100
0000
,  // measure 147
0010
0100
0001
1000
0001
0000
0010
0000
0001
1000
0001
0100
0010
0000
0100
0000
,  // measure 148
0001
0100
0001
0100
1000
0000
0010
0000
0100
0001
1000
0001
0010
0000
0100
0000
,  // measure 149
0010
0100
0001
1000
0001
0000
0010
0000
0100
0001
0100
0010
0001
0000
1000
0000
,  // measure 150
0100
0001
0010
0100
0001
0000
1000
0000
0100
0001
0010
0100
0001
0000
1000
0000
,  // measure 151
0010
0100
0100
0001
0100
0000
0010
0000
0001
0100
1000
0001
0100
0000
0010
0000
,  // measure 152
0001
0100
0001
1000
0100
0000
0010
0000
0100
0001
1000
0100
0001
0000
0010
0000
,  // measure 153
0100
0001
0100
0001
0010
0000
0100
0000
0001
1000
0100
0001
0010
0000
0100
0000
,  // measure 154
0001
0100
0001
0010
0100
0000
0010
0000
0100
0001
1000
0001
0010
0000
0100
0000
,  // measure 155
0001
0010
0100
0001
1000
0000
0100
0000
0001
0010
0100
0001
1000
0000
0100
0000
,  // measure 156
0010
0100
0001
1000
0001
0000
0010
0000
0100
0001
0010
0100
0001
0000
1000
0000
,  // measure 157
0100
0010
0100
0001
1000
0000
0100
0000
0001
0010
0100
0001
1000
0000
0100
0000
,  // measure 158
0001
0100
0010
0100
0001
0000
1000
0000
0100
0001
0010
0100
0001
0000
0100
0000
,  // measure 159
0010
0100
0001
1000
0001
0000
0010
0000
0100
0001
1000
0001
0010
0000
0100
0000
,  // measure 160
0010
0100
0001
1000
0100
0000
0010
0000
0100
0001
1000
0001
0010
0000
0100
0000
,  // measure 161
0001
0010
0100
0001
1000
0000
0100
0000
0001
0100
0001
0010
0100
0000
0001
0000
,  // measure 162
1000
0100
0001
0010
0100
0000
0001
0000
0100
0010
0001
1000
0100
0000
0010
0000
,  // measure 163
0100
0001
0010
0100
0001
0000
1000
0000
0100
0010
0100
0001
0100
0000
0010
0000
,  // measure 164
0100
0010
0001
0100
1000
0000
0010
0000
0100
0010
0100
0001
0100
0000
1000
0000
,  // measure 165
0010
0100
0001
1000
0100
0000
0010
0000
0100
0001
0100
0001
0010
0000
0100
0000
,  // measure 166
0010
1000
0100
0001
0010
0000
0100
0000
0010
0100
0001
1000
0001
0000
0010
0000
,  // measure 167
0100
0001
0010
0100
0001
0000
0010
0000
0001
1000
0001
0100
0010
0000
0100
0000
,  // measure 168
0001
0000
0000
0000
;
