#TITLE:10k;
#SUBTITLE:;
#ARTIST:Too $hort, G Eazy, & BossLife Big Spence;
#TITLETRANSLIT:;
#SUBTITLETRANSLIT:;
#ARTISTTRANSLIT:;
#GENRE:;
#CREDIT:;
#BANNER:;
#BACKGROUND:;
#LYRICSPATH:;
#CDTITLE:;
#MUSIC:Too $hort & Bosslife Big Spence (feat. G-Eazy) - 10k (Remix).ogg;
#OFFSET:0.000000;
#SAMPLESTART:100.059883;
#SAMPLELENGTH:12.000000;
#SELECTABLE:YES;
#BPMS:0.000000=95.000000
,295.500000=55.000000
;
#STOPS:0.000000=0.200000
;
#BGCHANGES:;
#KEYSOUNDS:;
#ATTACKS:;

//---------------dance-single - ----------------
#NOTES:
     dance-single:
     :
     Hard:
     14:
     0.614630,0.609519,0.297084,0.010610,0.851463,811.000000,755.000000,56.000000,2.000000,0.000000,0.000000,0.614630,0.609519,0.297084,0.010610,0.851463,811.000000,755.000000,56.000000,2.000000,0.000000,0.000000:
// measure 0
0000
0000
0000
0000
,  // measure 1
0000
0000
0000
0000
,  // measure 2
0110
0000
0101
0000
0101
0000
0100
0001
0010
0100
0000
0001
0000
0000
0110
0000
,  // measure 3
0100
0001
0010
0000
0100
0001
0010
0100
0001
0010
0000
0100
0000
0000
0000
0010
,  // measure 4
0001
0000
0101
0000
0110
0000
0001
0010
0000
0100
0000
0001
0000
0000
0101
0000
,  // measure 5
0101
0000
0000
0000
0101
0000
0000
1000
0100
0001
0000
0010
0000
0100
0000
0001
,  // measure 6
0010
0000
0101
0000
0101
0000
0001
1000
0100
0001
0000
1000
0100
0001
0010
0000
,  // measure 7
0100
0001
1000
0000
0010
0100
0001
1000
0100
0001
0000
0010
0000
0000
0000
0100
,  // measure 8
0010
0000
0101
0000
0101
0000
1000
0100
0000
0001
0010
0010
0000
0000
0110
0000
,  // measure 9
0010
0100
0001
0000
0010
0000
0000
0100
0001
0000
0010
0100
0000
0000
0000
0010
,  // measure 10
0100
0000
0001
0000
0010
0000
0001
0010
0100
0000
0001
0010
0000
0000
0101
0000
,  // measure 11
0100
0000
0000
0000
0001
0000
0000
0000
0010
0000
0000
0000
0100
0000
0000
0000
0000
0000
0010
0000
0000
0100
0000
0000
0001
0000
0000
1000
0000
0000
0000
0000
0000
0000
0000
0000
0100
0000
0000
0000
0000
0000
0000
0000
0000
0010
0000
0000
,  // measure 12
0100
0000
0001
0100
1000
0000
0010
0001
0100
0000
0010
0100
0000
0000
0000
0000
,  // measure 13
0010
0100
0001
0100
0001
0001
0100
0010
0100
0001
0010
0000
0010
0000
0000
0000
,  // measure 14
0001
0100
0001
0000
0100
0000
0010
0001
0100
0001
0100
0010
0001
0000
0100
0001
,  // measure 15
0010
0000
0100
0001
0010
0100
0000
0001
0100
0010
0001
1000
0001
0100
0000
0010
,  // measure 16
0100
0001
1000
0001
0010
0100
0001
0010
0100
0010
0001
0100
1000
0100
0010
0001
,  // measure 17
0010
0010
0100
0001
0100
0000
0001
0010
0100
0000
0010
0100
0001
0000
0000
0000
,  // measure 18
0100
0000
0010
0001
0100
0010
0100
0000
0001
0000
0001
1000
0100
0000
0001
0010
,  // measure 19
0001
0000
0001
0100
1000
0000
0100
0001
0010
0000
0100
0001
0010
0000
0000
0000
,  // measure 20
0100
0000
0001
1000
0100
0000
0010
0001
0100
0000
0010
0001
0100
0000
0010
0001
,  // measure 21
0100
0001
0100
0000
0010
0000
1000
0001
0100
0000
0010
0001
0100
0000
0010
0100
,  // measure 22
0001
0000
1000
0100
0001
0000
0010
0100
0001
0000
0000
0000
0000
0000
0101
0000
,  // measure 23
1000
0100
0001
0000
0010
0000
0001
0100
0010
0001
0000
0010
0000
0000
0000
0100
,  // measure 24
0001
0000
1001
0000
0101
0000
0100
0010
0000
0001
0000
0010
0000
0000
0101
0000
,  // measure 25
0101
0000
0000
0000
0100
0000
0000
0001
0010
0100
0000
0001
0000
1000
0100
0001
,  // measure 26
0010
0000
0110
0000
0101
0000
1000
0100
0001
0010
0000
0001
0000
0000
0110
0000
,  // measure 27
1000
0100
0001
0000
0010
0100
0001
1000
0001
0010
0000
0100
0000
0000
0000
0010
,  // measure 28
0100
0000
0101
0000
0110
0000
0001
1000
0000
0100
0000
0000
0000
0000
0110
0000
,  // measure 29
0101
0000
0000
0000
0001
0000
0000
0100
0010
0100
0000
0001
0000
1000
0000
0100
,  // measure 30
0001
0000
0101
0000
0101
0000
0010
0100
0000
1000
0000
0001
0000
0000
0110
0000
,  // measure 31
0001
1000
0100
0000
0001
0100
0001
0010
0100
0001
0000
0010
0000
0000
0000
0100
,  // measure 32
1000
0000
0101
0000
0101
0000
0010
0100
0000
0001
0000
1000
0000
0000
0110
0000
,  // measure 33
0010
0100
0001
1000
0001
0010
0001
0100
0010
0001
0100
0001
0010
0000
0010
0001
,  // measure 34
1000
0100
0000
0010
0000
0100
0000
0000
0010
0001
0000
1000
0100
0000
0011
0000
,  // measure 35
0001
1000
0100
0010
0001
1000
0100
0000
0010
0000
0100
0010
0100
0001
1000
0100
,  // measure 36
0001
0010
0000
0000
0001
1000
0100
0010
0001
0100
0001
0100
0001
0000
0100
0000
,  // measure 37
0001
0000
0101
0000
0000
0000
0000
0100
0010
0100
0000
0001
0000
0010
0000
0100
,  // measure 38
0001
0010
0100
0010
0001
0100
1000
0000
0001
0100
0000
1000
0000
0001
0100
0000
,  // measure 39
0101
0000
0000
0000
0000
1000
0100
0000
0010
0100
0001
1000
0001
0000
0000
1000
,  // measure 40
0100
0001
0010
0000
0010
0100
0001
1000
0001
0010
0100
0001
0010
0001
0010
0100
,  // measure 41
0001
0000
0000
0000
0000
0000
0000
0000
0001
0100
0001
1000
0100
0000
0010
0001
,  // measure 42
0100
0001
0100
0001
1000
0100
0000
0010
0001
0100
0010
0001
1000
0001
0100
0010
,  // measure 43
0001
0000
0000
0000
0110
0000
0000
0000
0100
0001
1000
0001
0010
0000
0100
0001
,  // measure 44
0100
0001
1000
0001
0010
0000
0100
0010
0001
0100
0001
0100
1000
0010
0001
0100
,  // measure 45
1000
0000
0000
0000
0000
1000
0100
0001
0100
0100
0010
0001
0100
0000
0000
0010
,  // measure 46
0001
1000
0100
0000
0010
0100
0001
0000
0010
0100
0001
0100
0001
0000
1000
0001
,  // measure 47
0010
0100
0000
0000
0000
0000
0001
0100
0001
1000
0100
0000
0000
0010
0100
0000
,  // measure 48
0010
0000
0000
0000
0000
0100
0001
0000
0010
0100
0001
1000
0001
0000
0000
0000
,  // measure 49
0101
0000
0000
0000
0010
0000
0000
0100
0001
0100
0000
0010
0000
0100
0000
0001
,  // measure 50
0010
0000
0101
0000
1100
0000
0001
0100
0010
0100
0000
0001
0000
0000
1001
0000
,  // measure 51
0001
0010
0100
0000
0001
1000
0100
0001
0010
0100
0000
0001
0000
0000
0000
0010
,  // measure 52
0100
0000
1001
0000
0110
0000
0001
1000
0000
0100
0000
0001
0000
0000
0110
0000
,  // measure 53
0001
0000
0000
0000
0000
0000
0000
0000
0001
0000
0100
0000
0010
0001
0100
0000
,  // measure 54
1000
0000
0100
0000
0001
0000
0000
0010
0000
0100
0001
0000
0010
0001
0100
0000
,  // measure 55
0100
0010
0001
1000
0100
0000
0001
0000
1000
0000
0100
0001
0000
0000
0010
0100
,  // measure 56
0001
0000
1000
0000
0100
0000
0010
0100
0000
0010
0000
0001
0000
0000
0000
0000
,  // measure 57
1000
0100
0001
0000
0010
0000
0000
0100
0010
0001
0010
0000
0000
0000
0010
0001
,  // measure 58
1000
0001
0100
0010
0001
0100
0001
0100
0001
0100
0001
1000
0100
0000
0000
0000
,  // measure 59
0001
0100
0001
0100
1000
0000
0100
0010
0001
0100
0001
0100
1000
0000
0101
0000
,  // measure 60
0100
0010
0100
0001
0010
0010
0001
0100
1000
0010
0001
0100
1000
0000
0100
0000
,  // measure 61
0001
0000
0010
0100
0000
0010
0001
0100
1000
0000
0001
0100
0010
0100
0001
1000
,  // measure 62
0001
1000
0010
0100
0001
1000
0100
0001
0010
1000
0100
0000
0001
0010
0000
0010
,  // measure 63
0001
0100
0001
0100
1000
0000
0011
0000
0011
0000
0110
0000
0011
0000
0100
0001
,  // measure 64
0100
0010
0100
0001
0010
0100
0001
0000
1000
0100
0001
0000
0010
0000
0000
0000
,  // measure 65
0100
0001
1000
0001
0010
0001
0100
0000
0001
0000
0100
0000
0010
0000
0000
0000
,  // measure 66
1000
0100
0001
0100
1000
0000
0001
0000
0010
0000
0100
0001
0010
0000
0000
0000
,  // measure 67
0100
0001
1000
0001
0010
0000
0001
0010
0100
0001
1000
0001
0010
0000
0100
0001
,  // measure 68
0010
0000
0001
1000
0100
0000
0010
0100
0001
0000
0001
1000
0100
0000
0010
0100
,  // measure 69
0001
0010
0100
0001
0010
0100
0001
0100
0010
0001
1000
0001
0100
0000
0000
0000
,  // measure 70
0101
0000
0000
0000
0001
0000
0000
0010
0100
0001
0000
0010
0000
0000
0000
0100
,  // measure 71
0001
0000
0101
0000
0110
0000
0010
0100
0001
1000
0000
0100
0000
0000
0101
0000
,  // measure 72
0100
0001
0100
0000
0010
0100
0001
1000
0001
0010
0000
0100
0000
0000
0000
0001
,  // measure 73
0010
0000
0101
0000
0101
0000
1000
0100
0000
0010
0000
0001
0000
0000
2002
0000
,  // measure 74
0000
3003
0000
0000
0000
0000
0000
0000
;
