#TITLE:your woman;
#SUBTITLE:;
#ARTIST:White Town;
#TITLETRANSLIT:;
#SUBTITLETRANSLIT:;
#ARTISTTRANSLIT:;
#GENRE:;
#CREDIT:;
#BANNER:;
#BACKGROUND:;
#LYRICSPATH:;
#CDTITLE:;
#MUSIC:Your Woman.mp3;
#OFFSET:0.000000;
#SAMPLESTART:100.059883;
#SAMPLELENGTH:12.000000;
#SELECTABLE:YES;
#BPMS:0.000000=103.000000
,104.000000=102.000000
,168.000000=103.000000
,272.000000=102.000000
,312.000000=103.000000
,404.000000=102.000000
,424.000000=51.000000
;
#STOPS:0.000000=0.400000
;
#BGCHANGES:;
#KEYSOUNDS:;
#ATTACKS:;

//---------------dance-single - ----------------
#NOTES:
     dance-single:
     :
     Hard:
     12:
     0.483524,0.435656,0.057693,0.030770,0.148079,880.000000,865.000000,15.000000,8.000000,0.000000,0.000000,0.483524,0.435656,0.057693,0.030770,0.148079,880.000000,865.000000,15.000000,8.000000,0.000000,0.000000:
// measure 0
0000
0000
0000
0000
,  // measure 1
0000
0000
0000
0000
,  // measure 2
0100
0000
0001
0000
0010
0000
0000
0001
0100
0000
0010
0000
1000
0000
0000
0001
,  // measure 3
0100
0000
0010
0000
0010
0000
0000
0001
0100
0000
0010
0000
1000
0000
0000
0000
,  // measure 4
0100
0000
0001
0000
0010
0000
0000
0100
0010
0000
0010
0000
0001
0000
0000
0100
,  // measure 5
1000
0000
0001
0000
0100
0000
1000
0010
0001
0000
0100
0000
0001
0000
0100
0000
,  // measure 6
1000
0100
0010
0001
0100
1000
0010
0100
,  // measure 7
0001
0100
0010
0001
0100
0010
0001
0100
,  // measure 8
1000
0100
0001
0100
0010
1000
0010
0010
,  // measure 9
0001
0100
0010
0001
0100
0010
0001
0100
,  // measure 10
1000
0010
0100
0001
0010
1000
0001
0100
,  // measure 11
0010
0100
0001
0010
0001
0100
0010
0001
,  // measure 12
1000
0100
0001
0100
0001
0100
0010
0001
,  // measure 13
1000
0001
0100
0010
0001
0100
0001
0100
,  // measure 14
0010
0001
1000
0001
0100
0010
0001
1000
,  // measure 15
0001
0100
0010
0001
0100
0001
0100
0010
,  // measure 16
0001
1000
0001
0100
0010
0001
0100
1000
,  // measure 17
0100
0010
0001
0100
0001
0100
0010
0001
,  // measure 18
0100
1000
0100
0010
0001
0100
0001
0100
,  // measure 19
0010
0001
1000
0001
0100
0010
0001
1000
,  // measure 20
0001
0100
0010
0001
0100
0001
0100
0010
,  // measure 21
0001
0100
1000
0001
0100
0001
0010
0010
,  // measure 22
0200
0000
0000
0000
0000
0000
0000
0000
0000
0000
0000
0000
0300
0000
0001
2000
,  // measure 23
0000
0000
0000
3000
0100
0000
1000
0000
,  // measure 24
0020
0000
0000
0000
0000
0000
0000
0000
0030
0000
0000
0000
0100
0010
0001
0200
,  // measure 25
0000
0000
0000
0300
0001
0000
1000
0100
,  // measure 26
0001
0001
0010
0100
0001
0001
1000
0100
,  // measure 27
0010
0010
0100
0001
0100
0010
0001
0100
,  // measure 28
1000
1000
0001
0100
1000
1000
0100
0010
,  // measure 29
0010
0010
1000
0001
0100
0010
0001
0100
,  // measure 30
1000
0000
0001
0000
0100
0000
0010
0100
0001
0000
1000
0000
0100
0000
0001
0010
,  // measure 31
0100
0000
0100
0000
0010
0000
0001
0100
1000
0000
0010
0000
0001
0000
1000
0000
,  // measure 32
0001
0000
0100
0000
0010
0000
0001
0100
1000
0000
0100
0000
0001
0000
0010
0001
,  // measure 33
0100
0000
1000
0000
0001
0000
0100
0010
0001
0000
0100
0000
0001
0000
0100
0000
,  // measure 34
1000
0000
0100
0000
1000
0000
0100
0010
0001
0000
0100
0000
0010
0000
0001
0100
,  // measure 35
1000
0000
0100
0000
1000
0000
0001
0100
0010
0000
0001
0000
0100
0000
1000
0000
,  // measure 36
0001
0000
0100
0000
0010
0000
0001
0100
1000
0000
0100
0000
0010
0000
0001
0100
,  // measure 37
1000
0001
1000
0001
0100
0010
0001
0100
,  // measure 38
1000
0010
0001
1000
0001
0100
0010
0001
,  // measure 39
1000
0001
0100
0010
0001
1000
0001
0100
,  // measure 40
0010
0001
1000
0001
0100
0010
0001
1000
,  // measure 41
0001
0100
0010
0001
1000
0001
0100
0010
,  // measure 42
0001
1000
0001
0100
0010
0001
1000
0001
,  // measure 43
0100
0010
0001
1000
0001
0100
0010
0001
,  // measure 44
0100
1000
0100
0010
0001
0100
0001
0100
,  // measure 45
0010
0001
1000
0001
0100
0010
0001
1000
,  // measure 46
0001
0100
0010
0001
1000
0100
0100
0010
,  // measure 47
0001
0100
0001
0100
0010
0001
1000
0001
,  // measure 48
0100
0010
0001
1000
0001
0100
0001
0010
,  // measure 49
1000
0001
0100
0010
0001
1000
0001
0100
,  // measure 50
0010
0001
0100
0001
0100
0010
0001
1000
,  // measure 51
0001
0100
0010
0001
1000
0001
0100
0010
,  // measure 52
0001
1000
0001
0100
0010
0001
1000
0001
,  // measure 53
0100
0010
0001
0100
1000
0001
0010
0100
,  // measure 54
2000
0000
0000
0000
0000
0000
0000
0000
0000
0000
0000
0000
3000
0000
0100
0002
,  // measure 55
0000
0000
0000
0000
0000
0003
0000
0000
0010
0000
0000
0000
0100
0000
0000
0000
,  // measure 56
0020
0000
0000
0000
0000
0000
0000
0000
0030
0000
0000
0000
0001
0100
0010
0001
,  // measure 57
1000
0200
0000
0000
0300
0000
0000
0000
0010
0000
0000
0000
0100
0000
1000
0000
,  // measure 58
0001
0001
0010
0100
0001
0001
0100
0010
,  // measure 59
0001
0001
0010
0100
0001
1000
0001
0010
,  // measure 60
0100
0100
0001
1000
0001
0001
0010
0100
,  // measure 61
0001
0001
1000
0001
0100
0010
0001
0100
,  // measure 62
1000
0000
0010
0000
0100
0000
0001
0010
0100
0000
0001
0000
1000
0000
0100
0001
,  // measure 63
0010
0000
0100
0000
0001
0000
1000
0100
0001
0000
0010
0000
0100
0000
0001
0000
,  // measure 64
1000
0000
0100
0000
0001
0000
0010
0100
0001
0000
0010
0000
0100
0000
0001
1000
,  // measure 65
0100
0000
0001
0000
0010
0000
0100
0001
1000
0000
0100
0000
0001
0000
0010
0000
,  // measure 66
0100
0000
0001
0000
1000
0000
0100
0001
0010
0000
0100
0000
0001
0000
1000
0100
,  // measure 67
0001
0000
0010
0000
0100
0000
0001
1000
0100
0000
0001
0000
0010
0000
0100
0000
,  // measure 68
0001
0000
1000
0000
0100
0000
0100
0001
0010
0000
0100
0000
0010
0000
0001
0100
,  // measure 69
1000
0000
0001
0000
0100
0000
0010
0001
1000
0000
0001
0000
0100
0000
0010
0000
,  // measure 70
0001
0000
0100
0000
1000
0000
0001
0100
0010
0000
0001
0000
0100
0000
1000
0100
,  // measure 71
0001
0000
0100
0000
0001
0000
1000
0100
0001
0000
0010
0000
0100
0000
0010
0000
,  // measure 72
0001
0000
0100
0000
1000
0000
0100
0010
0001
0000
0100
0000
0010
0000
0100
0001
,  // measure 73
1000
0000
0100
0000
0010
0000
0001
0100
1000
0000
0100
0000
0010
0000
0100
0001
,  // measure 74
0010
0000
0001
0000
0100
0000
1000
0010
0001
0000
0100
0000
0010
0000
0100
0001
,  // measure 75
1000
0000
0100
0000
0010
0000
0001
0100
1000
0000
0010
0000
0001
0000
1000
0000
,  // measure 76
0010
0000
0100
0000
0001
0000
0010
0100
0001
0000
1000
0000
0100
0000
0001
0010
,  // measure 77
0100
0000
0100
0000
0010
0000
0100
0001
0010
0000
0001
0000
0100
0000
1000
0000
,  // measure 78
0100
1000
0100
1000
0100
0010
0100
0010
,  // measure 79
0001
0010
0001
0010
0100
1000
0100
1000
,  // measure 80
0100
0010
0100
0010
0001
0100
0001
0100
,  // measure 81
1000
0000
0000
0100
0000
0000
0001
0000
1001
0000
0000
0000
0101
0000
0000
0000
,  // measure 82
1001
1001
0000
0100
0101
0101
0000
1001
,  // measure 83
1001
0000
0000
0110
0001
1000
0001
0010
,  // measure 84
0110
0110
0000
0001
1001
1001
0000
1000
,  // measure 85
1100
1100
0000
0001
0100
0010
0001
0100
,  // measure 86
1000
1000
0100
0001
0010
0010
0001
0100
,  // measure 87
0010
0010
0100
0001
1000
0001
0010
0100
,  // measure 88
0001
0001
0010
0100
0001
0001
0010
0100
,  // measure 89
0001
0001
0010
0100
0001
1000
0001
0010
,  // measure 90
0100
0000
1000
0000
0100
0000
0010
1000
0001
0000
0010
0000
0001
0000
0100
0001
,  // measure 91
0010
0000
0100
0000
0001
0000
1000
0100
0001
0000
0010
0000
0100
0000
0001
0000
,  // measure 92
1000
0000
0100
0000
0001
0000
0010
0100
0001
0000
0100
0000
0001
0000
0010
0100
,  // measure 93
0001
0000
0100
0000
0010
0000
0001
0100
1000
0000
0010
0000
0001
0000
0100
0000
,  // measure 94
1000
0000
0100
0000
0010
0000
0001
0100
1000
0000
0100
0000
1000
0000
0001
0100
,  // measure 95
0010
0000
0001
0000
0100
0000
0001
0010
1000
0000
0010
0000
0001
0000
0100
0000
,  // measure 96
1000
0000
0010
0000
0100
0000
0001
0100
1000
0000
0100
0000
0010
0000
0001
0100
,  // measure 97
1000
0000
0001
0000
0100
0000
1000
0001
0100
0000
0010
0000
0001
0000
1000
0000
,  // measure 98
0100
0000
0010
0000
0001
0000
0100
1000
0001
0000
0100
0000
0010
0000
0001
0100
,  // measure 99
1000
0000
0100
0000
0010
0000
0001
1000
0100
0000
0010
0000
0001
0000
0100
0000
,  // measure 100
1000
0000
0100
0000
0010
0000
0001
0100
1000
0000
0100
0000
0010
0000
0001
0100
,  // measure 101
1000
0000
0100
0000
0010
0000
0001
0100
1000
0000
0010
0000
0001
0000
0100
0000
,  // measure 102
1000
0000
0100
0000
0010
0000
0001
0100
1000
0000
0100
0000
0010
0000
0001
0100
,  // measure 103
1000
0000
0010
0000
0100
0000
0001
0010
1000
0000
0001
0000
0100
0000
0010
0000
,  // measure 104
0001
0000
0100
0000
0010
0000
0001
0100
1000
0000
0010
0000
0001
0000
0100
0010
,  // measure 105
1000
0000
0001
0000
0100
0000
0010
0001
0100
0000
0010
0000
0100
0000
0001
0000
,  // measure 106
1000
0000
0100
0000
0001
0000
0010
0100
0001
0000
0010
0000
0100
0000
0010
0001
,  // measure 107
1000
0000
0100
0000
0010
0000
0001
0100
1000
0000
0010
0000
0001
0000
1000
0000
;

//---------------dance-single - ----------------
#NOTES:
     dance-single:
     :
     Medium:
     7:
     0.287917,0.311183,0.007692,0.038462,0.132694,524.000000,522.000000,2.000000,10.000000,0.000000,0.000000,0.287917,0.311183,0.007692,0.038462,0.132694,524.000000,522.000000,2.000000,10.000000,0.000000,0.000000:
0000
0000
0000
0000
,
0000
0000
0000
0000
,
0010
0000
0000
0000
0100
0000
0000
0001
0010
0000
0000
0000
0100
0000
0000
0001
,
1000
0000
0000
0000
0100
0000
0000
0001
0010
0000
0000
0000
0100
0000
0000
0000
,
0001
0000
0000
0000
1000
0000
0000
0100
0001
0000
0000
0000
0010
0000
0000
0100
,
0001
0000
0000
0000
1000
0000
0000
0001
0100
0000
0010
0000
0001
0000
0100
0000
,
1000
0100
0000
0001
0000
1000
0000
0100
,
0000
0000
0010
0001
0100
0010
0001
0100
,
1000
0000
0001
0100
0000
0100
0000
1000
,
0000
0000
0000
0001
0100
0010
0001
0100
,
1000
0010
0000
0001
0000
0100
0000
1000
,
0000
0000
0000
0001
0100
0010
0001
0100
,
1000
0100
0000
0001
0000
1000
0000
0100
,
0000
0000
0000
0000
0100
0010
0001
0100
,
1000
0000
0010
0001
0000
1000
0000
0100
,
0000
0000
0000
0000
0100
0010
0001
0100
,
1000
0000
0010
0001
0000
1000
0000
0100
,
0000
0000
0000
0010
0001
0100
0010
0001
,
0100
1000
0000
0001
0000
0100
0000
1000
,
0000
0000
0000
0001
0100
0010
0001
1000
,
0100
0010
0000
0001
0000
0100
0000
0010
,
0000
0001
0100
0010
0001
0100
1000
0000
,
0200
0000
0000
0300
,
0002
0000
0000
0003
,
0020
0000
0000
0030
,
0200
0000
0000
0000
0300
0001
1000
0100
,
0001
0001
0000
0000
0100
0100
0000
0000
,
0010
0010
0000
0100
0000
0001
1000
0100
,
0001
0001
0000
0000
1000
1000
0000
0000
,
0100
0100
0100
0001
1000
0001
0010
0100
,
0001
0000
0000
0000
1000
0000
0000
0100
0001
0000
0000
0000
0010
0000
0000
0100
,
0001
0000
0000
0000
1000
0000
0000
0100
0001
0000
0000
0000
0010
0000
0000
0000
,
0100
0000
0000
0000
0001
0000
0000
0010
0100
0000
0000
0000
0001
0000
0000
0010
,
1000
0000
0000
0000
0100
0000
0000
0001
0010
0000
0000
0000
0100
0000
0000
0000
,
1000
0000
0000
0000
0100
0000
0000
0010
0100
0000
0000
0000
0001
0000
0000
1000
,
0100
0000
0000
0000
0001
0000
0000
0010
0100
0000
0000
0000
1000
0000
0000
0000
,
0010
0000
0000
0000
0001
0000
0000
1000
0100
0000
0000
0000
0001
0000
0000
0010
,
0100
0000
0000
0000
0001
0000
0000
1000
0100
0000
0000
0000
0001
0000
0000
0000
,
0100
1000
0000
0001
0000
0100
0000
1000
,
0000
0000
0000
0010
0001
1000
0001
0100
,
0001
0010
0000
0001
0000
0100
0000
1000
,
0000
0000
0000
0010
0001
0100
0010
0001
,
0100
1000
0000
0001
0000
0100
0000
1000
,
0000
0000
0000
0001
0100
0010
0001
0100
,
1000
0000
0001
0100
0000
0010
0000
0100
,
0000
0000
0000
0001
0100
0010
0001
0100
,
1000
0100
0000
0001
0000
1000
0000
0100
,
0000
0000
0000
0000
0100
0010
0001
0100
,
1000
0100
0000
0001
0000
1000
0000
0001
,
0000
0000
0000
0000
0100
0010
0001
0100
,
1000
0000
0000
0001
0000
0100
0000
1000
,
0000
0000
0000
0000
1000
0001
0100
0010
,
0001
0010
0000
0100
0000
0001
0000
1000
,
0000
0000
0100
0010
0001
0100
1000
0000
,
0020
0000
0000
0030
,
0200
0000
0000
0300
,
0002
0000
0000
0003
,
2000
0000
0000
0000
3000
0001
0100
0010
,
0100
0100
0000
0000
0001
0001
0000
0000
,
0100
0100
0000
0010
0000
0001
0100
1000
,
0100
0100
0000
0000
0001
0001
0000
0000
,
0010
0010
0100
0001
1000
0001
0010
0100
,
0001
0000
0000
0000
0100
0000
0000
0010
0100
0000
0000
0000
0001
0000
0000
0010
,
0100
0000
0000
0000
1000
0000
0000
0100
0001
0000
0000
0000
0010
0000
0000
0000
,
0100
0000
0000
0000
0001
0000
0000
0010
0100
0000
0000
0000
1000
0000
0000
0100
,
0001
0000
0000
0000
0010
0000
0000
0100
0001
0000
0000
0000
1000
0000
0000
0000
,
0100
0000
0000
0000
0001
0000
0000
0010
0100
0000
0000
0000
0001
0000
0000
1000
,
0100
0000
0000
0000
0001
0000
0000
0100
0010
0000
0000
0000
1000
0000
0000
0000
,
0100
0000
0000
0000
0001
0000
0000
0010
0100
0000
0000
0000
0001
0000
0000
0010
,
0100
0000
0000
0000
0001
0000
0000
1000
0100
0000
0000
0000
0001
0000
0000
0000
,
1000
0000
0000
0000
0100
0000
0000
0001
0010
0000
0000
0000
0100
0000
0000
0001
,
1000
0000
0000
0000
0010
0000
0000
0100
0001
0000
0000
0000
1000
0000
0000
0000
,
0100
0000
0000
0000
0010
0000
0000
0100
0001
0000
0000
0000
1000
0000
0000
0100
,
0001
0000
0000
0000
0010
0000
0000
0100
0001
0000
0000
0000
1000
0000
0000
0000
,
0100
0000
0000
0000
0010
0000
0000
0100
0001
0000
0000
0000
1000
0000
0000
0100
,
0001
0000
0000
0000
0010
0000
0000
1000
0100
0000
0000
0000
0001
0000
0000
0000
,
0010
0000
0000
0000
0001
0000
0000
0100
0001
0000
0000
0000
1000
0000
0000
0100
,
0001
0000
0000
0000
0010
0000
0000
0100
0001
0000
0000
0000
1000
0000
0000
0000
,
0100
0001
0100
0001
,
1000
0001
0010
0100
,
0001
1000
0100
0001
,
2002
0000
3003
1001
,
0100
0100
0000
0000
0001
0001
0000
0000
,
0010
0010
0000
0000
0000
0000
0000
0000
,
0100
0100
0000
0000
0100
0100
0000
0000
,
1000
1000
0000
0000
0000
0100
0001
1000
,
0001
0001
0000
0000
0010
0010
0000
0000
,
0100
0100
0000
0001
0000
1000
0100
0001
,
0010
0010
0000
0000
0100
0100
0000
0000
,
0001
0001
0010
0100
0001
1000
0001
0010
,
0100
0000
0000
0000
0001
0000
0000
0100
1000
0000
0000
0000
0010
0000
0000
0100
,
0001
0000
0000
0000
1000
0000
0000
0010
0100
0000
0000
0000
0001
0000
0000
0000
,
0010
0000
0000
0000
0100
0000
0000
0001
1000
0000
0000
0000
0100
0000
0000
0001
,
0010
0000
0000
0000
0100
0000
0000
0001
0010
0000
0000
0000
0100
0000
0000
0000
,
1000
0000
0000
0000
0100
0000
0000
0010
0100
0000
0000
0000
0001
0000
0000
1000
,
0010
0000
0000
0000
0001
0000
0000
0100
1000
0000
0000
0000
0010
0000
0000
0000
,
0100
0000
0000
0000
0001
0000
0000
1000
0100
0000
0000
0000
0010
0000
0000
0100
,
0001
0000
0000
0000
0010
0000
0000
0100
0001
0000
0000
0000
1000
0000
0000
0000
,
0100
0000
0000
0000
0010
0000
0000
0100
1000
0000
0000
0000
0100
0000
0000
0001
,
0010
0000
0000
0000
0100
0000
0000
1000
0100
0000
0000
0000
0001
0000
0000
0000
,
0010
0000
0000
0000
0001
0000
0000
0100
1000
0000
0000
0000
0100
0000
0000
0001
,
0010
0000
0000
0000
0100
0000
0000
0001
1000
0000
0000
0000
0100
0000
0000
0000
,
0010
0000
0000
0000
0100
0000
0000
0001
1000
0000
0000
0000
0100
0000
0000
0001
,
0010
0000
0000
0000
0100
0000
0000
0001
1000
0000
0000
0000
0100
0000
0000
0000
,
0010
0000
0000
0000
0100
0000
0000
0001
0010
0000
0000
0000
0100
0000
0000
1000
,
0001
0000
0000
0000
0010
0000
0000
0001
0100
0000
0000
0000
0010
0000
0000
0000
,
0100
0000
0000
0000
0001
0000
0000
0010
0100
0000
0000
0000
1000
0000
0000
0100
,
0001
0000
0000
0000
0010
0000
0000
0100
0001
0000
0010
0000
0100
0000
1000
0000
;

//---------------dance-single - ----------------
#NOTES:
     dance-single:
     :
     Easy:
     3:
     0.142310,0.186710,0.007692,0.034616,0.000000,259.000000,257.000000,2.000000,9.000000,0.000000,0.000000,0.142310,0.186710,0.007692,0.034616,0.000000,259.000000,257.000000,2.000000,9.000000,0.000000,0.000000:
0000
0000
0000
0000
,
0000
0000
0000
0000
,
0100
0000
0010
0000
,
0100
0000
0001
0000
,
1000
0000
0100
0000
,
0001
0000
0010
0000
,
0100
0010
0001
0100
,
1000
0000
0001
0100
,
1000
0001
0100
0010
,
0000
0000
0100
0010
,
0100
0010
0001
1000
,
0100
0000
0100
0010
,
0001
1000
0001
0100
,
0010
0000
0100
0010
,
0001
0000
0100
0000
,
1000
0000
0100
0010
,
0001
0000
0010
0000
,
0100
0000
0010
0001
,
0100
0010
0001
0100
,
1000
0000
0000
0000
,
0100
1000
0001
0010
,
0001
1000
0100
0010
,
0200
0000
0000
0300
,
0002
0000
0000
0003
,
2000
0000
0000
3000
,
0200
0000
0000
0300
,
0010
0010
0000
0000
0100
0100
0000
0000
,
0001
0001
0000
0000
0000
0000
0000
0000
,
0010
0010
0000
0000
0100
0100
0000
0000
,
0001
0001
0000
0000
0000
0000
0000
0000
,
1000
0000
0100
0000
,
0001
0000
0010
0000
,
0100
0000
0001
0000
,
1000
0000
0100
0000
,
0001
0000
0010
0000
,
0100
0000
1000
0000
,
0100
0000
0001
0000
,
1000
0000
0100
0000
,
0010
0001
0100
1000
,
0000
0000
0100
0001
,
0100
0010
0001
1000
,
0100
0000
0010
0001
,
0100
0010
0001
1000
,
0100
0000
0100
0010
,
0001
1000
0001
0100
,
0010
0000
0001
0100
,
1000
0000
0001
0100
,
1000
0000
0010
0001
,
0100
0010
0001
0100
,
1000
0000
1000
0100
,
0010
0000
0001
0100
,
0010
0000
0001
0100
,
0010
0000
0001
0100
,
1000
0100
0010
0001
,
0220
0000
0000
0330
,
0002
0000
0000
0003
,
0020
0000
0000
0030
,
0200
0000
0000
0300
,
1000
1000
0000
0000
0100
0100
0000
0000
,
0010
0010
0000
0000
0000
0000
0000
0000
,
0100
0100
0000
0000
0001
0001
0000
0000
,
0010
0010
0000
0000
0000
0000
0000
0000
,
1000
0000
0100
0000
,
0001
0000
0010
0000
,
0100
0000
0001
0000
,
0010
0000
0100
0000
,
0001
0000
1000
0000
,
0100
0000
0001
0000
,
0010
0000
0100
0000
,
0001
0000
1000
0000
,
0100
0000
0001
0000
,
0010
0000
0100
0000
,
0001
0000
1000
0000
,
0100
0000
0001
0000
,
0010
0000
0100
0000
,
0100
0000
1000
0000
,
0010
0000
0100
0000
,
0001
0000
1000
0000
,
1000
0000
0000
0000
,
0100
0000
0000
0000
,
0001
0000
0000
0000
,
0000
0000
0000
1001
,
0100
0100
0000
0000
0010
0010
0000
0000
,
0100
0100
0000
0000
0000
0000
0000
0000
,
1000
1000
0000
0000
0001
0001
0000
0000
,
0010
0010
0000
0000
0000
0000
0000
0000
,
0100
0100
0000
0000
0001
0001
0000
0000
,
0010
0010
0000
0000
0000
0000
0000
0000
,
0100
0100
0000
0000
1000
1000
0000
0000
,
0100
0100
0000
0000
0000
0000
0000
0000
,
0001
0000
0010
0000
,
0100
0000
0001
0000
,
1000
0000
0100
0000
,
0001
0000
0010
0000
,
0100
0000
0001
0000
,
1000
0000
0100
0000
,
0001
0000
0010
0000
,
0100
0000
0001
0000
,
1000
0000
0100
0000
,
0001
0000
0010
0000
,
0100
0000
0001
0000
,
1000
0000
0100
0000
,
0001
0000
0010
0000
,
0100
0000
0001
0000
,
1000
0000
0100
0000
,
0001
0000
0010
0000
,
0100
0000
0001
0000
,
0010
0000
0000
0000
0100
0000
0100
1000
;

//---------------dance-single - ----------------
#NOTES:
     dance-single:
     :
     Beginner:
     2:
     0.082968,0.103367,0.000000,0.000000,0.000000,151.000000,151.000000,0.000000,0.000000,0.000000,0.000000,0.082968,0.103367,0.000000,0.000000,0.000000,151.000000,151.000000,0.000000,0.000000,0.000000,0.000000:
0000
0000
0000
0000
,
0000
0000
0000
0000
,
0010
0000
0000
0000
,
0100
0000
0000
0000
,
0001
0000
0000
0000
,
1000
0000
0000
0000
,
0100
0000
0000
0000
,
0001
0000
0000
0000
,
0010
0000
0000
0000
,
0100
0000
0000
0000
,
1000
0000
0000
0000
,
0010
0000
0000
0000
,
0010
0000
0000
0000
,
0100
0000
0000
0000
,
0001
0000
0000
0000
,
1000
0000
0000
0000
,
0100
0000
0000
0000
,
0010
0000
0000
0000
,
0100
0000
0000
0000
,
0100
0000
0000
0000
,
1000
0000
0000
0000
,
0010
0000
0000
0000
,
0100
0000
0000
0000
,
0000
0000
0000
0000
,
0001
0000
0000
0000
,
0000
0000
0000
0000
,
1000
0000
0100
0000
,
0001
0000
0000
0000
,
0010
0000
0100
0000
,
0001
0000
0000
0000
,
1000
0000
0100
0000
,
0001
0000
0010
0000
,
0100
0000
0001
0000
,
1000
0000
0100
0000
,
0001
0000
0010
0000
,
0100
0000
0001
0000
,
1000
0000
0100
0000
,
0001
0000
0010
0000
,
0100
0000
0000
0000
,
1000
0000
0000
0000
,
0001
0000
0000
0000
,
0010
0000
0000
0000
,
0100
0000
0000
0000
,
0010
0000
0000
0000
,
0100
0000
0000
0000
,
0001
0000
0000
0000
,
1000
0000
0000
0000
,
0100
0000
0000
0000
,
0001
0000
0000
0000
,
1000
0000
0000
0000
,
0100
0000
0000
0000
,
0010
0000
0000
0000
,
0100
0000
0000
0000
,
1000
0000
0000
0000
,
0001
0000
0000
0000
,
0000
0000
0000
0000
,
0010
0000
0000
0000
,
0000
0000
0000
0000
,
1000
0000
0010
0000
,
0100
0000
0000
0000
,
0010
0000
0100
0000
,
0001
0000
0000
0000
,
0100
0000
0001
0000
,
1000
0000
0100
0000
,
0001
0000
0010
0000
,
0100
0000
0001
0000
,
1000
0000
0100
0000
,
0001
0000
0010
0000
,
0100
0000
0001
0000
,
0010
0000
0100
0000
,
0001
0000
1000
0000
,
0100
0000
0001
0000
,
0010
0000
0100
0000
,
0001
0000
0100
0000
,
1000
0000
0001
0000
,
0100
0000
0010
0000
,
1000
0000
0100
0000
,
0001
0000
0010
0000
,
0100
0000
0000
0000
,
0001
0000
0000
0000
,
1000
0000
0000
0000
,
0000
0000
0000
0000
,
0010
0000
0010
0000
,
0100
0000
0000
0000
,
0001
0000
0001
0000
,
0100
0000
0000
0000
,
1000
0000
1000
0000
,
0100
0000
0000
0000
,
0001
0000
0010
0000
,
0100
0000
0000
0000
,
0010
0000
0100
0000
,
0001
0000
1000
0000
,
0100
0000
0001
0000
,
0010
0000
0100
0000
,
0001
0000
1000
0000
,
0100
0000
0001
0000
,
0010
0000
0100
0000
,
0001
0000
1000
0000
,
0100
0000
0001
0000
,
0010
0000
0100
0000
,
0001
0000
1000
0000
,
0100
0000
0001
0000
,
0010
0000
0100
0000
,
0001
0000
1000
0000
,
0100
0000
0001
0000
,
0010
0000
0100
0000
,
0001
0000
1000
0000
,
0100
0000
0001
0000
;
