#TITLE:whats the move;
#SUBTITLE:;
#ARTIST:ktsko, 1MG, & SSGKobe;
#TITLETRANSLIT:;
#SUBTITLETRANSLIT:;
#ARTISTTRANSLIT:;
#GENRE:;
#CREDIT:;
#BANNER:;
#BACKGROUND:;
#LYRICSPATH:;
#CDTITLE:;
#MUSIC:what's the move.mp3;
#OFFSET:0.000000;
#SAMPLESTART:100.059883;
#SAMPLELENGTH:12.000000;
#SELECTABLE:YES;
#BPMS:0.000000=135.000000
;
#STOPS:0.000000=1.000000
;
#BGCHANGES:;
#KEYSOUNDS:;
#ATTACKS:;

//---------------dance-single - ----------------
#NOTES:
     dance-single:
     :
     Hard:
     15:
     0.717552,0.909457,0.238535,0.027261,0.742866,737.000000,702.000000,35.000000,4.000000,0.000000,0.000000,0.717552,0.909457,0.238535,0.027261,0.742866,737.000000,702.000000,35.000000,4.000000,0.000000,0.000000:
// measure 0
0000
0000
0000
0000
,  // measure 1
0000
0000
0000
0000
,  // measure 2
0000
0000
0000
0000
,  // measure 3
0000
0000
0000
0000
,  // measure 4
0100
0010
0001
0100
1000
0000
0001
0010
,  // measure 5
0100
0000
2002
3003
,  // measure 6
0001
0100
0001
0001
0100
0000
0100
0001
,  // measure 7
0010
0000
0000
0000
1000
0000
0100
0001
,  // measure 8
0010
0100
0001
0000
0000
0000
0100
0010
,  // measure 9
0001
0000
1000
0000
0100
0010
0100
0000
0001
1000
0001
0000
0010
0000
0100
0000
,  // measure 10
0001
1000
0100
0000
0000
0000
0100
0010
,  // measure 11
0001
0100
1000
0000
0100
0000
0010
0100
,  // measure 12
0001
0100
0010
0000
0000
0000
0100
0010
,  // measure 13
0001
0100
1000
0000
0000
0000
0000
0000
,  // measure 14
0000
0000
0000
0000
0100
0000
0000
0000
0000
0000
0000
0000
0010
0000
0000
0001
,  // measure 15
1000
0000
0000
0000
0000
0000
0000
0000
0101
0000
0101
0000
0101
0000
1000
0001
,  // measure 16
1000
0000
0000
0000
0101
0000
0000
0000
0000
0000
0000
0000
0100
0000
0000
0010
,  // measure 17
0001
0000
0000
0000
1001
1001
1001
1001
,  // measure 18
1001
0001
0100
0001
0100
0010
0001
0100
,  // measure 19
1000
0000
0100
0001
0100
0000
0010
0100
,  // measure 20
0001
0001
1000
0001
0100
0010
0001
0100
,  // measure 21
1000
0000
0000
0000
0100
0100
0100
0100
,  // measure 22
0100
0100
0010
0001
1000
0000
0100
0010
,  // measure 23
0100
0001
0100
0000
0010
0100
0010
0000
0100
0001
1000
0000
0100
0001
0010
0000
,  // measure 24
0010
0000
0000
0000
0100
0001
1000
0000
0010
0100
0001
0000
0010
0001
0100
0000
,  // measure 25
0010
0001
0100
0000
1000
0001
0100
0000
0010
0001
0100
0000
0010
0001
0100
1000
,  // measure 26
0010
0001
0100
0000
0010
0001
0100
0000
0010
0001
0100
0000
0010
0001
0100
0000
,  // measure 27
0010
0001
1000
0000
0001
0100
0010
0000
0001
0100
0010
0000
0001
1000
0100
0001
,  // measure 28
0010
0100
0001
0000
1000
0100
0001
0000
0010
0100
0001
0000
1000
0100
0001
0000
,  // measure 29
0010
0100
0001
0000
1000
0100
0001
0000
0010
0100
0001
0000
0100
0001
0010
0100
,  // measure 30
0001
0100
0001
0000
0010
0100
0001
0000
1000
0100
0001
0000
0010
0100
0001
0000
,  // measure 31
1000
0100
0001
0010
0100
0001
1000
0001
0010
0100
0001
0100
0001
0010
0100
0001
,  // measure 32
1000
0010
0100
0000
0001
0100
0001
0000
0010
0001
0100
0000
0001
0100
0010
0000
,  // measure 33
0010
0001
0010
0001
0100
0000
1000
0000
,  // measure 34
0001
1000
0001
0100
0010
0000
0100
1000
,  // measure 35
0001
0010
0100
0010
0101
0000
0100
0000
,  // measure 36
0100
0010
0001
0100
1000
0000
0010
0001
,  // measure 37
0100
0010
0001
0100
1000
0000
0100
0000
,  // measure 38
0010
0000
0000
0001
0100
0000
0010
0000
0100
0000
0000
0000
0010
0000
0000
0001
,  // measure 39
1000
0000
0110
0110
,  // measure 40
0001
0100
0001
0100
1000
0000
0001
0100
,  // measure 41
1000
0000
0101
0000
,  // measure 42
1000
0100
0001
0100
0001
1000
0001
0000
0000
0010
0000
0000
,  // measure 43
0001
0100
0001
0100
0001
0100
2002
0000
0000
3003
0000
0000
,  // measure 44
0100
0010
1000
0100
0001
0000
0001
0100
,  // measure 45
1000
0000
0000
0000
0000
0000
1000
0000
0000
0100
0010
0000
,  // measure 46
1000
0000
0000
0001
0000
0000
0010
0000
0000
0000
0000
0000
0000
0000
0000
0000
,  // measure 47
0110
0000
0000
0000
1001
0000
0000
0000
0110
0000
0000
0000
1001
0000
0000
0010
,  // measure 48
0100
0000
0000
0000
0101
0000
0000
0000
1000
0100
0000
0001
0000
0000
0010
0000
,  // measure 49
1000
0001
0000
0000
0010
0000
0000
0001
1000
0100
0000
0010
0000
0000
0001
0000
,  // measure 50
1000
0000
0100
0001
0000
0010
0100
0001
1000
0100
0000
0001
0000
0000
0000
0010
,  // measure 51
0100
0001
1000
0100
0001
0010
0100
0001
1000
0001
0000
0100
0001
1000
0001
0010
,  // measure 52
0100
0001
0100
0010
0001
1000
0001
0100
0010
0001
0100
0010
0001
0100
1000
0010
,  // measure 53
0001
0100
0010
0001
1000
0001
0100
0010
0001
0100
0001
0100
0010
0001
1000
0001
,  // measure 54
0100
0010
0001
0100
0001
0100
0010
0001
1000
0001
0100
0010
0001
1000
0001
0100
,  // measure 55
0100
0000
0100
0000
0110
0110
0110
0000
,  // measure 56
1000
0100
0001
0100
0010
1000
0001
0100
0001
1000
0010
0100
0001
0100
0010
0001
,  // measure 57
0100
0001
0100
0010
0001
0100
0001
0100
0010
0001
1000
0001
0100
0010
0001
0100
,  // measure 58
0001
0100
0010
0001
1000
0001
0100
0010
0001
0100
0001
0100
0010
0001
1000
0001
,  // measure 59
0100
0010
0001
0100
0001
0100
0010
0001
0100
1000
0100
0010
0001
0100
0001
0100
,  // measure 60
0001
0100
0010
0001
1000
0001
0100
0010
0001
0100
0001
0100
0010
0001
1000
0001
,  // measure 61
0100
0010
0001
1000
0001
0100
0001
0010
0100
0001
0100
0010
0001
1000
0001
0100
,  // measure 62
0010
0001
0100
0001
0100
0010
0001
1000
0001
0100
0010
0001
1000
0001
0100
0010
,  // measure 63
0001
0100
0001
0100
0010
0001
1000
0001
0100
0010
0001
0100
1000
0000
0000
0000
,  // measure 64
0001
0100
0010
0000
1000
0100
0001
0000
0010
0100
0001
0000
0010
0100
0001
0000
,  // measure 65
1000
0100
0001
0000
0010
0100
0001
0000
0001
0010
0100
0000
1000
0000
0000
0000
,  // measure 66
0001
0100
0010
0000
0001
0100
0010
0000
0001
0100
1000
0000
0001
0100
0010
0000
,  // measure 67
0001
0100
0010
0000
0001
0100
1000
0000
0100
0010
0001
0000
0100
0010
0001
0100
,  // measure 68
1000
0100
0010
0000
0010
0001
0100
0000
0001
1000
0100
0000
0001
0010
0100
0000
,  // measure 69
0010
0001
0100
0000
0010
0001
1000
0000
0100
0010
0001
0000
0100
0010
0001
0100
,  // measure 70
1000
0100
0010
0000
0001
0100
0010
0000
0001
0100
1000
0000
0001
0100
0010
0000
,  // measure 71
0001
1000
0001
0100
0001
0100
0010
0000
0001
0010
0100
0010
0001
0100
1000
0000
,  // measure 72
0010
0001
0100
0000
0010
0001
0100
0000
0001
0100
0010
0000
1000
0100
0001
0000
,  // measure 73
0010
0001
1000
0001
0100
0010
0110
0000
,  // measure 74
0010
0001
1000
0001
0100
0001
1100
0000
,  // measure 75
0100
0001
0100
0010
1001
0100
1001
0000
,  // measure 76
0110
0010
0100
0001
1000
0001
0110
0000
,  // measure 77
0010
0001
1000
0001
0100
0010
1001
0000
,  // measure 78
1100
0000
0000
0001
0000
0010
0000
0000
0000
0000
0100
0000
0001
0000
0000
0000
,  // measure 79
0100
0001
0100
0010
0001
1000
0001
0100
0010
0001
0010
0100
0001
0000
0000
1000
,  // measure 80
0100
0000
0000
0000
0110
0110
0110
0110
;
