#VERSION:0.83;
#TITLE:what it sounds like;
#SUBTITLE:;
#ARTIST:Huntr/X (EJAE, Audrey Nuna, & Rei Ami), KPop Demon Hunters;
#TITLETRANSLIT:;
#SUBTITLETRANSLIT:;
#ARTISTTRANSLIT:;
#GENRE:;
#ORIGIN:;
#CREDIT:;
#BANNER:;
#BACKGROUND:;
#PREVIEWVID:;
#JACKET:;
#CDIMAGE:;
#DISCIMAGE:;
#LYRICSPATH:;
#CDTITLE:;
#MUSIC:HUNTRIX - What It Sounds Like (Lyrics) KPop Demon Hunters.ogg;
#OFFSET:0.000000;
#SAMPLESTART:100.059883;
#SAMPLELENGTH:12.000000;
#SELECTABLE:YES;
#BPMS:0.000=104.000,
32.000=106.000,
68.000=108.000,
84.000=106.000,
136.000=113.000,
140.000=116.000,
160.000=126.000,
164.000=121.000,
168.000=118.000,
202.000=133.000,
213.000=116.000,
224.000=121.000,
245.000=122.000,
254.000=121.000,
256.000=117.000,
270.000=121.000,
278.000=125.000,
288.000=126.000,
309.000=121.000,
325.000=124.000,
436.000=113.000,
436.500=93.000,
437.000=78.000;
#STOPS:0.000=0.300;
#DELAYS:;
#WARPS:;
#TIMESIGNATURES:0.000=4=4;
#TICKCOUNTS:0.000=4;
#COMBOS:0.000=1;
#SPEEDS:0.000=1.000=0.000=0;
#SCROLLS:0.000=1.000;
#FAKES:;
#LABELS:0.000=Song Start;
#BGCHANGES:;
#KEYSOUNDS:;
#ATTACKS:
;

//---------------dance-single - ----------------
#NOTEDATA:;
#CHARTNAME:;
#STEPSTYPE:dance-single;
#DESCRIPTION:;
#CHARTSTYLE:;
#DIFFICULTY:Hard;
#METER:10;
#RADARVALUES:0.376897,0.467658,0.064644,0.080805,0.153529,653.000000,637.000000,16.000000,20.000000,0.000000,0.000000,0.000000,0.000000,0.000000,0.376897,0.467658,0.064644,0.080805,0.153529,653.000000,637.000000,16.000000,20.000000,0.000000,0.000000,0.000000,0.000000,0.000000;
#CREDIT:;
#NOTES:
// measure 0
0000
0000
0000
0000
,  // measure 1
0000
0000
0000
0000
,  // measure 2
0000
0000
0000
0000
0000
0000
0010
0000
0001
0100
0001
0010
,  // measure 3
0100
0000
0000
0000
0000
0000
0100
0000
0010
0000
0000
0001
0000
0000
1000
0000
,  // measure 4
0000
0000
0000
0000
0000
0000
0001
0000
0100
0000
0000
0010
0001
0010
0000
1000
,  // measure 5
0000
0000
0000
0000
0000
0000
0000
0000
0000
0100
0000
0000
0000
0000
0000
0000
0000
0000
0000
0000
0000
0000
0000
0000
1000
0000
0000
0000
0100
0000
0000
0000
0001
0000
0000
0000
0010
0000
0000
0000
0100
0000
0000
0000
0001
0000
0000
0000
,  // measure 6
1000
0000
0001
0000
0000
0000
1000
0100
0010
0001
0100
1000
,  // measure 7
0000
0000
0000
0000
0100
0000
0000
0000
0000
0000
0000
0000
0000
0000
0000
0000
0000
0000
0001
0000
0000
0000
0000
0000
0000
0000
0000
1000
0000
0000
0000
0000
0000
0000
0000
0000
0100
0000
0000
0000
0000
0000
0000
0000
0000
0000
0000
0000
,  // measure 8
0001
0100
0010
0001
0100
0000
0100
0000
,  // measure 9
0001
0100
0010
0001
1000
0000
0100
0000
,  // measure 10
0001
0100
0010
0001
1000
0000
0100
0000
,  // measure 11
0100
0000
0010
0000
0001
0000
0100
0000
1000
0000
0000
0001
0000
0000
0100
0000
,  // measure 12
1000
0000
0000
0001
0000
0000
0100
0000
0010
0000
0000
0001
0000
0000
0100
0000
,  // measure 13
0010
0000
0000
0001
0000
0000
0100
0000
0010
0000
0000
0001
0000
0000
0100
0000
,  // measure 14
1000
0000
0000
0100
0000
0000
0000
0100
0010
0000
0001
0000
0000
0000
1000
0000
,  // measure 15
0000
0000
0000
0100
0000
0000
0000
0000
0000
0000
0000
0000
0000
0000
0000
0000
,  // measure 16
0000
0000
0000
0000
,  // measure 17
0100
0010
0001
1000
0001
0100
0010
0100
,  // measure 18
1000
0000
0001
0000
0000
0000
0100
0001
0010
0000
0000
0001
0000
0000
1000
0000
,  // measure 19
0010
0001
0100
0001
0100
0010
0001
1000
,  // measure 20
0001
0000
0100
0000
0010
0000
0001
0000
0100
0000
0000
0010
0000
0000
0001
0000
,  // measure 21
0000
0001
0100
0010
0001
1000
0100
0000
,  // measure 22
0000
0010
0001
0100
0001
0010
0100
0000
,  // measure 23
0000
0001
0100
0010
0001
0100
1000
0000
,  // measure 24
0001
0100
0010
0001
2000
0000
3100
0000
,  // measure 25
0100
0010
0001
0100
0001
0100
0010
0001
,  // measure 26
1000
0000
0001
0000
0100
0000
0010
0000
0001
0000
0000
0010
0000
0000
0001
0000
,  // measure 27
0010
0100
0010
0001
1000
0001
0100
0010
,  // measure 28
0001
0000
1000
0000
0001
0000
0100
0000
0010
0000
0000
0001
0000
0000
0010
0000
,  // measure 29
0001
0100
0001
0100
0010
0001
0100
0000
,  // measure 30
1000
0001
0100
0010
0001
0100
1000
0000
,  // measure 31
0010
0001
0100
0010
0001
1000
0001
0000
,  // measure 32
0100
0010
0001
0100
2000
0000
0200
0000
,  // measure 33
0000
0000
0000
3300
,  // measure 34
0000
0000
0000
0000
0000
0100
0001
1000
0001
0010
0000
0100
,  // measure 35
0001
0000
0000
0000
0000
0000
0001
0000
0010
0000
0000
0100
0000
0000
0001
0000
,  // measure 36
1000
0000
0000
0000
0000
0000
0000
0000
0000
0001
0000
0000
0000
0000
0000
0000
0000
0000
0000
0000
0000
0000
0000
0000
0010
0000
0000
0000
0001
0000
0000
0000
0100
0000
0000
0000
1000
0000
0000
0000
0000
0000
0000
0000
0001
0000
0000
0000
,  // measure 37
0000
0000
1000
0000
0000
0000
0000
0000
0000
1000
0000
0000
0100
0000
0000
0001
0000
0000
0010
0000
0000
0000
0000
0000
,  // measure 38
0000
0000
0000
0000
0001
0010
0001
0100
0010
0001
0100
0010
,  // measure 39
0100
0000
0000
0000
0100
0010
1000
0001
0100
0010
0001
0100
,  // measure 40
1000
0000
0000
0000
0000
0000
0000
0000
0001
0000
0000
0000
0100
0000
0000
0000
0000
0000
0000
0000
0000
0001
0000
0000
0010
0000
0000
0001
0000
0000
0000
0000
0000
0000
0000
0000
0100
0000
0000
0001
0000
0000
0000
0000
0000
0000
0000
0000
,  // measure 41
0100
0000
0000
0000
0010
0000
0100
0000
0000
0000
0001
0000
0000
0010
0000
0000
,  // measure 42
0100
0010
1000
0100
0001
0000
0010
0000
,  // measure 43
0001
0010
0100
0010
0001
0000
0100
0000
,  // measure 44
0001
0010
0100
0010
0001
0000
0100
0000
,  // measure 45
0000
0000
0001
0000
0100
0000
0010
0000
0001
0000
0000
1000
0000
0000
0100
0000
,  // measure 46
0001
0000
0000
0100
0000
0000
1000
0000
0001
0000
0000
0100
0000
0000
0010
0000
,  // measure 47
0001
0000
0000
0010
0000
0000
0100
0000
0010
0000
0000
0001
0000
0000
1000
0000
,  // measure 48
0100
0000
0000
0010
0000
0000
0001
0000
0100
0000
0000
1000
0000
0000
0001
0000
,  // measure 49
0100
0000
0000
0010
0000
0000
0001
0000
0100
0000
0000
1000
0000
0000
0001
0000
,  // measure 50
2002
0000
0000
0000
,  // measure 51
0000
0000
0000
0000
,  // measure 52
0000
0000
0000
0000
,  // measure 53
3003
0000
0100
0001
1000
0100
0001
0100
,  // measure 54
0001
0000
0100
0000
0010
0000
0001
0000
0100
0000
0001
0000
1000
0000
0000
0100
,  // measure 55
0000
0001
0010
0001
0100
0010
0001
0100
,  // measure 56
0010
0000
0001
0000
0100
0000
0001
0000
0100
0000
0001
0000
1000
0000
0000
0001
,  // measure 57
0000
0100
0010
0001
0100
0010
0100
0001
,  // measure 58
0010
0000
1000
0010
0100
0001
0100
0010
,  // measure 59
0001
0000
1000
0010
1000
0001
0100
0010
,  // measure 60
0001
0000
1000
0010
1000
0001
0200
0000
,  // measure 61
0310
0000
1000
0100
0001
1000
0001
0100
,  // measure 62
0010
0000
0001
0000
1000
0000
0001
0000
0100
0000
0010
0000
0001
0000
0000
0100
,  // measure 63
0000
1000
0001
0010
0001
1000
0001
0100
,  // measure 64
0010
0000
1000
0000
0001
0000
0100
0000
0010
0000
0001
0000
1000
0000
0000
0001
,  // measure 65
0000
0100
0010
0001
0010
0001
0100
0010
,  // measure 66
0001
0000
1000
0100
0010
0001
0100
0010
,  // measure 67
0001
0000
1000
0100
0010
0001
0100
0010
,  // measure 68
0001
0000
1000
0100
0001
0100
0002
0000
,  // measure 69
1003
0202
0000
0000
,  // measure 70
0000
0000
0000
0000
,  // measure 71
0000
0000
0000
0000
,  // measure 72
0303
0000
1000
0100
1000
0010
0200
0000
,  // measure 73
0310
0100
0100
0010
,  // measure 74
0001
1000
0001
0100
,  // measure 75
0110
0001
0100
0010
,  // measure 76
1000
0000
0001
0010
0100
0001
0020
0000
,  // measure 77
0130
0110
0100
0001
,  // measure 78
0100
1001
0100
0100
,  // measure 79
0011
1010
0010
0001
,  // measure 80
0100
0000
0010
0100
1000
0100
0002
0000
,  // measure 81
0013
0110
0001
0100
,  // measure 82
0010
0011
0100
0010
,  // measure 83
0001
0000
0100
0010
0100
0001
1000
0010
,  // measure 84
0001
0001
0100
0001
0010
0001
0200
0000
,  // measure 85
2000
0000
0000
0000
3300
0000
0100
0001
,  // measure 86
0010
0001
0100
0010
0001
1000
0001
0100
,  // measure 87
0010
0000
0001
0000
1000
0000
0000
0001
0000
0000
0100
0000
0010
0000
0001
0000
,  // measure 88
0001
0010
0100
0010
0001
0100
0001
0100
,  // measure 89
0010
0000
0001
0000
1000
0000
0000
0001
0000
0000
0010
0000
0100
0000
0001
0000
,  // measure 90
1000
0001
0100
0010
0001
0000
1000
0100
,  // measure 91
0010
0001
0100
0010
0001
0000
1000
0100
,  // measure 92
0010
0001
0100
0010
0001
0000
1000
0001
,  // measure 93
0010
0100
0002
0000
0103
0000
0010
0100
,  // measure 94
0010
0001
0100
0010
0001
1000
0001
0100
,  // measure 95
0010
0000
0001
0000
1000
0000
0000
0001
0000
0000
0100
0000
0010
0000
0001
0000
,  // measure 96
0001
0100
0010
0001
1000
0001
0100
0010
,  // measure 97
0001
0000
0100
0000
1000
0000
0000
0001
0000
0000
0100
0000
0010
0000
0001
0000
,  // measure 98
0010
0001
0100
0010
0001
0000
1000
0100
,  // measure 99
0010
0100
0001
1000
0001
0000
0100
0001
,  // measure 100
0010
0001
0100
0001
1000
0000
0010
0001
,  // measure 101
0100
0001
2000
0000
3010
0000
0110
0000
,  // measure 102
0100
0001
0100
0010
0001
0000
1010
0100
,  // measure 103
0010
0001
0200
0000
0301
0000
0110
0100
,  // measure 104
0100
0100
0100
0010
0001
0000
1001
0010
,  // measure 105
0100
0100
0020
0000
0031
0000
0101
0100
,  // measure 106
0100
0100
0100
0010
0001
0000
1001
0100
,  // measure 107
0001
0100
0001
0100
0001
0000
0110
0100
,  // measure 108
0001
0010
0100
0010
0001
0000
1000
0100
,  // measure 109
1000
0100
0200
0000
0020
0000
0000
0000
,  // measure 110
0000
0000
0000
0000
,  // measure 111
0000
0000
0000
0000
,  // measure 112
0000
0000
0000
0000
,  // measure 113
0000
0000
0000
0000
,  // measure 114
0000
0000
0000
0000
,  // measure 115
0000
0000
0000
0330
;
