#VERSION:0.83;
#TITLE:victory laps;
#SUBTITLE:;
#ARTIST:Unknown artist;
#TITLETRANSLIT:;
#SUBTITLETRANSLIT:;
#ARTISTTRANSLIT:;
#GENRE:;
#ORIGIN:;
#CREDIT:;
#BANNER:;
#BACKGROUND:;
#PREVIEWVID:;
#JACKET:;
#CDIMAGE:;
#DISCIMAGE:;
#LYRICSPATH:;
#CDTITLE:;
#MUSIC:Victory Lap Two - Fred again...mp3;
#OFFSET:0.000000;
#SAMPLESTART:100.059883;
#SAMPLELENGTH:12.000000;
#SELECTABLE:YES;
#BPMS:0.000=140.500,
64.000=138.000,
80.000=140.000,
192.000=138.000,
196.000=140.000,
308.000=142.000,
320.000=140.000;
#STOPS:0.000=1.400;
#DELAYS:;
#WARPS:;
#TIMESIGNATURES:0.000=4=4;
#TICKCOUNTS:0.000=4;
#COMBOS:0.000=1;
#SPEEDS:0.000=1.000=0.000=0;
#SCROLLS:0.000=1.000;
#FAKES:;
#LABELS:0.000=Song Start;
#BGCHANGES:;
#KEYSOUNDS:;
#ATTACKS:
;

//---------------dance-single - ----------------
#NOTEDATA:;
#CHARTNAME:;
#STEPSTYPE:dance-single;
#DESCRIPTION:;
#CHARTSTYLE:;
#DIFFICULTY:Hard;
#METER:16;
#RADARVALUES:0.847555,0.866296,0.032491,0.006498,0.838272,913.000000,908.000000,5.000000,1.000000,0.000000,0.000000,0.000000,0.000000,0.000000,0.847555,0.866296,0.032491,0.006498,0.838272,913.000000,908.000000,5.000000,1.000000,0.000000,0.000000,0.000000,0.000000,0.000000;
#CREDIT:;
#NOTES:
// measure 0
0000
0000
0000
0000
,  // measure 1
0000
0000
0000
0000
,  // measure 2
0100
0010
0001
0000
0100
0000
1000
0000
0100
0010
0001
0000
0100
0000
0010
0000
,  // measure 3
0100
0001
0100
0010
0001
1000
0001
0100
0010
0001
0100
0000
1000
0000
0100
0000
,  // measure 4
0001
0010
0100
0000
0010
0000
0100
0001
1000
0100
0001
0000
0010
0000
0001
0100
,  // measure 5
0010
0001
0100
0000
0010
0000
0010
0001
0100
0010
0100
0000
0001
0000
1000
0000
,  // measure 6
0001
0000
0100
0000
0010
0000
0100
0001
1000
0100
0001
0000
0100
0000
0001
0000
,  // measure 7
1000
0001
0010
0000
1000
0001
0010
0000
0100
0001
0100
0000
0010
0100
0001
0000
,  // measure 8
0100
0000
1000
0000
0001
0000
0010
0000
0100
0000
0001
0000
1000
0010
0001
0000
,  // measure 9
0100
0010
0001
1000
0001
0100
0001
0100
,  // measure 10
0001
1000
0010
0000
0100
0000
1000
0000
0100
0010
0001
0000
0100
0000
0010
0000
,  // measure 11
0001
0100
0010
0001
1000
0001
0100
0010
1000
0001
0100
0000
0100
0000
0010
0000
,  // measure 12
0100
0001
0010
0000
0100
0000
0010
0000
0001
0100
1000
0010
0100
0000
0001
0000
,  // measure 13
1000
0100
0001
0010
0100
0000
0010
0000
0100
0010
0100
0001
1000
0000
0010
0000
,  // measure 14
0100
0000
0001
0000
0100
0000
0010
0000
0100
0001
0010
0100
0001
0000
1000
0000
,  // measure 15
0100
0000
0001
0000
0010
0100
0001
0000
1000
0100
0001
0000
0010
0100
0001
0000
,  // measure 16
0010
0000
0100
0000
0001
0000
0100
0000
1000
0000
0100
0000
0010
0001
0100
0000
,  // measure 17
1000
0010
0001
1000
0001
0100
0010
1000
,  // measure 18
0100
0001
0010
0000
0100
0000
0010
0000
0100
0000
0001
0010
0100
0000
0100
0000
,  // measure 19
0010
0001
1000
0001
0100
0001
0100
0010
0001
0100
1000
0000
0010
0000
0001
0000
,  // measure 20
0100
0001
1000
0000
0100
0000
0010
0000
0100
0010
0001
1000
0100
0000
0001
0000
,  // measure 21
0010
0100
1000
0001
0010
0000
0100
0000
0001
1000
0100
0001
0010
0000
0100
0000
,  // measure 22
0001
0000
1000
0000
0001
0000
0100
0000
1000
0100
0001
0010
0100
0000
0010
0000
,  // measure 23
1000
0000
0100
0001
0100
0010
0001
0000
1000
0100
0001
0000
0010
0100
0001
0000
,  // measure 24
0100
0001
0010
0000
0100
0000
0001
0000
1000
0100
0001
0010
0100
0000
0000
0000
,  // measure 25
0010
0100
0001
1000
0100
0000
0001
0000
0010
0100
0001
1000
0001
0000
0100
0001
,  // measure 26
1000
0100
0001
0010
0100
0001
1000
0001
0010
0100
0001
1000
0001
0000
0100
0001
,  // measure 27
1000
0100
0001
0010
0100
0000
0010
0100
0001
1000
0001
0010
0100
0000
0000
0000
,  // measure 28
0100
0001
1000
0000
0100
0001
0010
0000
0100
0000
0001
0010
0100
0000
0000
0000
,  // measure 29
1000
0001
0100
0010
0001
0100
0001
0000
1000
0100
0001
0000
0010
0000
0000
0100
,  // measure 30
0001
1000
0100
0000
0001
0000
1000
0100
0001
0000
0100
0000
2000
0000
0000
0000
,  // measure 31
3000
0000
0000
0000
0001
0100
1000
0000
0001
0100
0010
0000
0010
0100
0001
0000
,  // measure 32
1001
0000
0000
0000
0000
0100
1000
0000
0100
0001
0000
1000
0100
0000
0010
0100
,  // measure 33
0001
0100
1000
0001
0010
0100
0001
1000
0001
0010
0100
0001
0010
0000
0100
0000
,  // measure 34
0001
0100
0010
0000
0100
0001
0000
0010
0000
0100
0001
0000
1000
0000
0100
0000
,  // measure 35
0010
0001
0100
0001
0100
0010
0001
1000
0001
0100
0010
0000
0100
0000
1000
0000
,  // measure 36
0100
0001
1000
0100
0001
0000
0010
0000
0001
0100
0010
0001
0100
0000
1000
0000
,  // measure 37
0100
0000
0010
0001
0100
0000
0001
0100
0010
0000
0100
0001
0010
0000
1000
0000
,  // measure 38
0001
1000
0100
0001
0010
0100
0001
1000
0100
0001
0010
0000
0010
0000
0100
0000
,  // measure 39
1001
0000
0000
0000
0100
0001
1000
0000
0100
0001
0010
0000
0100
0001
0010
0000
,  // measure 40
0010
0000
0001
0000
0100
0000
0000
0000
0000
0000
0100
0001
0010
0000
0100
0000
,  // measure 41
0010
0000
0100
0000
0001
0000
1000
0000
0100
0001
0010
0100
0001
0000
1000
0000
,  // measure 42
0010
0000
0001
0000
0100
0000
0010
0000
0100
0001
1000
0000
0100
0000
0001
0000
,  // measure 43
1001
0000
0000
0000
0010
0001
0100
0010
0100
0001
1000
0000
0100
0000
0001
0000
,  // measure 44
0110
0000
0000
0000
1001
0000
0000
0000
0100
0001
1000
0000
0100
0000
0001
0000
,  // measure 45
0100
0000
0010
0001
0100
0000
0001
0000
0010
0100
0001
0000
1000
0000
0100
0000
,  // measure 46
0001
0100
0010
0000
0001
0000
0100
0000
0010
0000
0001
0000
0100
0000
1000
0000
,  // measure 47
0000
0000
0100
0001
1000
0100
0001
0000
0010
0000
0100
0000
0001
0000
1000
0000
,  // measure 48
0100
0000
0001
0000
0010
0000
0100
0000
0001
0000
1000
0000
0100
0001
0010
0000
,  // measure 49
0010
0100
0001
0100
0010
0001
0100
1000
,  // measure 50
0001
0010
0100
0000
1000
0000
0100
0000
0010
0100
0001
0000
1000
0000
0100
0000
,  // measure 51
0001
0010
0100
0001
1000
0001
0010
0100
0001
1000
0001
0000
0010
0000
0100
0000
,  // measure 52
0100
0001
1000
0000
0100
0000
0001
0000
0010
0100
0001
1000
0001
0000
0010
0000
,  // measure 53
0100
1000
0001
0010
0100
0000
0001
0000
0010
0100
0001
1000
0001
0000
0010
0000
,  // measure 54
1000
0000
0001
0000
0100
0000
0010
0000
1000
0100
0001
0010
0100
0000
0010
0000
,  // measure 55
0100
0001
1000
0000
0100
0001
0010
0000
0100
0001
1000
0000
0100
0001
0010
0000
,  // measure 56
0001
0100
0010
0001
1000
0001
0100
0010
1000
0000
0100
0000
0001
0000
0010
0000
,  // measure 57
0001
0100
0010
0001
1000
0001
0100
0000
0010
0000
0001
0000
1000
0000
0100
0001
,  // measure 58
0010
0100
0001
1000
0001
0100
0010
0001
0100
0000
1000
0000
0100
0000
0010
0000
,  // measure 59
0100
0001
1000
0100
0001
0000
0010
0000
0100
0000
0001
0000
1000
0000
0000
0000
,  // measure 60
0001
0000
0010
0000
0100
0000
0001
1000
0100
0001
0010
0100
0001
0000
0000
0000
,  // measure 61
0100
0000
1000
0000
0001
0000
0001
1000
0100
0001
0010
0100
0001
0000
1000
0000
,  // measure 62
0010
0001
1000
0001
0100
0000
0010
0001
0010
0000
0001
0010
1000
0000
0100
0000
,  // measure 63
0001
0000
0010
0000
0001
0100
1000
0000
0001
0100
0010
0000
0001
0100
1000
0000
,  // measure 64
0100
0001
1000
0001
0010
0100
0001
0100
0010
0001
0100
0010
,  // measure 65
0001
1000
0001
0100
0010
0001
0100
1000
0001
0100
0010
0001
,  // measure 66
1000
0001
0100
0010
0001
0100
0010
0001
1000
0001
0100
0010
,  // measure 67
1000
0001
1000
0000
0100
0001
0100
0000
0010
0100
0010
0000
0100
0001
0100
0000
,  // measure 68
1000
0001
0010
0100
0001
0000
1000
0100
0001
0000
0010
0000
0000
0100
0000
0000
,  // measure 69
0100
0010
0001
0100
1000
0000
0010
0000
0100
0000
0001
0000
0000
0010
0000
0000
,  // measure 70
0100
0010
0001
1000
0001
0100
0010
0001
0100
1000
0000
0001
,  // measure 71
0100
0010
0001
1000
0001
0100
0010
0001
0100
1000
0000
0000
,  // measure 72
0001
1000
0001
0100
0010
0001
1000
0001
,  // measure 73
0100
0010
0001
0100
0001
0100
0010
0001
,  // measure 74
1000
0001
0100
0010
0001
1000
0001
0100
,  // measure 75
0010
0001
1000
0001
0100
0010
0001
0100
,  // measure 76
0001
0100
0010
0001
1000
0001
0100
0010
,  // measure 77
0001
1000
0001
0100
0010
0001
1000
0001
,  // measure 78
0100
0010
0001
1000
0001
0100
0010
0001
,  // measure 79
0100
0001
0100
0010
0001
0100
1000
0000
,  // measure 80
0001
0000
0100
0000
0010
0000
0100
0000
0001
0000
1000
0000
0100
0001
0010
0000
,  // measure 81
0100
0001
0010
0001
0010
0100
0001
0100
,  // measure 82
1000
0001
0010
0000
0100
0000
0010
0000
1000
0100
0001
0000
0010
0000
0100
0000
,  // measure 83
0001
1000
0100
0001
0010
0100
0001
1000
0001
0010
0100
0000
0001
0000
1000
0000
,  // measure 84
0010
0100
0001
0000
1000
0000
0100
0000
0001
0010
0100
0001
1000
0000
0100
0000
,  // measure 85
0001
1000
0001
0100
0010
0000
0001
0000
0100
0010
0001
1000
0100
0000
0010
0000
,  // measure 86
1000
0000
0001
0000
0100
0000
0010
0000
1000
0100
0001
0010
0100
0000
0001
0000
,  // measure 87
1000
0000
0100
0000
0100
0010
0001
0000
0100
0001
1000
0000
0100
0001
0010
0000
,  // measure 88
0100
0000
0001
0000
1000
0000
0001
0000
0100
0000
0010
0000
0001
0100
1000
0000
;
