#TITLE:under your spell;
#SUBTITLE:;
#ARTIST:Snow Strippers;
#TITLETRANSLIT:;
#SUBTITLETRANSLIT:;
#ARTISTTRANSLIT:;
#GENRE:;
#CREDIT:;
#BANNER:;
#BACKGROUND:;
#LYRICSPATH:;
#CDTITLE:;
#MUSIC:SNOW STRIPPERS - UNDER YOUR SPELL #SURFGANG.mp3;
#OFFSET:0.000000;
#SAMPLESTART:100.059883;
#SAMPLELENGTH:12.000000;
#SELECTABLE:YES;
#BPMS:0.000000=145.000000
;
#STOPS:0.000000=0.100000
;
#BGCHANGES:0.000=SNOW STRIPPERS - UNDER YOUR SPELL #SURFGANG.mp4=1.000=0=0=1=====,
99999=-nosongbg-=1.000=0=0=0 // don't automatically add -songbackground-
;
#KEYSOUNDS:;
#ATTACKS:;

//---------------dance-single - ----------------
#NOTES:
     dance-single:
     :
     Hard:
     12:
     0.624261,0.702833,0.764148,0.128121,0.000000,955.000000,788.000000,167.000000,28.000000,0.000000,0.000000,0.624261,0.702833,0.764148,0.128121,0.000000,955.000000,788.000000,167.000000,28.000000,0.000000,0.000000:
// measure 0
0000
0000
0000
0000
,  // measure 1
0000
0000
0000
0000
,  // measure 2
0000
0000
0000
0000
,  // measure 3
0000
0000
0000
0000
,  // measure 4
0010
0001
0100
0010
0001
1000
0001
0100
,  // measure 5
0010
0001
1000
0100
,  // measure 6
0001
0100
0010
0001
,  // measure 7
1000
0001
0100
0010
,  // measure 8
1000
0100
0001
0010
0100
0001
1000
0010
,  // measure 9
0100
0001
0100
0010
0001
0100
1000
0000
,  // measure 10
0010
0100
0010
0001
,  // measure 11
1000
0001
0100
0010
,  // measure 12
0100
0010
0001
0100
0001
0100
0010
0001
,  // measure 13
1000
0001
0100
0010
0001
0100
1000
0000
,  // measure 14
0100
0010
0001
1000
,  // measure 15
0110
1001
0110
1001
,  // measure 16
0010
0100
0001
0100
0010
0001
1000
0001
,  // measure 17
0100
0010
0001
0100
0001
0100
0010
0001
,  // measure 18
1000
0001
0100
0010
0001
0100
0001
0100
,  // measure 19
0010
0001
1000
0001
0100
0010
1001
1001
,  // measure 20
1001
0010
1000
0001
0100
0010
0001
1000
,  // measure 21
0001
0100
0010
0001
0100
0001
0100
0010
,  // measure 22
0001
1000
0001
0100
0010
0001
1000
0100
,  // measure 23
0110
0001
0110
1000
0110
0001
0101
0010
,  // measure 24
1001
0010
0100
0001
0100
0010
1001
0000
,  // measure 25
0110
0010
0100
0001
0100
0010
1001
0000
,  // measure 26
0110
0100
0100
0001
0100
0010
1001
0000
,  // measure 27
0101
0001
0100
0001
0100
0010
1001
0000
,  // measure 28
0110
0100
0010
0001
0100
0010
1001
0000
,  // measure 29
1010
0100
0001
0010
0100
0001
0110
0000
,  // measure 30
0110
0100
0001
0100
0010
0100
1010
0000
,  // measure 31
1100
0100
1100
0100
1100
0100
1100
0000
,  // measure 32
1100
0001
0100
0010
0001
0100
0011
0000
,  // measure 33
0110
0001
0100
0001
0100
0010
1001
0000
,  // measure 34
0101
0001
0100
0001
0100
0010
1001
0000
,  // measure 35
0101
0001
0100
0001
0100
0010
1001
0000
,  // measure 36
0101
0010
0100
0010
0010
0100
1001
0000
,  // measure 37
0110
0010
0100
0001
0100
0010
1001
0000
,  // measure 38
0101
0100
0010
0001
1000
0001
0110
0000
,  // measure 39
0110
0100
0100
0001
0100
0010
1001
0000
,  // measure 40
2002
0000
3003
0101
,  // measure 41
0202
0000
0303
1100
,  // measure 42
0220
0000
0330
0101
,  // measure 43
0220
0000
0330
1100
,  // measure 44
0220
0000
0330
0101
,  // measure 45
0220
0000
0330
1100
,  // measure 46
0220
0000
0330
0101
,  // measure 47
0220
0000
0330
1001
,  // measure 48
0101
0010
0000
0100
0000
0001
1001
0000
,  // measure 49
0110
0010
0000
0010
0000
0100
0011
0000
,  // measure 50
0011
1000
0000
0100
0000
0010
1001
0000
,  // measure 51
0101
0010
0000
0100
0000
0010
0110
0000
,  // measure 52
1001
0100
0000
0010
0000
0001
1001
0000
,  // measure 53
0110
0001
0000
1000
0000
0001
0101
0000
,  // measure 54
1001
0010
0000
0100
0000
0001
0101
0000
,  // measure 55
1001
0110
1001
0110
,  // measure 56
0001
1000
0001
0100
0010
0001
1000
0001
,  // measure 57
0100
0010
0001
0100
0001
0100
0010
0001
,  // measure 58
1000
0001
0100
0010
0001
1000
0001
0100
,  // measure 59
0010
0001
1000
0001
0100
0010
1001
0010
,  // measure 60
0101
0100
0010
0001
0100
0001
0100
0010
,  // measure 61
0001
1000
0001
0100
0010
0001
1000
0001
,  // measure 62
0100
0010
0001
1000
0001
0100
0100
0010
,  // measure 63
1001
0110
1001
0110
,  // measure 64
1001
0010
0001
0100
0010
0001
1000
0001
,  // measure 65
0100
0010
0100
0010
0001
0100
0001
0100
,  // measure 66
0010
0001
1000
0001
0100
0010
0001
1000
,  // measure 67
0001
0100
0010
0001
1000
0001
0110
0010
,  // measure 68
1001
0010
1000
0001
0100
0010
0001
0100
,  // measure 69
0001
0100
0010
0001
1000
0001
0100
0010
,  // measure 70
0001
0100
0010
0001
1000
0001
0100
0010
,  // measure 71
1001
0110
1001
0110
,  // measure 72
1001
0010
1000
0001
0100
0010
1001
0010
,  // measure 73
0101
0010
0100
0001
0100
0010
1001
0000
,  // measure 74
0101
0010
0100
0001
1000
0001
0110
0000
,  // measure 75
0101
0100
0010
0001
0100
0010
1001
0000
,  // measure 76
1001
0010
0100
0001
1000
0001
0110
0001
,  // measure 77
0110
0001
1000
0010
0100
0001
0101
0000
,  // measure 78
0110
0001
0100
0001
0100
0010
1001
0000
,  // measure 79
1001
0110
1001
0110
,  // measure 80
1001
0010
0100
0001
1000
0001
0110
0100
,  // measure 81
0011
0001
1000
0001
0100
0010
1001
0100
,  // measure 82
0011
0100
0010
0001
1000
0001
0110
0001
,  // measure 83
0110
0100
0010
0001
0100
0010
1001
0100
,  // measure 84
0101
0100
0010
0001
0100
0010
1001
0001
,  // measure 85
0110
0010
1000
0001
0010
0100
0101
0010
,  // measure 86
0110
0010
0001
0100
0001
0100
1001
0010
,  // measure 87
0110
0001
0100
0001
0100
0010
1001
0100
,  // measure 88
0220
0000
0330
1001
,  // measure 89
0202
0000
0303
0110
,  // measure 90
2002
0000
3003
0110
,  // measure 91
0101
0100
0001
1000
0001
0100
0110
0100
,  // measure 92
0220
0000
0330
1001
,  // measure 93
0202
0000
0303
0110
,  // measure 94
2200
0000
3300
0110
,  // measure 95
1001
0001
1001
1000
0110
0100
0110
0010
,  // measure 96
0101
0010
0100
0001
0100
0010
1001
0010
,  // measure 97
0101
0010
0100
0001
1000
0001
0110
0010
,  // measure 98
0110
0010
0001
1000
0001
0100
1001
0010
,  // measure 99
0110
0001
0100
0010
0001
0100
1001
0010
,  // measure 100
0010
0001
0100
0001
0010
0100
0101
1000
,  // measure 101
1001
0010
0100
0001
0100
0010
1001
0100
,  // measure 102
0101
0010
0100
0001
1000
0001
0110
0010
,  // measure 103
0110
0100
1100
1000
0110
0001
0110
0010
,  // measure 104
1001
0100
0010
0001
0100
1000
0010
0010
,  // measure 105
1000
0001
0100
0010
0001
0100
0001
0100
,  // measure 106
0010
0001
1000
0001
0100
0010
0001
0100
,  // measure 107
0001
0100
0010
0001
1000
0001
0100
0010
,  // measure 108
0001
0100
0001
0100
0010
0001
1000
0001
,  // measure 109
0100
0010
0001
0100
0001
0100
0010
0001
,  // measure 110
1000
0001
0100
0010
0001
0100
0001
0100
,  // measure 111
0010
0001
1000
0001
0100
0010
0001
0100
,  // measure 112
1000
0010
0001
1000
,  // measure 113
0001
0100
0010
0001
,  // measure 114
0100
0001
0100
0010
,  // measure 115
0001
1000
0001
0100
,  // measure 116
0010
0001
1000
0001
,  // measure 117
0100
0010
0001
1000
,  // measure 118
0001
0100
0010
0100
,  // measure 119
1001
0110
1001
0110
,  // measure 120
0010
0001
0100
0010
0001
1000
0100
0000
,  // measure 121
0100
0001
0100
0010
0001
0100
1000
0100
,  // measure 122
0001
0100
0010
0001
0100
1000
0010
0010
,  // measure 123
0001
1000
0001
0100
0010
0001
1000
0001
,  // measure 124
0100
0010
0001
0100
0001
0100
0010
0001
,  // measure 125
1000
0001
0100
0010
0001
1000
0001
0100
,  // measure 126
0010
0001
1000
0001
0100
0010
0001
1000
,  // measure 127
0001
0100
0010
0001
1000
0001
0100
0010
,  // measure 128
1001
0000
0000
0000
;
