#VERSION:0.83;
#TITLE:turn it up;
#SUBTITLE:;
#ARTIST:DJ Daddy Trance;
#TITLETRANSLIT:;
#SUBTITLETRANSLIT:;
#ARTISTTRANSLIT:;
#GENRE:;
#ORIGIN:;
#CREDIT:;
#BANNER:;
#BACKGROUND:;
#PREVIEWVID:;
#JACKET:;
#CDIMAGE:;
#DISCIMAGE:;
#LYRICSPATH:;
#CDTITLE:;
#MUSIC:Marlon Hoffstadt, DJ Daddy Trance - Turn It Up (Official Audio).ogg;
#OFFSET:0.000000;
#SAMPLESTART:100.059883;
#SAMPLELENGTH:12.000000;
#SELECTABLE:YES;
#BPMS:0.000=147.000;
#STOPS:0.000=0.100;
#DELAYS:;
#WARPS:;
#TIMESIGNATURES:0.000=4=4;
#TICKCOUNTS:0.000=4;
#COMBOS:0.000=1;
#SPEEDS:0.000=1.000=0.000=0;
#SCROLLS:0.000=1.000;
#FAKES:;
#LABELS:0.000=Song Start;
#BGCHANGES:;
#KEYSOUNDS:;
#ATTACKS:
;

//---------------dance-single - ----------------
#NOTEDATA:;
#CHARTNAME:;
#STEPSTYPE:dance-single;
#DESCRIPTION:;
#CHARTSTYLE:;
#DIFFICULTY:Hard;
#METER:15;
#RADARVALUES:0.768178,1.070240,0.226768,0.011338,0.632117,1897.000000,1817.000000,80.000000,4.000000,0.000000,0.000000,0.000000,0.000000,0.000000,0.768178,1.070240,0.226768,0.011338,0.632117,1897.000000,1817.000000,80.000000,4.000000,0.000000,0.000000,0.000000,0.000000,0.000000;
#CREDIT:;
#NOTES:
// measure 0
0000
0000
0000
0000
,  // measure 1
0000
0000
0000
0000
,  // measure 2
0000
0000
0000
0000
,  // measure 3
0000
0000
0000
0000
,  // measure 4
0100
1000
0001
1000
,  // measure 5
0001
0000
0100
0000
0001
0100
1000
0000
,  // measure 6
0100
0000
0010
0000
0001
1000
0100
0000
,  // measure 7
0001
0000
0100
0000
0001
1000
0100
0000
,  // measure 8
0010
0000
0000
0001
0000
0000
1000
0000
0001
0000
1000
0000
0100
0000
0000
0000
,  // measure 9
1000
0000
0100
0001
0100
0001
1000
0001
0010
0000
0000
0000
0000
0000
0100
1000
,  // measure 10
0000
0000
0100
0001
1000
0001
0010
0100
0001
0000
0010
0000
0100
0000
0100
0001
,  // measure 11
0100
0010
0100
0010
0001
1000
0001
0100
1000
0000
0010
0000
0100
0000
0001
1000
,  // measure 12
0100
0001
0100
0001
1000
0001
0010
0100
0001
0000
0100
0000
0010
0000
0001
1000
,  // measure 13
0001
0100
0010
0001
1000
0001
0100
0010
0001
0000
0100
0000
1000
0000
0100
0001
,  // measure 14
0010
0001
0100
0010
0001
1000
0001
0100
1000
0000
0001
0000
0100
0000
0010
0100
,  // measure 15
1000
0001
0010
0100
0001
1000
0001
0010
0100
0000
0001
0000
0010
0000
0100
0001
,  // measure 16
0001
0000
0000
1000
0000
0000
0100
0000
0001
0000
1000
0000
0001
0000
0100
0000
,  // measure 17
1000
0000
0001
0000
1000
0000
0001
0000
0100
0000
0010
0000
1001
0000
0000
0010
,  // measure 18
0100
0000
0001
0000
1000
0000
0001
0000
0100
0000
0010
0000
1000
0100
0001
1000
,  // measure 19
0001
0010
0100
0001
1000
0001
0010
0001
0100
0010
0001
1000
0001
0100
1000
0001
,  // measure 20
0010
0000
0000
0100
0000
0000
0001
0000
1000
0000
0100
0000
0000
0001
0010
0000
,  // measure 21
0010
0001
0100
0010
0001
1000
0001
0100
1000
0000
0010
0000
1001
0000
0000
0100
,  // measure 22
0001
1000
0001
0010
0100
0001
0001
0100
1000
0000
0010
0000
0000
0100
0001
0000
,  // measure 23
0100
0010
0001
1000
0001
0100
0001
1000
0100
0000
0010
0000
0100
0001
1000
0001
,  // measure 24
0010
0000
0000
0001
0000
0000
0010
0000
0100
0000
0001
0000
1000
0001
0100
0000
,  // measure 25
0001
0100
0010
0001
1000
0001
0100
1010
0100
0000
0001
0000
0110
0000
0000
0000
,  // measure 26
0001
0010
0100
0010
0001
1000
0001
0100
1000
0000
0010
0000
0001
0100
0001
0100
,  // measure 27
0010
0001
0100
0010
0001
1000
0001
0100
1000
0000
0010
0000
0100
0001
1000
0000
,  // measure 28
0001
0000
0000
0100
0000
0000
1000
0000
0010
0000
0100
0000
0100
0000
0010
0000
,  // measure 29
0001
1000
0001
0100
0010
0001
1100
0000
,  // measure 30
0001
0000
1000
0000
0001
0000
0100
0000
0010
0000
0001
0000
1000
0100
0000
0000
,  // measure 31
1000
0000
0001
0000
0010
0000
0100
0000
1000
0000
0100
0000
0001
0010
0000
0000
,  // measure 32
0110
0000
0000
1100
0000
0000
0101
0000
0100
0000
0010
0000
0001
1000
0100
0000
,  // measure 33
1000
0001
0100
0010
0100
1000
0101
0000
,  // measure 34
0001
0000
0100
0000
0001
0000
0100
0000
1000
0000
0100
0000
0001
0010
0000
0100
,  // measure 35
0100
0001
1000
0100
0010
0001
0100
0001
1000
0000
0100
0000
0010
0000
0100
0001
,  // measure 36
1000
0000
0000
0010
0000
0000
0001
0000
1000
0000
0100
0000
0001
0010
0000
0010
,  // measure 37
0100
0001
0100
0010
0001
1000
0001
0100
1000
0000
0001
0000
1001
0000
0000
0100
,  // measure 38
0001
1000
0100
0001
0100
0001
1000
0001
0010
0000
0100
0000
0001
1000
0000
0100
,  // measure 39
0010
0001
0100
0010
0001
1000
0001
0100
1000
0000
0001
0000
0010
0100
0000
0000
,  // measure 40
1001
0000
0000
0101
0000
0000
0110
0000
1000
0000
0100
0000
0010
0001
0000
0100
,  // measure 41
0010
0001
0100
0010
0001
1000
0001
0100
1000
0000
0010
0000
1001
0000
0000
0001
,  // measure 42
0100
0001
0100
0010
0001
1000
0001
0100
1000
0000
0001
0000
0010
0100
0000
0100
,  // measure 43
0010
0001
0100
0010
0001
1000
0001
0100
1000
0000
0001
0000
0010
0000
0000
0000
,  // measure 44
0011
0000
0000
0011
0000
0000
0011
0000
0001
0000
0100
0000
1000
0000
0000
0000
,  // measure 45
0110
0001
1000
0100
0001
0100
1001
0000
,  // measure 46
1001
0000
0010
0001
1010
0001
0100
0010
,  // measure 47
1000
0001
0010
0100
0001
1000
0001
0010
0100
0000
0001
0000
0010
0100
0001
1000
,  // measure 48
0010
0000
0001
0000
0010
0000
0100
0001
0000
1000
0000
0000
0100
0001
0000
0010
,  // measure 49
0010
0001
0100
0010
0001
1000
0001
0100
1000
0000
0001
0000
1001
0000
0000
0000
,  // measure 50
0010
0001
0100
0010
0001
1000
0001
0100
1000
0000
0001
0000
0010
0000
0000
0001
,  // measure 51
1000
0100
0001
1000
0001
0010
0100
0001
1000
0000
0001
0000
0010
0000
0000
0000
,  // measure 52
0001
0000
0010
0000
1000
0000
0001
0000
0100
0000
0010
0000
0100
0001
0000
0000
,  // measure 53
0010
0000
0001
0000
1000
0000
0001
0000
0100
0000
0010
0000
1001
0000
0000
0010
,  // measure 54
0000
0100
0001
1000
0001
0010
0100
0010
0001
0000
0100
0000
1000
0000
0000
0000
,  // measure 55
0100
0010
0001
1000
0001
0100
1000
0000
,  // measure 56
0100
0000
0001
0000
1000
0000
0100
0001
0000
0010
0000
0000
0001
0000
0000
0000
,  // measure 57
0010
0001
0100
0010
0001
0100
1001
0000
,  // measure 58
0100
0010
0001
1000
0001
0100
0010
0000
,  // measure 59
0001
0100
0010
1000
0001
0100
1000
0000
,  // measure 60
0001
0100
0010
0001
1000
0001
0100
0000
,  // measure 61
0010
0001
1000
0001
0100
0010
0101
0000
,  // measure 62
0100
0010
0001
1000
0001
0100
1000
0000
,  // measure 63
1000
0000
0001
0000
0100
0000
0010
0000
0100
0001
0000
0000
1000
0010
0001
0100
,  // measure 64
0001
0000
0001
0000
0100
0000
0010
0001
0000
1000
0000
0000
0100
0000
0001
0010
,  // measure 65
0010
0001
0100
0010
0001
1000
0001
0100
1000
0000
0010
0000
0101
0000
0000
0100
,  // measure 66
0010
0001
0100
0010
0001
1000
0001
0100
1000
0000
0001
0000
0010
0100
0000
0000
,  // measure 67
1000
0000
0001
0000
0100
0000
0010
0000
0001
0000
0100
0000
1000
0001
0000
0000
,  // measure 68
1000
0001
0100
0010
0100
0001
1000
0000
,  // measure 69
0001
0100
0001
0100
0010
0001
1000
0001
0100
0000
0010
0000
1001
0000
0000
0000
,  // measure 70
0100
0010
0001
1000
0001
0100
1000
0000
,  // measure 71
0100
0010
0001
1000
0001
0100
1000
0000
,  // measure 72
0100
0000
0001
0000
1000
0000
0100
0001
0000
0010
0000
0000
0010
0000
0000
0000
,  // measure 73
0001
0100
0010
0001
1000
0001
1100
0000
,  // measure 74
0010
0001
1000
0001
0100
0010
0001
0000
,  // measure 75
0100
0010
0001
1000
0001
0100
1000
0000
,  // measure 76
1001
0001
0010
0100
0001
1000
0001
0000
,  // measure 77
0110
0001
1000
0001
0100
0010
1001
0000
,  // measure 78
0110
0001
0100
0010
0101
0100
1000
0001
,  // measure 79
0110
0000
0010
0000
1001
0000
0001
0000
0110
0000
0010
0000
1001
0000
0010
0100
,  // measure 80
0001
0000
0010
0000
0100
0000
0001
1000
0000
0100
0000
0000
0000
0000
0000
0000
,  // measure 81
0100
0010
0001
1000
0001
0010
0100
0001
0010
0000
0100
0000
1001
0000
0100
0001
,  // measure 82
0010
0100
0001
1000
0001
0010
0100
0001
1000
0000
0010
0000
0000
0100
0001
0000
,  // measure 83
0100
0010
0001
0010
0001
1000
0001
0100
1000
0000
0001
0000
0010
0000
0100
0001
,  // measure 84
1000
0000
0001
0000
0010
0000
0100
0001
0000
1000
0000
0000
0000
0000
0000
0000
,  // measure 85
0010
0001
0100
0010
0001
1000
0001
0100
1000
0000
0001
0000
1001
0000
0000
0000
,  // measure 86
0100
0100
0001
0100
,  // measure 87
0020
0000
0000
0000
0030
0000
0000
0000
0001
0000
0000
0000
0100
0000
0001
1000
,  // measure 88
0100
0000
0001
0000
0010
0000
0100
0001
0000
1000
0000
0000
0000
0000
0000
0000
,  // measure 89
0200
0000
0300
0101
,  // measure 90
1000
0100
0001
1000
0001
0010
0100
0001
1000
0001
0010
0100
0001
1000
0001
0010
,  // measure 91
0100
0001
1000
0001
0010
0100
0010
0001
1000
0001
0100
0010
0001
1000
0001
0100
,  // measure 92
1000
0000
0010
0000
0100
0000
0001
1000
0000
0100
0000
0000
0000
0000
0000
0000
,  // measure 93
1000
0001
0010
0100
0001
1000
0001
0010
0100
0000
1000
0000
0110
0000
0000
0000
,  // measure 94
0001
0100
0010
0001
1000
0001
0100
0010
0001
1000
0001
0100
0010
0001
1000
0001
,  // measure 95
0100
0000
0010
0000
0001
0000
1000
0000
0001
0000
0100
0000
0010
0000
0001
0000
1000
0000
0001
0000
0100
0000
0010
0000
0001
0000
1000
0000
0001
0100
1000
0010
,  // measure 96
0100
0000
0001
0000
1000
0000
0100
0001
0000
0010
0000
0000
0100
0000
0001
0010
,  // measure 97
0000
0100
0000
0000
0010
0000
0100
0001
0000
0010
0000
0000
0000
0000
0000
0000
,  // measure 98
0001
0100
0010
0001
1000
0001
0100
0000
1000
0000
0010
0100
0000
0000
0001
0000
,  // measure 99
0000
0010
0000
0000
0001
0000
0100
0000
0000
0010
0000
0000
0001
0000
0100
0000
,  // measure 100
1000
0000
0100
0000
0001
0000
0010
0100
0000
0001
0000
0000
1000
0000
0100
0001
,  // measure 101
0000
0010
0000
0000
0100
0000
0001
1000
0000
0100
0000
0000
0001
0000
0000
0000
,  // measure 102
0000
0000
0000
0000
0000
0000
1000
0000
0100
0000
0000
0001
0000
0000
0010
0000
,  // measure 103
0000
1000
0000
0000
0100
0000
0000
0001
0000
0000
0010
0000
0001
0000
1000
0000
,  // measure 104
1001
0000
0100
0000
0010
0000
0100
0001
0000
0010
0000
0000
0001
0000
1000
0100
,  // measure 105
0000
0001
0000
0000
1000
0000
0100
0001
0000
0010
0000
0000
0010
0000
0100
0001
,  // measure 106
0000
0000
0000
0000
0000
0000
1000
0000
0100
0000
0000
0001
0000
0000
0010
0000
,  // measure 107
0000
0100
0000
0000
0001
0000
0000
1000
0000
0000
0100
0000
0001
0000
0010
0000
,  // measure 108
1001
0000
0010
0000
0100
0000
0001
1000
0000
0010
0000
0000
0100
0000
0001
1000
,  // measure 109
0000
0100
0000
0000
0001
0000
0100
1000
0000
0001
0000
0000
1000
0000
0100
0001
,  // measure 110
0010
0000
0000
0000
0000
0000
0100
0000
0001
0000
0000
1000
0000
0000
0100
0000
,  // measure 111
0000
0001
0000
0000
0010
0000
0000
0100
0000
0000
0001
0000
0000
1000
0000
0000
,  // measure 112
1001
0000
0000
0010
0000
0000
0100
0000
0000
0001
0000
0000
0010
0000
0000
0100
,  // measure 113
0000
0000
0001
0000
0000
1000
0000
0000
0100
0000
0000
0001
0000
0000
0010
0000
,  // measure 114
1000
0001
0000
0000
1000
0000
0000
0100
0000
0000
0001
0000
0000
0010
0000
0000
,  // measure 115
0100
0000
0000
0001
0000
0000
0100
0000
0010
0000
0000
0001
0000
0000
1000
0000
,  // measure 116
0100
0100
0001
1000
0001
0100
0010
0001
,  // measure 117
1000
0000
0001
0000
0100
0000
0010
0000
0100
0010
0001
1000
0001
0100
1000
0000
,  // measure 118
2002
0000
0000
3003
,  // measure 119
0100
0001
0000
0000
0000
0000
0000
0000
0001
0000
0100
0000
1000
0000
0000
0000
,  // measure 120
0100
0000
0001
0000
0010
0000
0100
0001
0100
1000
0010
0000
0100
0000
0001
1000
,  // measure 121
0100
0001
0010
0000
0100
0000
0001
1000
0100
0001
0010
0000
0100
0000
0001
0000
,  // measure 122
1000
0000
0001
0000
0010
0000
0100
0000
0010
0000
0100
0001
1000
0000
0100
0000
,  // measure 123
0001
0010
0100
0000
0001
0000
1000
0100
0001
0000
0010
0000
0100
0000
0010
0000
,  // measure 124
0010
0000
0100
0000
0001
0000
0010
0100
0001
0010
0100
0000
1000
0000
0100
0001
,  // measure 125
0100
0001
0010
0000
1000
0000
0100
0001
0100
0001
0010
0000
1001
0000
0000
0000
,  // measure 126
0001
0000
1000
0000
0001
0000
0100
0000
1000
0000
0010
0100
0001
0000
1000
0000
,  // measure 127
0100
0001
0010
0000
0100
0000
0001
1000
0100
0000
0001
0000
0010
0000
0100
0000
,  // measure 128
0001
0000
1000
0000
0100
0000
0001
0010
0001
0100
0001
0000
1000
0000
0100
0001
,  // measure 129
0100
0001
0010
0000
1000
0000
0100
0001
0100
0010
1000
0000
1001
0000
0001
0000
,  // measure 130
0100
0000
1000
0000
0001
0000
0100
0000
1000
0000
0001
0010
0100
0000
0001
0000
,  // measure 131
1000
0100
0001
0000
0010
0000
0100
0001
1000
0000
0100
0000
0001
0000
0010
0000
,  // measure 132
0100
0000
0001
0000
0010
0000
0100
0001
1000
0100
0010
0000
0001
0000
0010
0100
,  // measure 133
0001
1000
0010
0000
0100
0000
0001
1000
0100
0001
0010
0000
0101
0000
0010
0000
,  // measure 134
0001
0000
1000
0000
0001
0000
0100
0000
1000
0000
0010
0100
0001
0000
1000
0000
,  // measure 135
0100
0001
0010
0000
0100
0000
0001
1000
0100
0000
0001
0000
0010
0000
0100
0000
,  // measure 136
0001
0000
1000
0000
0100
0000
0001
0010
0100
0001
1000
0000
0001
0000
0010
0100
,  // measure 137
0001
1000
0001
0000
0010
0000
0100
0001
1000
0001
0010
0000
1001
0000
0000
0000
,  // measure 138
0001
0000
1000
0000
0001
0000
0100
0000
1000
0000
0010
0100
0001
0000
1000
0000
,  // measure 139
0100
0001
0010
0000
0100
0000
0001
1000
0100
0000
0001
0000
0010
0000
0100
0000
,  // measure 140
0001
0000
1000
0000
0100
0000
0001
0010
0100
0001
1000
0000
0100
0000
0001
0010
,  // measure 141
0100
0001
1000
0000
0010
0000
0001
0010
0100
0001
1000
0000
1001
0000
0001
0000
,  // measure 142
1000
0000
0001
0000
0100
0000
1000
0000
0010
0000
0100
0001
1000
0000
0100
0000
,  // measure 143
0001
0010
0100
0000
0001
0000
1000
0001
0100
0000
0010
0000
0100
0000
0001
0000
,  // measure 144
1000
0000
0100
0000
0001
0000
0010
0100
0001
0010
0100
0000
0001
0000
1000
0100
,  // measure 145
0001
0010
0100
0000
0001
0000
1000
0100
0001
0100
0001
0000
1001
0000
0000
0000
,  // measure 146
0001
0000
1000
0000
0100
0000
0001
0000
0010
0000
0001
0100
1000
0000
0100
0000
,  // measure 147
0001
0100
0010
0000
0001
0000
0100
0001
0100
0000
0010
0000
0100
0000
0001
0000
,  // measure 148
1001
0000
0010
0000
0100
0000
0001
0010
0100
0001
1000
0000
0100
0000
0001
0010
,  // measure 149
0100
0001
1000
0000
0010
0000
0100
0001
1000
0001
0010
0000
1001
0000
0000
0000
,  // measure 150
0101
0000
0010
0000
0100
0000
0001
0000
1001
0000
0010
0100
0001
0000
1000
0000
,  // measure 151
0100
0001
0010
0000
0100
0000
0001
0100
0010
0000
0001
0000
1000
0000
0100
0000
,  // measure 152
1001
0000
1000
0000
0100
0000
0010
0100
0001
0010
0100
0000
0001
0000
1000
0100
,  // measure 153
0001
0100
0001
0000
0010
0000
0100
0001
1000
0001
0010
0000
0101
0000
0000
0000
,  // measure 154
1000
0100
0001
1000
0001
0010
0100
0000
,  // measure 155
0100
0001
0010
0100
0001
0100
1000
0010
0001
0000
0100
0000
1000
0000
0001
1000
,  // measure 156
0001
0000
0010
0000
0100
0000
0001
0100
1000
0001
0010
0000
0100
0000
0001
1000
,  // measure 157
0001
0010
0100
0000
0001
0000
1000
0100
0001
1000
0001
0000
0110
0000
0000
0000
,  // measure 158
0001
1000
0001
0100
1000
0100
0001
0000
,  // measure 159
0100
0000
0010
0000
0001
0000
1000
0000
0001
0000
0100
0000
1000
0000
0001
1000
,  // measure 160
0010
0000
0100
0000
0001
0000
0010
0100
0010
0001
0100
0000
0001
0000
1000
0100
,  // measure 161
0001
0100
0001
0000
0010
0000
0100
0001
1000
0001
0010
0000
1001
0000
0000
0000
,  // measure 162
1001
1000
0001
1000
0001
0100
1000
0000
,  // measure 163
0100
0000
0010
0000
0001
0000
1000
0000
0001
0000
0100
0000
1000
0000
0010
0100
,  // measure 164
0001
0100
1000
0000
1000
0000
0100
0001
1000
0001
0010
0000
0100
0000
0000
0000
,  // measure 165
0010
0001
1000
0001
0100
0010
1001
0000
,  // measure 166
1001
0001
1000
0001
0110
0010
1000
0000
,  // measure 167
0110
0000
0001
0000
1001
0000
0001
0000
1000
0001
0100
0001
1000
0001
0010
0100
,  // measure 168
0001
0010
1000
0001
0100
0010
0001
1000
,  // measure 169
0001
0100
0010
0001
0100
0010
1001
0000
,  // measure 170
1000
0100
0001
1000
0001
0010
0100
0001
1000
0000
0100
0000
0001
0010
0000
0100
,  // measure 171
0001
0010
0100
0010
0001
1000
0001
0100
1000
0000
0001
0000
1000
0100
0000
0001
,  // measure 172
0010
0000
0001
0000
1000
0000
0001
0000
0100
0000
0010
0000
1000
0100
0000
0001
,  // measure 173
0010
0001
0100
0010
0001
0100
1000
0010
0001
0000
1000
0000
1001
0000
0000
0000
,  // measure 174
0010
0000
0001
0000
1000
0000
0001
0000
0100
0000
0100
0000
0001
0010
0000
0100
,  // measure 175
0001
0010
0001
1000
0001
0100
0001
1000
0100
0000
0001
0000
1000
0100
0000
0001
,  // measure 176
0010
0000
0100
0000
0010
0000
0001
0000
1000
0000
0010
0000
0100
0001
0000
1000
,  // measure 177
0010
0001
1000
0001
0100
0010
1000
0001
1000
0000
0100
0000
1001
0000
0000
0000
,  // measure 178
0100
0010
0001
1000
0001
0100
0001
0000
,  // measure 179
0100
0010
0001
1000
0001
0100
1000
0000
,  // measure 180
0100
0010
0001
1000
0001
0100
1000
0000
,  // measure 181
0001
1000
0001
0100
0010
0100
1001
0000
,  // measure 182
0100
0010
0001
1000
0001
0100
1000
0000
,  // measure 183
0100
0010
0001
1000
0001
0100
1000
0000
,  // measure 184
0010
0100
0001
1000
0001
0010
0100
0000
,  // measure 185
0100
0010
0001
1000
0001
0100
1001
0000
,  // measure 186
0100
0000
0010
0000
0001
0000
1000
0000
0001
0000
0100
0000
1000
0001
0000
0010
,  // measure 187
0100
0010
0001
1000
0001
0100
1000
0000
,  // measure 188
0100
0010
0001
1000
0001
0100
1000
0000
,  // measure 189
0010
0001
1000
0001
0100
0010
1001
0000
,  // measure 190
0100
0010
0001
1000
0001
0100
1000
0000
,  // measure 191
0100
0010
0001
1000
0001
0100
1000
0000
,  // measure 192
0001
0100
0010
0001
1000
0001
0100
0000
,  // measure 193
0010
0001
1000
0001
0100
0010
1001
0000
,  // measure 194
0001
0100
0010
0001
1000
0010
0100
0000
,  // measure 195
0001
0100
0001
0010
0001
1000
0100
0000
,  // measure 196
0100
0010
0001
1000
0001
0100
1000
0000
,  // measure 197
0010
0100
0001
1000
0001
0010
0101
0000
,  // measure 198
1000
0100
0001
1000
0001
0010
0100
0000
,  // measure 199
0010
0001
0100
0010
0001
0100
0100
0000
,  // measure 200
0110
0001
1000
0100
,  // measure 201
0010
0100
0001
1001
,  // measure 202
0001
0001
0100
0010
,  // measure 203
0001
1000
0001
0100
,  // measure 204
0010
0001
1000
0001
,  // measure 205
0100
0010
1001
0011
,  // measure 206
0010
0100
0001
0100
,  // measure 207
0010
0001
1000
0001
,  // measure 208
0100
0010
0001
1000
,  // measure 209
0001
0100
0010
1001
,  // measure 210
0100
0010
0001
1000
,  // measure 211
0001
0001
1000
0001
,  // measure 212
0100
0010
0001
1000
,  // measure 213
0001
0100
0010
1001
,  // measure 214
0010
0100
0001
1000
,  // measure 215
0001
0100
0010
1001
;
