#VERSION:0.83;
#TITLE:top of cars;
#SUBTITLE:;
#ARTIST:Lil MU;
#TITLETRANSLIT:;
#SUBTITLETRANSLIT:;
#ARTISTTRANSLIT:;
#GENRE:;
#ORIGIN:;
#CREDIT:;
#BANNER:;
#BACKGROUND:;
#PREVIEWVID:;
#JACKET:;
#CDIMAGE:;
#DISCIMAGE:;
#LYRICSPATH:;
#CDTITLE:;
#MUSIC:top of cars.ogg;
#OFFSET:0.000000;
#SAMPLESTART:100.059883;
#SAMPLELENGTH:12.000000;
#SELECTABLE:YES;
#BPMS:0.000=157.000,
336.000=147.000,
340.000=137.000,
342.000=127.000,
343.000=117.000,
344.000=107.000,
345.000=97.000,
348.000=157.000;
#STOPS:0.000=0.100;
#DELAYS:;
#WARPS:;
#TIMESIGNATURES:0.000=4=4;
#TICKCOUNTS:0.000=4;
#COMBOS:0.000=1;
#SPEEDS:0.000=1.000=0.000=0;
#SCROLLS:0.000=1.000;
#FAKES:;
#LABELS:0.000=Song Start;
#BGCHANGES:;
#KEYSOUNDS:;
#ATTACKS:
;

//---------------dance-single - ----------------
#NOTEDATA:;
#CHARTNAME:;
#STEPSTYPE:dance-single;
#DESCRIPTION:;
#CHARTSTYLE:;
#DIFFICULTY:Hard;
#METER:15;
#RADARVALUES:0.848277,0.863475,0.197931,0.058646,0.788060,810.000000,783.000000,27.000000,8.000000,0.000000,0.000000,0.000000,0.000000,0.000000,0.848277,0.863475,0.197931,0.058646,0.788060,810.000000,783.000000,27.000000,8.000000,0.000000,0.000000,0.000000,0.000000,0.000000;
#CREDIT:;
#NOTES:
// measure 0
0000
0000
0000
0000
,  // measure 1
0000
0000
0000
0000
,  // measure 2
0000
0000
0000
0000
,  // measure 3
0000
0000
0000
0000
,  // measure 4
0100
0000
0200
0000
0300
0001
0010
0000
,  // measure 5
0100
0200
0000
0301
,  // measure 6
0100
0000
0100
0000
0000
0001
0010
0100
,  // measure 7
0001
1000
0000
0000
0100
0001
0010
0000
0100
0001
0000
0000
1000
0100
0000
0000
,  // measure 8
0001
0000
1000
0000
0100
0000
0010
0000
0100
0010
0000
1000
0100
0000
0010
0000
,  // measure 9
0100
0000
0001
0000
0010
0000
0100
0001
0000
0000
0000
0000
0010
0000
0001
0000
,  // measure 10
1001
0001
0100
0010
0001
0100
1000
0100
,  // measure 11
1000
0001
0010
0000
0100
0001
1000
0100
0001
0010
0000
0000
0100
0001
0010
0000
,  // measure 12
0100
0000
0001
0000
0100
0010
0000
0001
0000
0000
1000
0000
0001
0000
0010
0000
,  // measure 13
1000
0000
0100
0001
0000
0100
0010
0000
0000
0000
0000
0000
0010
0000
0001
0000
,  // measure 14
0100
0010
0001
1000
0100
0001
0100
0010
,  // measure 15
0100
0001
0100
0010
0001
1000
0100
0000
0010
0001
0000
0000
0010
0100
0000
0000
,  // measure 16
0010
0001
0100
0010
0001
0100
1000
0100
,  // measure 17
0010
0001
1000
0001
0100
0010
0001
1000
,  // measure 18
0100
0100
0010
0001
1000
0001
0100
0010
,  // measure 19
0001
0100
1000
0000
0001
0100
0010
0000
0001
0100
0010
0000
0001
1000
0100
0000
,  // measure 20
0100
0000
0010
0000
1000
0100
0000
0001
0010
0000
0001
0000
1000
0000
0001
0000
,  // measure 21
0100
0000
0010
0000
1000
0100
0000
0001
0010
0000
0000
0000
0001
0000
0010
0000
,  // measure 22
0100
0001
0000
0010
0000
0000
1000
0001
,  // measure 23
0100
0000
0010
0000
1000
0100
0000
0001
0010
0000
0000
0000
0100
0000
1000
0000
,  // measure 24
0010
0100
0000
0001
0001
0010
0100
0000
0100
0010
0001
0000
1000
0100
0000
0000
,  // measure 25
0010
0001
0100
0001
0010
1000
0100
0000
0001
0010
0010
0000
0100
0010
1000
0000
,  // measure 26
0100
0010
0001
0000
0010
0001
0100
0001
0000
0000
1000
0100
0001
0010
0100
0001
,  // measure 27
1000
0000
0100
0001
0010
0000
0100
0001
0010
0100
0001
0000
0010
0100
0001
0000
,  // measure 28
1000
0001
0000
0100
0010
0100
0001
0000
0010
0100
0000
0000
0001
0010
0100
0000
,  // measure 29
1000
0100
0000
0001
0010
0100
0000
0000
1000
0100
0000
0000
0001
0010
0000
0000
,  // measure 30
0100
0001
0010
0000
0001
0100
1000
0000
0100
0001
0010
0100
0001
1000
0100
0000
,  // measure 31
0001
0010
0100
0000
0001
1000
0100
0000
0010
0001
0000
0000
0100
0010
0000
0000
,  // measure 32
1000
0000
0100
0000
0001
0000
0010
0000
0100
0001
0000
0010
0000
0100
0000
0000
,  // measure 33
1000
0000
0100
0000
0001
0010
0000
0100
0000
0000
0000
0000
0010
0000
0001
0000
,  // measure 34
1000
0001
0100
0010
0001
0100
1000
0001
,  // measure 35
0010
0100
0010
0000
0001
1000
0010
0001
0100
0001
0010
0000
0100
0001
0010
0000
,  // measure 36
1000
0000
0100
0000
0001
0010
0000
0100
0001
0000
0001
0000
0100
0000
0010
0000
,  // measure 37
1000
0000
0100
0001
0000
0010
0100
0000
0000
0000
0000
0000
0010
0000
0100
0000
,  // measure 38
0001
1000
0010
0001
0100
0010
0001
0100
,  // measure 39
1000
0001
0010
0001
0100
0001
1000
0010
0010
0100
0001
0000
0100
0000
0001
0000
,  // measure 40
1000
0000
0001
0000
0110
0000
0010
0000
0001
0100
0000
0010
1000
0000
0100
0000
,  // measure 41
0010
0100
0000
0001
0020
0030
0100
1000
0000
0000
0000
0000
0010
0000
0001
0000
,  // measure 42
0100
0000
0010
0000
2000
3000
0010
0000
0001
0000
0100
0000
0010
0000
0100
0000
,  // measure 43
0001
0010
0100
0001
1000
0100
0001
0000
0010
0001
0000
0000
0100
0001
0010
0100
,  // measure 44
0001
0000
0001
0010
0000
0100
0000
0001
0000
0000
0100
0000
0001
0000
1000
0000
,  // measure 45
0100
0000
0000
0000
0001
0000
0010
0000
2000
3000
0100
0000
0001
0000
0000
0000
0000
0000
0000
0000
0000
0000
0000
0000
0001
0000
0000
0000
1000
0000
0000
0000
,  // measure 46
0001
0100
0011
0100
1000
0001
0010
0100
,  // measure 47
0010
0000
0001
0010
2000
3001
0100
0000
0000
0000
0000
0000
0000
0000
0000
0000
,  // measure 48
1000
0010
0100
0000
0001
0010
0100
0000
0001
1000
0100
0000
0001
0010
0100
0000
,  // measure 49
0001
1000
0100
0000
0001
0010
0100
0000
0001
1000
0100
0000
0010
0001
0100
0000
,  // measure 50
0001
0100
0010
0000
0001
0010
0100
0000
0001
0100
1000
0000
0001
0100
0010
0000
,  // measure 51
0001
0010
0100
0000
0001
0100
1000
0000
0001
0100
0010
0000
0001
0010
0100
0000
,  // measure 52
0001
1000
0100
0000
0010
0100
0001
0000
1000
0100
0001
0000
0010
0100
0001
0000
,  // measure 53
0001
0100
0010
0000
0001
0100
1000
0000
0001
0100
0010
0000
0001
0100
1000
0000
,  // measure 54
0010
0001
0100
0000
0010
0001
0100
0000
0001
0100
0010
0000
0001
1000
0100
0000
,  // measure 55
0010
0001
0100
0000
0010
0001
0100
0000
1000
0001
0100
0000
0010
0001
0100
0000
,  // measure 56
0010
0000
0001
0000
1000
0000
0100
0000
0100
0010
0001
0100
1000
0000
0001
0000
,  // measure 57
0100
0000
0010
0000
1000
0100
0001
0010
0100
0000
0010
0000
0001
0000
0100
0000
,  // measure 58
0010
0001
1000
0001
0100
0010
0001
0100
,  // measure 59
1000
0010
0100
0001
1000
0100
0001
0010
0100
0001
1000
0001
0010
0100
0001
1000
,  // measure 60
0001
0010
0001
1000
0001
0100
0010
0001
,  // measure 61
0100
0010
0001
1000
0100
0000
0001
0000
0100
0000
0010
0000
0001
0000
0100
0000
,  // measure 62
0001
0100
0010
0001
1000
0001
0100
0010
,  // measure 63
1000
0100
0001
0010
0100
0001
1000
0001
0010
0100
0001
1000
0001
0010
0100
0001
,  // measure 64
0100
0000
0010
0000
0100
0000
0001
0000
0010
0100
0001
1000
0001
0000
0010
0000
,  // measure 65
0100
0000
0001
0000
0010
0100
0001
1000
0001
0000
0100
0000
0010
0000
0001
0000
,  // measure 66
0100
1000
0001
0100
0010
0001
0100
1000
,  // measure 67
0010
0001
0100
0010
0001
1000
0001
0100
0010
0001
1000
0001
0100
0010
0001
0100
,  // measure 68
1000
0000
0010
0000
0001
0100
0010
0001
0100
0000
0010
0000
0001
0000
0100
0000
,  // measure 69
1000
0010
0100
0001
0010
0000
0100
0000
0001
0000
1000
0000
0001
0000
0010
0000
,  // measure 70
0100
0001
0100
0010
0001
1000
0001
0100
,  // measure 71
0010
0100
0001
0010
0100
0000
0001
0000
0100
0000
0010
0000
0100
0000
0001
0000
,  // measure 72
1000
0100
0001
0000
0010
0100
0001
0000
1000
0100
0001
0000
0010
0100
0001
0000
,  // measure 73
1000
0100
0001
0000
0010
0100
0001
0000
1000
0100
0001
0000
0010
0100
0001
0000
,  // measure 74
1000
0100
0001
0000
0010
0100
0001
0000
1000
0100
0001
0000
0010
0100
0001
0000
,  // measure 75
1000
0100
0001
0000
0010
0100
0001
0000
0100
0001
0010
0000
0001
0100
0010
0000
,  // measure 76
0001
0100
0010
0000
1000
0001
0100
0000
0010
0001
0100
0000
1000
0001
0100
0000
,  // measure 77
0010
0001
0100
0000
1000
0001
0100
0000
0010
0001
0100
0000
1000
0001
0100
0000
,  // measure 78
0010
0001
0100
0000
0001
0100
0010
0000
0001
0100
1000
0000
0001
0100
0010
0000
,  // measure 79
0001
0100
0010
0000
0001
0100
1000
0000
0001
0010
0100
0000
0100
0010
0001
0000
,  // measure 80
1001
0101
0110
0110
,  // measure 81
0101
0110
1100
0110
,  // measure 82
0110
0101
0110
1001
,  // measure 83
0010
0001
0000
0000
0010
0100
0000
0000
0001
0100
0010
0000
1000
0001
0000
0000
,  // measure 84
1100
0101
0101
0110
,  // measure 85
1001
1001
1001
0110
,  // measure 86
1001
2002
0000
3003
,  // measure 87
0101
0101
0000
0000
;
