#VERSION:0.83;
#TITLE:the von ducth remix with addison rae and ag cook;
#SUBTITLE:;
#ARTIST:Charli XCX, ft A.G. Cook & Addison Rae;
#TITLETRANSLIT:;
#SUBTITLETRANSLIT:;
#ARTISTTRANSLIT:;
#GENRE:;
#ORIGIN:;
#CREDIT:;
#BANNER:;
#BACKGROUND:;
#PREVIEWVID:;
#JACKET:;
#CDIMAGE:;
#DISCIMAGE:;
#LYRICSPATH:;
#CDTITLE:;
#MUSIC:Charli xcx - The von dutch remix with addison rae and a. g. cook (official audio).mp3;
#OFFSET:0.000000;
#SAMPLESTART:100.059883;
#SAMPLELENGTH:12.000000;
#SELECTABLE:YES;
#BPMS:0.000=138.000,
128.000=135.000,
144.000=138.000;
#STOPS:0.000=0.400;
#DELAYS:;
#WARPS:;
#TIMESIGNATURES:0.000=4=4;
#TICKCOUNTS:0.000=4;
#COMBOS:0.000=1;
#SPEEDS:0.000=1.000=0.000=0;
#SCROLLS:0.000=1.000;
#FAKES:;
#LABELS:0.000=Song Start;
#BGCHANGES:;
#KEYSOUNDS:;
#ATTACKS:
;

//---------------dance-single - ----------------
#NOTEDATA:;
#CHARTNAME:;
#STEPSTYPE:dance-single;
#DESCRIPTION:;
#CHARTSTYLE:;
#DIFFICULTY:Hard;
#METER:11;
#RADARVALUES:0.463592,0.505823,0.273075,0.120661,0.003175,511.000000,468.000000,43.000000,19.000000,0.000000,0.000000,0.000000,0.000000,0.000000,0.463592,0.505823,0.273075,0.120661,0.003175,511.000000,468.000000,43.000000,19.000000,0.000000,0.000000,0.000000,0.000000,0.000000;
#CREDIT:;
#NOTES:
0000
0000
0000
0000
,
0000
0000
0000
0000
,
0000
0000
0000
0000
,
0000
0000
0000
0000
,
1000
0110
0001
0110
,
0100
1100
0010
0110
,
0010
0101
1000
0110
,
0101
0000
0100
0010
0100
0001
1000
0000
,
0101
0110
1001
0110
,
0001
1000
0100
0010
0100
0000
0110
0000
,
0100
0010
0001
0100
1000
0000
0001
0100
,
0010
0001
1000
0001
0100
0010
0001
0000
,
1000
0000
0001
1000
0001
0100
0010
1000
,
0100
0000
0110
0000
0101
0000
0001
1000
,
0001
0100
0010
0000
1001
0000
0001
0100
,
0010
0001
1000
0001
0100
0010
0001
0000
,
0110
0101
1100
0110
,
0100
0010
1000
0001
0100
0000
0110
0000
,
0100
0001
0100
0010
0001
1000
0100
0001
,
0100
0010
0001
0010
0100
0000
1001
0000
,
0100
0001
0100
0010
0001
0100
1000
0100
,
0010
0000
0100
0100
0010
0001
0100
1000
,
0001
1000
0100
0100
0010
0001
0100
0000
,
0100
0001
0100
0010
0001
0100
1000
0000
,
0210
1300
0210
0301
,
1000
0000
0010
0100
0000
0001
0000
1000
,
0000
0000
0100
0001
1000
0000
0100
0001
,
0100
0010
0001
0100
0001
0100
1000
0000
,
2010
3001
0201
1300
,
1000
0000
0100
0001
0000
0010
0000
0100
,
0000
0000
0001
0100
0010
0000
0001
0100
,
1000
0100
0001
1000
0001
0100
0010
0000
,
0110
0000
0001
0100
0001
0100
0010
0001
,
1000
0001
0100
0010
0001
0100
1000
0000
,
0001
1000
0100
0000
1000
0001
0100
0010
,
1000
0001
0100
0010
0001
1000
0010
0000
,
0110
0000
1000
0001
0100
0010
0001
0100
,
1000
0000
0110
0000
0010
0100
0001
0000
,
0100
1000
0001
0100
0010
0001
1000
0100
,
0001
0100
0010
0001
1000
0001
0100
0000
,
0110
1100
0101
0110
,
0001
1000
0001
0100
0010
0000
1001
0000
,
0100
0010
0001
0100
1000
0000
0100
0001
,
0100
0010
0001
0100
1000
0000
1001
0000
,
0100
0010
0100
0100
0001
1000
0001
0100
,
0010
0000
0101
0000
1000
0001
0100
0010
,
0001
0100
1000
0100
0010
0001
1000
0000
,
0100
0010
0001
1000
0001
0100
0010
0000
,
1001
1000
0001
0100
,
0010
0001
1000
0100
,
0100
0001
0100
0010
,
0001
1000
0001
0100
,
0010
0001
0010
0001
,
1000
0001
0100
0010
,
0001
1000
0001
0100
,
0001
0100
1000
0101
,
0100
0010
2000
0001
,
0100
0001
0010
0100
,
0001
0000
0000
0000
0100
0000
0000
0000
0001
0000
0000
0000
3010
0000
0100
0001
,
0010
0000
1000
0001
0100
0001
0100
0000
,
2000
0100
0001
0100
,
0001
0100
0001
0100
,
0001
0010
0100
3001
,
2002
0000
0000
3003
,
0020
0000
0100
0130
,
0010
0000
0001
0100
1000
0000
0001
0100
,
0001
0000
0010
0100
0001
0000
0010
0001
,
0100
0010
0001
1000
0001
0100
0010
0000
,
0100
0100
0100
0100
,
1000
0001
0100
0010
0001
1000
0001
0100
,
0010
0001
1000
0001
0100
0010
0001
1000
,
0001
0100
0010
0001
1000
0001
0100
0010
,
2002
3003
0010
0100
0202
0303
1000
0100
,
0001
0000
1000
0100
0000
0100
0000
1000
,
0000
0000
1000
0100
0001
0000
0010
0100
,
0001
1000
0100
0001
0010
0100
0001
0000
,
0202
0303
0220
0330
,
0010
0000
0100
1000
0000
0010
0000
0001
,
0000
0000
0001
0100
1000
0000
0001
0100
,
1000
0001
0100
0010
0001
0100
1000
0000
,
0010
0001
1000
0001
,
0100
0010
0001
0100
,
0100
0100
0010
0001
,
1000
0001
0100
0010
,
0001
0100
1000
0000
0001
0100
0010
0000
,
0001
0100
1000
0000
0001
0100
0010
0000
,
0001
0100
0010
0001
1000
0001
0100
0000
,
0010
0001
1000
0001
0100
0001
1000
0000
,
0220
0000
0330
0000
;

//---------------dance-single - ----------------
#NOTEDATA:;
#CHARTNAME:;
#STEPSTYPE:dance-single;
#DESCRIPTION:;
#CHARTSTYLE:;
#DIFFICULTY:Medium;
#METER:8;
#RADARVALUES:0.319343,0.393418,0.127012,0.114310,0.000000,352.000000,332.000000,20.000000,18.000000,0.000000,0.000000,0.000000,0.000000,0.000000,0.319343,0.393418,0.127012,0.114310,0.000000,352.000000,332.000000,20.000000,18.000000,0.000000,0.000000,0.000000,0.000000,0.000000;
#CREDIT:;
#NOTES:
0000
0000
0000
0000
,
0000
0000
0000
0000
,
0000
0000
0000
0000
,
0000
0000
0000
0000
,
0100
0100
0010
0001
,
0100
0001
0100
0010
,
0001
1000
0001
0100
,
0010
0001
0100
1000
,
0001
0100
0010
0001
,
0100
0001
0100
0010
,
0001
1000
0001
0100
,
0010
0001
0100
1000
,
0010
0001
0100
1000
,
0100
0010
0001
0100
,
0001
0100
0010
0001
,
1000
0001
0100
0010
,
0001
1000
0001
0100
,
0001
0010
0100
0010
,
0001
1000
0001
0100
,
0010
0001
0100
0001
,
0100
0010
0001
1000
,
0001
0100
0001
0100
,
0001
0100
0010
0001
,
1000
0001
0100
0010
,
0202
0303
2200
3300
,
0001
0100
0010
0001
,
1000
0001
0100
0010
,
0001
0100
1000
0100
,
0202
0303
0220
0330
,
0001
0100
0001
0100
,
0010
0001
1000
0001
,
0100
0010
0001
0100
,
1000
0001
0100
0001
,
0100
0000
0010
0000
1000
0010
0001
0000
,
0100
0001
0100
1000
,
0010
0000
0100
0000
0001
1000
0100
0000
,
0001
0001
1000
0001
,
0100
0000
0010
0000
0001
0100
1000
0000
,
0010
0001
1000
0001
,
0100
0000
0010
0000
0001
0100
0010
0000
,
0001
0100
1000
0100
,
0001
0100
0001
0100
,
0010
0001
1000
0001
,
0100
0000
0010
0000
0001
0100
1000
0000
,
0010
0001
1000
0001
,
0100
0000
0010
0000
0001
0100
1000
0000
,
0001
0100
0010
0001
,
0100
0000
0010
0000
0001
0100
1000
0000
,
0001
0100
0001
0100
,
0010
0001
1000
0100
,
0001
0100
0010
0001
,
0100
1000
0001
0100
,
0001
0100
0001
0100
,
0001
0100
0010
0001
,
1000
0001
0100
0010
,
0001
0100
0010
0101
,
0010
0100
0001
0100
,
0010
0010
0100
0001
,
1000
0001
0010
0100
,
0001
1000
0001
0010
,
0100
0001
0100
0001
,
0100
0001
0010
0001
,
0100
0001
0100
0010
,
2002
0000
0000
3003
,
0220
0000
0000
0330
,
1000
1001
0010
0110
,
0001
0101
1000
0110
,
0001
0110
0010
0110
,
1000
1000
1000
1000
,
0100
0001
0010
0100
,
0001
1000
0001
0010
,
0100
0001
1000
0001
,
0110
1001
0101
0110
,
0100
0010
0100
0001
,
0010
0001
0100
1000
,
0100
0001
0100
0001
,
0220
0330
2002
3003
,
0010
0001
1000
0100
,
0010
0100
0001
1000
,
0001
0010
0100
0001
,
0100
0001
1000
0100
,
0010
0100
0001
1000
,
0001
0010
0100
0001
,
1000
0001
0100
0001
,
0010
0001
1000
0001
,
0100
0010
0001
1000
,
0001
0100
0010
0001
,
1000
0001
0100
0010
,
2002
0000
3003
0000
;

//---------------dance-single - ----------------
#NOTEDATA:;
#CHARTNAME:;
#STEPSTYPE:dance-single;
#DESCRIPTION:;
#CHARTSTYLE:;
#DIFFICULTY:Easy;
#METER:5;
#RADARVALUES:0.247673,0.421520,0.317529,0.234971,0.000000,273.000000,223.000000,50.000000,37.000000,0.000000,0.000000,0.000000,0.000000,0.000000,0.247673,0.421520,0.317529,0.234971,0.000000,273.000000,223.000000,50.000000,37.000000,0.000000,0.000000,0.000000,0.000000,0.000000;
#CREDIT:;
#NOTES:
0000
0000
0000
0000
,
0000
0000
0000
0000
,
0000
0000
0000
0000
,
0000
0000
0000
0000
,
0100
0001
0010
0100
,
0001
1000
0001
0010
,
0100
0001
1000
0001
,
0000
0000
0000
0000
,
0011
0101
0011
0101
,
0100
0010
1001
0110
,
0100
0010
1100
0101
,
0010
0000
0000
0000
,
0011
1000
0001
0100
,
0011
0101
0011
0100
,
0001
0100
1000
0100
,
0010
0000
0000
0000
,
1001
0101
1100
0110
,
0010
0100
0101
1100
,
0010
0001
1000
0001
,
0100
0010
0101
0110
,
0100
0001
0100
0010
,
1100
0110
0001
0100
,
0010
0001
1000
0001
,
0100
0000
0000
0000
,
2002
3003
0220
0330
,
0001
0010
0100
0001
,
0000
1000
0000
0100
,
0000
0000
0000
0000
,
0220
0330
2002
3003
,
0010
0100
0001
1000
,
0000
0100
0000
0001
,
0000
0000
0000
0000
,
0010
1000
0001
0100
,
0010
0001
0100
1000
,
0100
0010
0001
0100
,
1000
0000
0000
0000
,
0001
0100
0001
1000
,
0001
0010
0100
0001
,
1000
0001
0010
0100
,
0001
0000
0000
0000
,
0101
0110
0110
1100
,
1000
0001
0101
0011
,
0010
0100
0101
1100
,
0010
0100
0101
1100
,
0001
0100
0001
0100
,
0110
0101
1000
0001
,
0100
0010
0001
0100
,
1000
1000
1000
1000
,
0020
0000
0000
0030
,
0002
0000
0000
0003
,
0200
0000
0000
0300
,
0020
0000
0000
0030
,
0200
0000
0000
0300
,
0002
0000
0000
0003
,
2000
0000
0000
0000
,
0000
0000
3000
1001
,
0010
0010
2002
0000
,
0000
0000
0000
0000
,
0000
0000
0000
0000
,
0000
0000
0000
3003
,
0220
0000
0000
0000
,
0000
0000
0000
0000
,
0000
0000
0000
0330
,
2002
0000
0000
3003
,
0220
0000
0000
0330
,
0010
0100
0001
1000
,
0001
0010
0100
0001
,
1000
0010
0001
0100
,
1000
1000
1000
1000
,
0010
0100
0001
1000
,
0001
0010
0100
0001
,
1000
0001
0010
0100
,
0202
0303
2200
3300
,
0010
0100
0001
1000
,
0000
0001
0000
0010
,
0000
0000
0000
0000
,
0220
0330
2002
3003
,
0100
0010
0001
1000
,
0000
1001
0000
0101
,
0000
0000
0000
0000
,
0200
0000
0000
0300
,
0002
0000
0000
0003
,
2000
0000
0000
3000
,
0200
0000
0000
0300
,
0001
0010
0100
0001
,
0100
1000
0001
0100
,
0001
0000
0010
0000
0100
0001
1000
0000
,
0100
0000
0001
0100
0001
1000
0001
0000
,
0220
0000
0330
0000
;

//---------------dance-single - ----------------
#NOTEDATA:;
#CHARTNAME:;
#STEPSTYPE:dance-single;
#DESCRIPTION:;
#CHARTSTYLE:;
#DIFFICULTY:Beginner;
#METER:2;
#RADARVALUES:0.081650,0.223540,0.057155,0.000000,0.000000,90.000000,81.000000,9.000000,0.000000,0.000000,0.000000,0.000000,0.000000,0.000000,0.081650,0.223540,0.057155,0.000000,0.000000,90.000000,81.000000,9.000000,0.000000,0.000000,0.000000,0.000000,0.000000,0.000000;
#CREDIT:;
#NOTES:
// measure 0
0000
0000
0000
0000
,  // measure 1
0000
0000
0000
0000
,  // measure 2
0000
0000
0000
0000
,  // measure 3
0000
0000
0000
0000
,  // measure 4
1000
0000
0000
0000
,  // measure 5
0010
0000
0000
0000
,  // measure 6
0100
0000
0000
0000
,  // measure 7
0000
0000
0000
0000
,  // measure 8
0010
0000
0000
0000
,  // measure 9
0000
0000
0000
0000
,  // measure 10
0100
0000
0000
0000
,  // measure 11
0000
0000
0000
0000
,  // measure 12
0100
0000
0000
0000
,  // measure 13
0001
0000
0000
0000
,  // measure 14
0010
0000
0000
0000
,  // measure 15
0000
0000
0000
0000
,  // measure 16
1000
0000
0000
0000
,  // measure 17
0000
0000
0000
0000
,  // measure 18
0001
0000
0000
0000
,  // measure 19
0010
0000
0000
0000
,  // measure 20
0100
0000
0000
0000
,  // measure 21
0001
0000
0000
0000
,  // measure 22
1000
0000
0000
0000
,  // measure 23
0000
0000
0000
0000
,  // measure 24
1001
0000
0101
0000
,  // measure 25
1000
0000
0001
0001
,  // measure 26
0000
0001
0000
0010
,  // measure 27
0000
0000
0000
0000
,  // measure 28
0101
0000
1100
0000
,  // measure 29
0010
0000
0100
0100
,  // measure 30
0000
0001
0000
1000
,  // measure 31
0000
0000
0000
0000
,  // measure 32
0010
0000
0000
0000
,  // measure 33
0100
0000
0000
0000
,  // measure 34
0001
0000
0000
0000
,  // measure 35
0000
0000
0000
0000
,  // measure 36
1000
0000
0000
0000
,  // measure 37
0001
0000
0000
0000
,  // measure 38
0010
0000
0000
0000
,  // measure 39
0000
0000
0000
0000
,  // measure 40
0100
0000
0000
0000
,  // measure 41
0000
0000
0000
0000
,  // measure 42
1000
0000
0000
0000
,  // measure 43
0010
0000
0000
0000
,  // measure 44
0001
0000
0000
0000
,  // measure 45
0100
0000
0000
0000
,  // measure 46
1000
0000
0000
0000
,  // measure 47
0000
0000
0000
0000
,  // measure 48
0000
0000
0000
0000
,  // measure 49
0000
0000
0000
0000
,  // measure 50
0000
0000
0000
0000
,  // measure 51
0100
0000
0000
0000
,  // measure 52
0000
0000
0000
0000
,  // measure 53
0000
0000
0000
0000
,  // measure 54
1000
0000
0000
0000
,  // measure 55
0000
0000
0000
0000
,  // measure 56
0000
0000
0010
0000
,  // measure 57
0000
0000
0000
0000
,  // measure 58
0000
0000
0000
0000
,  // measure 59
0000
0000
0000
0000
,  // measure 60
0010
0000
0000
0000
,  // measure 61
0000
0000
0000
0000
,  // measure 62
0000
0000
0000
0000
,  // measure 63
0000
0000
0000
0000
,  // measure 64
0000
0000
0000
0000
,  // measure 65
0001
0000
0100
0000
,  // measure 66
0010
0000
0100
0000
,  // measure 67
0001
0000
1000
1000
,  // measure 68
1000
1000
1000
1000
,  // measure 69
1000
0000
0000
0000
,  // measure 70
0000
0000
0000
0000
,  // measure 71
0001
0000
0000
0000
,  // measure 72
1001
0000
0110
0000
,  // measure 73
0010
0000
0100
0100
,  // measure 74
0000
0100
0000
0001
,  // measure 75
0000
0000
0000
0000
,  // measure 76
0110
0000
1001
0000
,  // measure 77
0010
0000
0100
0100
,  // measure 78
0000
0001
0000
1000
,  // measure 79
0000
0000
0000
0000
,  // measure 80
0010
0000
0000
0000
,  // measure 81
0000
0000
0000
0000
,  // measure 82
0000
0000
0000
0000
,  // measure 83
0000
0000
0000
0000
,  // measure 84
1000
0000
0001
0000
,  // measure 85
0010
0000
0100
0000
,  // measure 86
0001
0000
1000
0000
,  // measure 87
0100
0000
0001
0000
,  // measure 88
1001
0000
0000
0000
;
