#VERSION:0.83;
#TITLE:the subway;
#SUBTITLE:;
#ARTIST:Chappell Roan;
#TITLETRANSLIT:;
#SUBTITLETRANSLIT:;
#ARTISTTRANSLIT:;
#GENRE:;
#ORIGIN:;
#CREDIT:;
#BANNER:;
#BACKGROUND:;
#PREVIEWVID:;
#JACKET:;
#CDIMAGE:;
#DISCIMAGE:;
#LYRICSPATH:;
#CDTITLE:;
#MUSIC:the subway.ogg;
#OFFSET:0.000000;
#SAMPLESTART:100.059883;
#SAMPLELENGTH:12.000000;
#SELECTABLE:YES;
#BPMS:0.000=83.500,
60.000=82.000,
96.000=84.000,
128.000=83.000,
164.000=81.000,
180.000=83.000,
204.000=84.000,
268.000=83.000;
#STOPS:0.000=0.950;
#DELAYS:;
#WARPS:;
#TIMESIGNATURES:0.000=4=4;
#TICKCOUNTS:0.000=4;
#COMBOS:0.000=1;
#SPEEDS:0.000=1.000=0.000=0;
#SCROLLS:0.000=1.000;
#FAKES:;
#LABELS:0.000=Song Start;
#BGCHANGES:;
#KEYSOUNDS:;
#ATTACKS:
;

//---------------dance-single - ----------------
#NOTEDATA:;
#CHARTNAME:;
#STEPSTYPE:dance-single;
#DESCRIPTION:;
#CHARTSTYLE:;
#DIFFICULTY:Hard;
#METER:8;
#RADARVALUES:0.226499,0.292275,0.055492,0.138730,0.053510,400.000000,386.000000,14.000000,35.000000,0.000000,0.000000,0.000000,0.000000,0.000000,0.226499,0.292275,0.055492,0.138730,0.053510,400.000000,386.000000,14.000000,35.000000,0.000000,0.000000,0.000000,0.000000,0.000000;
#CREDIT:;
#NOTES:
// measure 0
0000
0000
0000
0000
,  // measure 1
0000
0000
0000
0000
,  // measure 2
0000
0000
0000
0000
,  // measure 3
0000
0000
0000
0000
,  // measure 4
0000
0000
0000
0000
,  // measure 5
0001
0100
0010
0001
1000
0100
0000
0000
,  // measure 6
0010
0000
0001
0000
0100
0000
0010
0000
0001
0000
0100
1000
0000
0000
0010
0000
,  // measure 7
0000
0100
0010
0001
0100
1000
0000
0000
,  // measure 8
0001
0000
1000
0000
0001
0000
0100
0000
0001
0000
0100
0001
0000
0000
0010
0000
,  // measure 9
0001
0100
0010
0001
0100
1000
0000
0000
,  // measure 10
0000
0000
0001
0000
0100
0000
0010
0000
0100
0000
0010
0100
0000
0000
0001
0000
,  // measure 11
0000
0100
0010
0001
0100
1000
0000
0000
,  // measure 12
0000
0000
0100
0000
0100
0000
1000
0100
0001
0000
0100
0001
0000
0000
1000
0000
,  // measure 13
0001
0100
0000
0100
0000
0001
0000
2000
,  // measure 14
0000
0000
0000
0000
3000
0000
0000
0010
0001
1000
0000
0000
0100
0000
0001
0000
,  // measure 15
0000
0000
0010
0001
0000
0000
0010
0000
0000
0000
0001
0000
0000
0000
0100
0000
,  // measure 16
0000
0100
0001
0010
0000
0100
0000
0001
,  // measure 17
1000
0100
0000
0010
0000
0001
0000
0100
,  // measure 18
0000
0000
0000
0000
0000
0000
0000
0100
0001
1000
0000
0000
0100
0000
0001
0000
,  // measure 19
0100
0000
0010
0100
0000
0000
0010
0000
0000
0000
0001
0000
0000
0000
1000
0000
,  // measure 20
0000
0010
0001
0100
0000
0100
0000
0010
,  // measure 21
0001
0100
0001
0100
0010
0001
0100
1000
,  // measure 22
0000
0100
0000
0000
0001
1000
0100
0001
,  // measure 23
0100
0010
0001
1000
0001
0100
0010
0001
,  // measure 24
0000
0100
0000
0000
0010
0001
1000
0100
,  // measure 25
0010
0001
0001
0100
0010
0001
0100
1000
,  // measure 26
0000
0100
0000
0000
0100
0010
0001
1000
,  // measure 27
0100
0010
0001
0100
0010
0001
0100
1000
,  // measure 28
0000
0000
0100
0000
0000
0000
0000
0000
0000
0001
1000
0001
1000
0001
1000
0001
,  // measure 29
1000
0100
0010
0001
0100
1000
0000
0000
,  // measure 30
0000
0000
0001
0000
0100
0000
0010
0000
0010
0000
0100
0001
0000
0000
1000
0000
,  // measure 31
0000
0000
0100
0000
0010
0000
0001
0000
0100
0000
1000
0000
0000
0000
0000
0010
,  // measure 32
0100
0000
0010
0000
0001
0000
0100
0000
0010
0000
0100
1000
0000
0000
0100
0000
,  // measure 33
0001
0100
0010
0001
0100
1000
0100
0001
,  // measure 34
0000
0000
1000
0000
0001
0000
0010
0000
0100
0000
0100
0001
0000
0000
0010
0000
,  // measure 35
0001
0100
0010
0001
1000
0100
0000
0001
,  // measure 36
1000
0000
0001
0000
0100
0000
0010
0000
0010
0000
0100
0001
0000
0000
0001
0000
,  // measure 37
1000
0100
0000
0001
0000
0010
0000
0002
,  // measure 38
0000
0000
0000
0000
0003
0000
0010
0100
0000
0000
0001
0000
0010
0000
0100
0000
,  // measure 39
0000
0000
1000
0100
0000
0000
0010
0000
0000
0000
0001
0000
0000
0000
0100
0000
,  // measure 40
0000
0001
0000
0100
0000
1000
0000
0000
,  // measure 41
0001
0100
0000
0001
0000
0100
0000
1000
,  // measure 42
0000
0000
0000
0000
0000
0000
0100
0001
0000
0000
0010
0000
0100
0000
0001
0000
,  // measure 43
0100
0000
0001
0010
0000
0000
0001
0000
0000
0000
1000
0000
0000
0000
0100
0000
,  // measure 44
0000
0001
0100
1000
0000
0100
0000
0000
,  // measure 45
1000
0100
0010
0001
0100
0010
0001
1000
,  // measure 46
0000
0100
0000
0000
0001
0100
0001
0100
,  // measure 47
0010
0001
1000
0001
0100
0010
0001
1000
,  // measure 48
0000
0100
0000
0000
0100
0010
0001
0100
,  // measure 49
0010
0001
1000
0001
0100
0010
0001
1000
,  // measure 50
0000
0100
0000
0000
0010
0001
0100
0001
,  // measure 51
0100
0010
0001
1000
0001
0100
0010
0001
,  // measure 52
0000
0000
0100
0000
0000
0000
0000
0000
0000
1000
0100
0000
0001
0010
0001
0010
,  // measure 53
0001
0000
0100
0000
0001
0010
0100
0002
,  // measure 54
0000
0000
0000
0003
0100
0010
0100
0002
,  // measure 55
0000
0000
0003
0000
0010
0100
0010
0200
,  // measure 56
0000
0000
0000
0000
0000
0000
0000
0300
,  // measure 57
0001
0000
1000
0000
0010
0100
0001
0020
,  // measure 58
0000
0000
0000
0030
0100
0001
0010
0200
,  // measure 59
0000
0000
0000
0300
0001
1000
0001
2002
,  // measure 60
0000
0000
0000
0000
0000
0000
0000
3003
,  // measure 61
0100
0000
0010
0000
0100
0010
0100
0022
,  // measure 62
0000
0000
0000
0033
0100
0001
1000
2002
,  // measure 63
0000
0000
0000
3003
0001
0100
0010
0220
,  // measure 64
0000
0000
0000
0000
0000
0000
0000
0330
,  // measure 65
0100
0000
0010
0000
0001
0100
0001
0220
,  // measure 66
0000
0000
0000
0330
0010
0001
0100
0022
,  // measure 67
0000
0000
0000
0033
0100
0001
1000
2002
,  // measure 68
0000
0000
0000
0000
,  // measure 69
0000
0000
0000
0000
,  // measure 70
0000
0000
0000
0000
,  // measure 71
0000
0000
0000
3003
0100
0001
0100
0220
,  // measure 72
0000
0000
0000
0000
,  // measure 73
0000
0000
0000
0000
,  // measure 74
0000
0000
0000
0000
,  // measure 75
0000
0000
0000
0000
,  // measure 76
0000
0000
0000
0330
,  // measure 77
0001
0000
0100
0000
0100
0001
0010
0220
,  // measure 78
0000
0000
0330
0000
0010
0001
0100
2020
,  // measure 79
0000
0000
0000
3030
0100
0001
0100
0202
,  // measure 80
0000
0000
0000
0303
,  // measure 81
0001
0000
0010
0000
0100
0001
0100
0220
,  // measure 82
0000
0000
0000
0330
0001
0100
0010
0202
,  // measure 83
0000
0000
0303
0000
0001
0100
0010
2002
,  // measure 84
0000
0000
0000
0000
,  // measure 85
0000
0000
0000
0000
,  // measure 86
0000
0000
0000
3003
;
