#VERSION:0.83;
#TITLE:the hills;
#SUBTITLE:;
#ARTIST:Courting;
#TITLETRANSLIT:;
#SUBTITLETRANSLIT:;
#ARTISTTRANSLIT:;
#GENRE:;
#ORIGIN:;
#CREDIT:;
#BANNER:;
#BACKGROUND:;
#PREVIEWVID:;
#JACKET:;
#CDIMAGE:;
#DISCIMAGE:;
#LYRICSPATH:;
#CDTITLE:;
#MUSIC:Courting - The Hills [Official Audio].ogg;
#OFFSET:0.000000;
#SAMPLESTART:100.059883;
#SAMPLELENGTH:12.000000;
#SELECTABLE:YES;
#BPMS:0.000=155.000;
#STOPS:0.000=0.150,
504.000=5.800;
#DELAYS:;
#WARPS:;
#TIMESIGNATURES:0.000=4=4;
#TICKCOUNTS:0.000=4;
#COMBOS:0.000=1;
#SPEEDS:0.000=1.000=0.000=0;
#SCROLLS:0.000=1.000;
#FAKES:;
#LABELS:0.000=Song Start;
#BGCHANGES:;
#KEYSOUNDS:;
#ATTACKS:
;

//---------------dance-single - ----------------
#NOTEDATA:;
#CHARTNAME:;
#STEPSTYPE:dance-single;
#DESCRIPTION:;
#CHARTSTYLE:;
#DIFFICULTY:Hard;
#METER:11;
#RADARVALUES:0.369321,0.669068,0.047374,0.060909,0.179343,764.000000,750.000000,14.000000,18.000000,0.000000,0.000000,0.000000,0.000000,0.000000,0.369321,0.669068,0.047374,0.060909,0.179343,764.000000,750.000000,14.000000,18.000000,0.000000,0.000000,0.000000,0.000000,0.000000;
#CREDIT:;
#NOTES:
// measure 0
0000
0000
0000
0000
,  // measure 1
0000
0000
0000
0000
,  // measure 2
0100
0000
0010
0000
0100
0001
0000
1000
,  // measure 3
0100
0000
0100
0010
0000
0001
1000
0100
,  // measure 4
0010
0000
0100
0000
0001
0010
0000
0100
,  // measure 5
0001
0000
0010
0010
0000
0001
0100
1000
,  // measure 6
0001
0000
0010
0100
0000
0001
1000
0000
,  // measure 7
0100
0001
0000
0010
0100
0001
1000
0100
,  // measure 8
0001
0000
0100
0010
0000
0001
0100
0001
,  // measure 9
0100
1000
0000
0100
0000
0000
0001
0000
,  // measure 10
0100
0000
0010
0001
0000
0100
1000
0000
,  // measure 11
0100
0010
0001
0100
,  // measure 12
0001
0100
1000
0001
,  // measure 13
0020
0000
0200
0000
,  // measure 14
0000
0000
0000
0000
,  // measure 15
0000
0000
0000
0000
,  // measure 16
0000
0000
0000
0000
,  // measure 17
0000
0000
0330
0100
,  // measure 18
0001
0000
1000
0100
0000
0001
0010
0000
,  // measure 19
0001
1000
0001
0100
,  // measure 20
0010
0001
1000
0001
,  // measure 21
0200
0000
0020
0000
,  // measure 22
0000
0000
0000
0000
,  // measure 23
0000
0000
0000
0000
,  // measure 24
0000
0000
0000
0000
,  // measure 25
0000
0000
0000
0000
,  // measure 26
0330
1001
0010
0100
,  // measure 27
0001
1000
0001
0010
,  // measure 28
0100
0001
1000
0001
,  // measure 29
0010
0100
0001
1000
,  // measure 30
0001
1001
0100
0010
,  // measure 31
0001
1000
0001
0100
,  // measure 32
0010
0100
0010
0001
,  // measure 33
1000
0001
0100
1000
,  // measure 34
1000
0001
0100
0010
,  // measure 35
0001
1000
0001
0100
,  // measure 36
0010
0001
1000
0001
,  // measure 37
0100
0001
0100
0000
,  // measure 38
2002
0000
0000
0000
,  // measure 39
0000
0000
0000
0000
,  // measure 40
0000
0000
0000
0000
,  // measure 41
0000
0000
0000
0000
,  // measure 42
0000
0000
0000
0000
,  // measure 43
0000
0000
0000
0000
,  // measure 44
0000
0000
0000
0000
,  // measure 45
0000
0000
0000
0000
,  // measure 46
0000
0000
0000
0000
,  // measure 47
0000
0000
0000
0000
,  // measure 48
0000
0000
0000
0000
,  // measure 49
0000
0000
0000
0000
,  // measure 50
0000
0000
0000
0000
,  // measure 51
0000
0000
0000
0000
,  // measure 52
0000
0000
0000
0000
,  // measure 53
0000
0000
0000
0000
,  // measure 54
0000
0000
0000
0000
,  // measure 55
0000
0000
0000
0000
3003
0100
1000
0000
,  // measure 56
0100
0010
0001
0100
,  // measure 57
0001
0100
1000
0000
,  // measure 58
0000
0000
0000
0000
,  // measure 59
0000
0000
0000
0000
,  // measure 60
0010
0100
0001
1000
,  // measure 61
0200
0000
0020
0330
,  // measure 62
0002
0000
0000
0000
,  // measure 63
0000
0000
0003
0010
,  // measure 64
0001
0010
0100
0001
,  // measure 65
1000
0000
0000
0001
0000
0000
1000
0000
,  // measure 66
0020
0000
0000
0000
,  // measure 67
0000
0000
0030
0100
,  // measure 68
0001
0100
1000
0001
,  // measure 69
0100
0000
0000
0010
0000
0000
0001
0000
,  // measure 70
0020
0000
0000
0000
,  // measure 71
0000
0000
0030
0100
,  // measure 72
0001
1000
0001
0100
,  // measure 73
0010
0000
0000
0001
0000
0000
1000
0000
,  // measure 74
0002
0000
0000
0000
,  // measure 75
0000
0000
0000
0003
,  // measure 76
1001
0001
0110
0001
,  // measure 77
1001
0000
0000
0001
1001
0000
0010
0000
,  // measure 78
1000
0000
0000
0100
0001
0000
0010
0000
0100
0000
0000
0001
1000
0000
0100
0000
,  // measure 79
0001
0000
0000
0010
0100
0000
0001
0000
1000
0000
0000
0100
0001
0000
0010
0000
,  // measure 80
0100
0000
0000
0001
0010
0000
0100
0000
0001
0000
0000
1000
0100
0000
0001
0000
,  // measure 81
0010
0000
0000
0100
0001
0000
0010
0000
0100
0000
0000
0001
1000
0000
0100
0000
,  // measure 82
0001
0000
0000
0010
0100
0000
0001
0000
1000
0000
0000
0100
0001
0000
0010
0000
,  // measure 83
0100
0000
0000
0001
1000
0000
0100
0000
0001
0000
0000
0010
0100
0000
0001
0000
,  // measure 84
0001
0000
0000
0100
0010
0000
0001
0000
0100
0000
0000
1000
0001
0000
0100
0000
,  // measure 85
0010
0000
0000
0001
0100
0000
0010
0000
0001
0000
0000
0100
1000
0000
0001
0000
,  // measure 86
0100
0000
0000
0010
0001
0000
0100
0000
1000
0000
0000
0010
0100
0000
0010
0000
,  // measure 87
0001
0000
0000
0100
1000
0000
0100
0000
0010
0000
0000
0001
0100
0000
1000
0000
,  // measure 88
0100
0000
0000
0010
0001
0000
0100
0000
1000
0000
0000
0010
0001
0000
0100
0000
,  // measure 89
1000
0000
0000
0010
0001
0000
0100
0000
0010
0000
0000
0001
0100
0000
1000
0000
,  // measure 90
0100
0000
0000
0010
0001
0000
0100
0000
1000
0000
0000
0010
0001
0000
0100
0000
,  // measure 91
1000
0000
0000
0010
0001
0000
0100
0000
0010
0000
0000
0001
0100
0000
1000
0000
,  // measure 92
0100
0000
0000
0010
0001
0000
0100
0000
0010
0000
0000
0001
0100
0000
1000
0000
,  // measure 93
0100
0000
0000
0010
0001
0000
0100
0000
0010
0000
0000
0001
0100
0000
1000
0000
,  // measure 94
0001
0000
0000
0100
0010
0000
0001
0000
0100
0000
0000
1000
0001
0000
0100
0000
,  // measure 95
0010
0000
0000
0001
0100
0000
0010
0000
0001
0000
0000
0100
0010
0000
0001
0000
,  // measure 96
0100
0000
0000
1000
0001
0000
0100
0000
0010
0000
0000
0001
0100
0000
1000
0000
,  // measure 97
0001
0000
0000
0100
0010
0000
0001
0000
0100
0000
0000
1000
0001
0000
0100
0000
,  // measure 98
0010
0000
0000
0100
0010
0000
0001
0000
0100
0000
0000
1000
0001
0000
0100
0000
,  // measure 99
0010
0000
0000
0001
0100
0000
1000
0000
0001
0000
0000
0100
0010
0000
0001
0000
,  // measure 100
0100
0000
0000
1000
0001
0000
0100
0000
0010
0000
0000
0001
0100
0000
0010
0000
,  // measure 101
0001
0000
0000
0100
1000
0000
0001
0000
0100
0000
0000
0010
0001
0000
0100
0000
,  // measure 102
1000
0000
0000
0010
0001
0000
0100
0000
0010
0000
0000
0001
0100
0000
1000
0000
,  // measure 103
0001
0000
0000
0100
0010
0000
0001
0000
0100
0000
0000
1000
0001
0000
0100
0000
,  // measure 104
0010
0000
0000
0001
0100
0000
1000
0000
0001
0000
0000
0100
0010
0000
0001
0000
,  // measure 105
0100
0000
0000
1000
0001
0000
0100
0000
0010
0000
0000
0001
0100
0000
1000
0000
,  // measure 106
0001
0000
0000
0100
0010
0000
0001
0000
0100
0000
0000
1000
0001
0000
0100
0000
,  // measure 107
0010
0000
0000
0001
0100
0000
1000
0000
0100
0000
0000
0010
0001
0000
0100
0000
,  // measure 108
1000
0000
0000
0001
0100
0000
0010
0000
0001
0000
0000
0100
1000
0000
0001
0000
,  // measure 109
0100
0000
0000
0010
0001
0000
0100
0000
1000
0000
0000
0001
0100
0000
0010
0000
,  // measure 110
0001
0000
0000
0100
1000
0000
0001
0000
0100
0000
0000
0010
0001
0000
0100
0000
,  // measure 111
1000
0000
0000
0010
0001
0000
0100
0000
0010
0000
0000
0001
0100
0000
1000
0000
,  // measure 112
0100
0000
0000
0010
0001
0000
0100
0000
1000
0000
0000
0010
0001
0000
0001
0000
,  // measure 113
0001
0000
0000
0100
0010
0000
0010
0000
0010
0000
0000
0001
0100
0000
1000
0000
,  // measure 114
0001
0000
0000
0100
0010
0000
0001
0000
0100
0000
0000
1000
0001
0000
0100
0000
,  // measure 115
0010
0000
0000
0001
0100
0000
1000
0000
0100
0000
0000
0010
0001
0000
0100
0000
,  // measure 116
1000
0000
0000
0001
0100
0000
0010
0000
0001
0000
0000
0100
1000
0000
0001
0000
,  // measure 117
0100
0000
0000
0010
0001
0000
0100
0000
1000
0000
0000
0001
0100
0000
0010
0000
,  // measure 118
0100
0000
0000
1000
0001
0000
0100
0000
0010
0000
0000
0001
0100
0000
1000
0000
,  // measure 119
0100
0000
0000
0010
0001
0000
0100
0000
1000
0000
0000
0001
0100
0000
0010
0000
,  // measure 120
0001
0000
0000
0100
1000
0000
0001
0000
0100
0000
0000
0010
0001
0000
0100
0000
,  // measure 121
1000
0000
0000
0010
0001
0000
0100
0000
0010
0000
0000
0001
0100
0000
1000
0000
,  // measure 122
0100
0000
0000
0010
0001
0000
0100
0000
1000
0000
0000
0100
0010
0000
0001
0000
,  // measure 123
0100
0000
0000
1000
0001
0000
0100
0000
0010
0000
0000
0001
0100
0000
1000
0000
,  // measure 124
0100
0000
0000
0010
0001
0000
0100
0000
1000
0000
0000
0001
0100
0000
0010
0000
,  // measure 125
0001
0000
0000
0100
1000
0000
0001
0000
0100
0000
0000
0010
0001
0000
1000
0000
,  // measure 126
0100
1001
0000
0010
,  // measure 127
0000
0000
0000
0000
0001
0000
0000
0000
0000
0000
0000
0000
1000
0000
0000
0001
,  // measure 128
0000
0000
0010
0000
0100
0000
0000
0000
0000
0000
0000
0000
0010
0000
0000
0001
,  // measure 129
0000
1000
0001
0000
0000
0000
0000
0000
,  // measure 130
0001
0000
0100
0000
1000
0000
0000
0000
0000
0000
0000
0000
0000
0000
0000
0001
,  // measure 131
0010
0001
0100
0000
0001
0000
0010
0000
0001
0000
1000
0000
0001
0000
0100
0000
,  // measure 132
0010
0001
1000
0001
0100
0010
0001
1000
,  // measure 133
0001
0000
0100
0000
1000
0000
0000
0000
0010
0000
0001
0000
0100
0000
0000
0010
,  // measure 134
0000
0001
1000
0000
0000
0000
0010
0000
,  // measure 135
0000
0001
0000
0100
,  // measure 136
0000
0100
0000
0001
,  // measure 137
0000
0100
0000
0010
,  // measure 138
0100
0001
1000
0000
0001
0100
0001
0010
,  // measure 139
0100
1000
0001
0100
0010
0001
1000
0001
,  // measure 140
0100
0010
0001
1000
0001
0100
0010
0001
,  // measure 141
1000
0001
0100
0010
0001
1000
0001
0100
,  // measure 142
0010
0001
1000
0001
0100
0010
0001
1000
,  // measure 143
0001
0100
0010
0001
1000
0001
0100
0010
,  // measure 144
0001
0100
0001
0000
0100
0000
0010
0000
1000
0001
1000
0000
0100
0000
0001
0000
,  // measure 145
0100
0000
0010
0000
1000
0001
1000
0000
0001
0000
1000
0000
0001
0000
0100
0000
,  // measure 146
1000
0010
0001
0100
0010
0001
1000
0001
,  // measure 147
0100
0000
0010
0000
0001
0100
0010
0000
1000
0000
0100
0000
0001
0000
0010
0001
,  // measure 148
1000
0010
0100
0010
0001
1000
0001
0100
,  // measure 149
0010
0001
1000
0001
0100
0010
1001
1001
,  // measure 150
1001
1001
1001
0000
0000
0000
0001
0000
,  // measure 151
0000
0001
0000
1000
,  // measure 152
0001
0200
0000
0300
,  // measure 153
0010
0000
0001
0000
1000
0100
0000
0001
,  // measure 154
0010
0000
0001
0000
0000
0000
0000
1000
,  // measure 155
0200
0000
0000
0000
,  // measure 156
0000
0000
0000
0000
,  // measure 157
0000
0000
0000
0000
,  // measure 158
0000
0000
0300
0000
0100
0001
1000
0001
,  // measure 159
0010
0100
0001
0010
0001
0010
0000
0000
,  // measure 160
1000
0000
0001
0000
,  // measure 161
0100
0000
0010
0000
0001
0000
0000
1000
,  // measure 162
0000
0000
0001
0000
0000
0000
0000
0100
,  // measure 163
0000
0010
0100
0000
0000
0000
0010
0000
,  // measure 164
0000
0001
0000
0001
,  // measure 165
0000
1000
0000
0200
,  // measure 166
0000
0000
0000
0000
,  // measure 167
0000
0000
0000
0020
,  // measure 168
0000
0000
0000
0000
,  // measure 169
0000
0000
0000
0000
,  // measure 170
0000
0000
0000
0000
,  // measure 171
0330
2002
0000
0000
,  // measure 172
0000
0000
0000
0000
,  // measure 173
0000
0000
0000
0000
,  // measure 174
0000
0000
0000
0000
,  // measure 175
0000
0000
0000
0000
,  // measure 176
0000
0000
0000
0000
,  // measure 177
0000
0000
0000
0000
,  // measure 178
0000
0000
0000
0000
,  // measure 179
0000
0000
0000
3003
;
