#VERSION:0.83;
#TITLE:technova;
#SUBTITLE:;
#ARTIST:Towa Tei;
#TITLETRANSLIT:;
#SUBTITLETRANSLIT:;
#ARTISTTRANSLIT:;
#GENRE:;
#ORIGIN:;
#CREDIT:;
#BANNER:;
#BACKGROUND:;
#PREVIEWVID:;
#JACKET:;
#CDIMAGE:;
#DISCIMAGE:;
#LYRICSPATH:;
#CDTITLE:;
#MUSIC:TECHNOVA TOWA TEI WITH BEBEL GILBERTO.mp3;
#OFFSET:0.000000;
#SAMPLESTART:100.059883;
#SAMPLELENGTH:12.000000;
#SELECTABLE:YES;
#BPMS:0.000=90.000;
#STOPS:0.000=0.300,
252.000=0.100;
#DELAYS:;
#WARPS:;
#TIMESIGNATURES:0.000=4=4;
#TICKCOUNTS:0.000=4;
#COMBOS:0.000=1;
#SPEEDS:0.000=1.000=0.000=0;
#SCROLLS:0.000=1.000;
#FAKES:;
#LABELS:0.000=Song Start;
#BGCHANGES:0.000=TECHNOVA TOWA TEI WITH BEBEL GILBERTO.mp4=1.000=0=0=0=StretchNoLoop====,
99999=-nosongbg-=1.000=0=0=0 // don't automatically add -songbackground-
;
#KEYSOUNDS:;
#ATTACKS:
;

//---------------dance-single - ----------------
#NOTEDATA:;
#CHARTNAME:;
#STEPSTYPE:dance-single;
#DESCRIPTION:;
#CHARTSTYLE:;
#DIFFICULTY:Hard;
#METER:12;
#RADARVALUES:0.472765,0.567759,0.011571,0.000000,0.798411,858.000000,855.000000,3.000000,0.000000,0.000000,0.000000,0.000000,0.000000,0.000000,0.472765,0.567759,0.011571,0.000000,0.798411,858.000000,855.000000,3.000000,0.000000,0.000000,0.000000,0.000000,0.000000,0.000000;
#CREDIT:;
#NOTES:
0000
0000
0000
0000
,
0000
0000
0000
0000
,
0000
0000
0000
0000
,
0000
0000
0000
0000
,
0000
0000
0000
0000
,
0000
0000
0000
0000
,
0000
0000
0000
0000
,
0000
0000
0000
0000
,
1000
0000
0000
0000
0100
0000
0010
0000
0001
0100
0000
0000
0010
0000
0000
0001
0000
0000
1000
0000
0000
0000
0000
0000
0010
0000
0000
0000
0100
0000
0000
0000
0001
0000
0000
0000
1000
0000
0000
0000
0000
0000
0000
0000
0000
0000
0000
0000
,
0010
0001
0100
1000
0000
0000
0010
0001
1000
0100
0000
0000
,
0010
0000
0000
0000
0001
0000
0100
0000
1000
0010
0000
0000
0100
0000
0000
0010
0000
0000
0100
0000
0000
0000
0000
0000
1000
0000
0000
0000
0100
0000
0000
0000
0001
0000
0000
0000
0010
0000
0000
0000
0000
0000
0000
0000
0000
0000
0000
0000
,
0000
0010
0000
0000
0000
0001
0010
0000
0000
0000
0000
0000
0000
0000
0000
0000
,
0010
0000
0000
0000
0001
0000
0010
0000
0100
0001
0000
0000
1000
0000
0000
0100
0000
0000
0001
0000
0000
0000
0000
0000
1000
0000
0000
0000
0100
0000
0000
0000
0001
0000
0000
0000
0010
0000
0000
0000
0000
0000
0000
0000
0000
0000
0000
0000
,
0100
0001
0010
0100
0000
0000
1000
0100
0001
0010
0000
0000
,
0001
0000
0000
0000
0001
0000
0100
0000
0001
0010
0000
0000
0100
0000
0000
1000
0000
0000
0100
0000
0000
0000
0000
0000
0010
0000
0000
0000
0001
0000
0000
0000
1000
0000
0000
0000
0100
0000
0000
0000
0000
0000
0000
0000
0000
0000
0000
0000
,
0000
0010
0000
0000
0000
0100
0001
0000
0000
0000
0000
0000
0000
0000
0000
0000
,
0001
0000
0000
0100
0000
0000
1000
0000
0100
0000
0000
0010
0001
0100
1000
0010
,
0100
0000
0000
0001
0000
0000
0100
0000
0010
0000
0000
0001
0100
0010
0001
0100
,
1000
0000
0000
0010
0000
0000
0001
0000
0100
0000
0000
0010
0001
0100
1000
0000
,
0100
0000
0000
0010
0000
0000
0001
0000
0100
0000
0000
0010
0000
0101
0000
0000
,
0011
0000
0000
1000
0000
0000
0100
0000
0001
0000
0000
0010
0100
0001
1000
0001
,
0010
0000
0000
0100
0000
0000
1000
0000
0100
0000
0000
1000
0010
0001
0100
1000
,
0001
0000
0000
1000
0000
0000
0001
0000
0100
0000
0000
0010
0001
0100
1000
0000
,
0010
0000
0000
0001
0000
0000
0100
0000
1000
0000
0000
0100
0000
0100
0000
0000
,
0001
0000
0100
0010
0001
1000
0001
0100
0010
0001
1000
0001
0100
0010
0001
0100
,
1000
0000
0010
0001
0100
0010
0001
0100
0010
0001
1000
0001
0100
0010
0001
1000
,
0100
0000
0001
0100
0001
0100
0010
0001
1000
0001
0100
0010
0001
0100
1000
0001
,
0010
0001
0100
0001
0100
0010
0001
1000
0100
0000
0000
0000
0000
0000
0000
0000
,
0001
0000
1000
0001
0100
0001
0010
0100
0001
1000
0001
0100
0010
0001
0100
0010
,
1000
0000
0100
0010
0001
0100
0001
0100
0010
0001
1000
0001
0100
0010
0001
0100
,
1000
0000
0100
0010
0001
0100
0001
0100
0010
0001
1000
0001
0100
0010
0001
0100
,
1000
0010
0001
0100
0001
0100
0001
0100
0010
0001
1000
0001
0100
0010
0001
0100
,
1000
0000
0000
0000
0000
0000
0000
0000
0000
0000
0000
0000
0000
0000
0100
0001
,
0010
0000
0000
0000
0000
0000
0000
0000
0000
0100
0010
0000
0000
0000
0000
0000
,
0000
0000
0000
0001
0010
0000
0000
0000
0000
0000
0000
0000
0000
0000
0000
0000
,
0000
0010
0100
0000
0000
0000
0000
0000
,
0000
0000
0000
0000
0000
0000
0100
0000
0000
0000
0000
0000
1000
0000
0000
0000
0001
0000
0000
0000
0000
0000
0000
0000
0000
0000
0000
0000
0000
0000
0000
0000
0000
0000
0000
0000
0000
0000
0000
0000
0000
0000
1000
0000
0000
0100
0000
0000
,
0001
0000
0000
0010
0100
0000
0000
0000
0000
0000
0000
0000
0000
0000
0000
0000
0000
0000
0000
0000
0000
0000
0000
0000
0000
0000
0100
0001
1000
0001
0010
0100
,
0001
0000
0000
0000
0000
0100
0000
0000
,
0000
0000
0000
0000
0000
0000
0000
0000
0100
0001
0000
0000
0000
0000
0000
0000
0000
0000
0000
0000
0000
0000
0000
0000
0000
0000
0000
0000
0000
0000
0000
0000
,
0100
0010
0001
0100
0001
0100
0010
0001
1000
0001
0100
0010
0001
0100
1000
0000
,
0100
0010
0001
0100
0001
0100
0010
0001
1000
0001
0100
0010
0001
0100
1000
0000
,
0100
0010
0001
0100
0001
0100
0010
0001
1000
0001
0100
0010
0001
0100
1000
0000
,
0001
0100
0001
0100
0001
0100
0010
0001
1000
0001
0100
0010
0001
0100
1000
0000
,
0100
0010
0001
0100
0001
0100
0010
0001
1000
0001
0100
0010
0001
0100
1000
0000
,
0100
0010
0001
0100
0001
0100
0010
0001
1000
0001
0100
0010
0001
1000
0100
0001
,
0100
0010
0001
0100
0001
0100
0010
0001
1000
0001
0100
0010
0001
0100
1000
0000
,
0010
0001
0100
1000
0000
0100
0000
0000
0000
0000
0001
0000
0100
0000
1000
0000
,
0100
0001
1000
0100
0010
0100
0001
0010
0100
0001
0100
0010
0001
0100
1000
0000
,
0100
0010
0001
0100
0001
0100
0010
0001
1000
0001
0100
0010
0001
0100
1000
0000
,
0100
0010
0001
0100
0001
0100
0010
0001
1000
0001
0100
0010
0001
1000
0100
0000
,
0001
0100
0001
0100
0010
0001
1000
0001
0100
0010
0001
0100
0001
1000
0100
0000
,
0100
0010
0001
1000
0001
0100
0010
0001
0100
0001
0100
0010
0001
1000
0100
0000
,
0100
0010
0001
0100
0001
0100
0010
0001
1000
0001
0100
0010
0001
1000
0100
0000
,
0100
0010
0001
0100
0001
0100
0010
0001
1000
0001
0100
0010
0001
0100
1000
0000
,
0100
0010
0001
1000
0001
0100
0010
0001
0100
0001
0100
0010
0001
1000
0100
0000
,
0100
0001
1000
0001
,
0010
0100
0001
0100
,
1000
0000
0000
0000
0001
0000
0000
0000
0100
0000
0000
0000
0010
0000
1000
0100
,
0001
0010
0000
0100
0000
0000
0000
0000
0000
0000
0000
0100
0001
1000
0100
0000
,
0000
0000
0000
0000
,
0010
0000
0000
0000
,
0000
0000
0000
0000
,
0000
0000
0000
0000
,
1000
0100
0001
0010
0000
0000
0010
0001
0100
1000
0000
0000
,
0010
0001
0100
1000
0000
0000
0010
0001
0100
1000
0000
0000
,
0100
0010
0001
0100
0000
0000
0010
0001
1000
0100
0000
0000
,
0000
0010
0000
0000
0000
0001
0010
0000
0000
0000
0000
0000
0000
0000
0001
0100
,
0010
0100
0001
1000
0000
0000
0010
0001
0100
1000
0000
0000
,
0100
0010
0001
0100
0000
0000
0010
0100
0001
1000
0000
0000
,
0010
0001
1000
0100
0000
0000
0100
0001
1000
0100
0000
0000
,
0000
0010
0000
0000
0000
0100
0001
0000
0000
0000
0000
0000
0000
0000
0000
0000
,
1000
0000
0100
0001
0000
0010
0000
0100
0000
0001
0000
0010
0010
0001
0100
0001
,
1000
0000
0100
0010
0000
0001
0000
0100
0000
0010
0000
0001
0100
0010
0001
0100
,
1000
0000
0001
0100
0000
0010
0000
0001
0000
0100
0000
0010
0100
0010
0001
1000
,
0100
0010
0000
0100
0000
0001
0000
0010
0000
0100
0000
0010
0000
0011
0000
0100
,
1000
0000
0100
0001
0000
0010
0000
0100
0000
0010
0000
0010
0100
0010
0001
0100
,
1000
0000
0100
0010
0000
0001
0000
0100
0000
0010
0000
0001
0100
0010
0001
0100
,
1000
0000
0000
0001
0000
0010
0000
0100
0000
0001
0000
0010
0100
0010
0001
0100
,
1000
0000
0100
0001
0000
1000
0100
0000
0000
0001
0010
0000
0000
0100
0001
0000
,
0000
0000
1000
0100
0001
0010
0100
0001
1000
0001
0010
0100
0001
0100
0001
0100
,
0010
0000
0010
0100
0001
1000
0001
0010
0100
0001
1000
0001
0010
0100
0001
1000
,
0001
0000
0100
0010
0001
0100
0001
0100
0010
0001
1000
0001
0100
0010
0001
0100
,
1000
0001
0100
0010
0001
0100
0001
0100
0010
0001
1000
0001
0100
0010
0001
0100
,
1000
0000
0100
0010
0001
0100
0001
0100
0010
0001
1000
0001
0100
0010
0001
0100
,
1000
0000
0100
0001
0100
0010
0001
1000
0001
0100
0010
0001
0100
0010
0001
0100
,
1000
0000
0010
0001
0100
0001
0100
0001
0100
0010
0001
0100
0001
0100
0010
0001
,
1000
0001
0100
0010
0001
1000
0001
0100
0010
0001
1000
0001
0100
0010
0001
0100
,
1000
0000
0001
0100
0010
0001
0100
0001
0100
0001
0100
0010
0001
1000
0001
0100
,
0001
0000
0100
0001
0100
0010
0001
1000
0001
0100
0010
0001
0100
1000
0001
0100
,
0001
0000
0100
0001
0100
0001
0100
0001
0100
0010
0001
1000
0001
0100
0010
0001
,
1000
0001
0100
0010
0001
1000
0001
0100
0010
0001
1000
0001
0100
0010
0001
0100
,
1000
0000
0000
0000
;

//---------------dance-single - ----------------
#NOTEDATA:;
#CHARTNAME:;
#STEPSTYPE:dance-single;
#DESCRIPTION:;
#CHARTSTYLE:;
#DIFFICULTY:Medium;
#METER:8;
#RADARVALUES:0.258423,0.442658,0.000000,0.000000,0.333635,469.000000,469.000000,0.000000,0.000000,0.000000,0.000000,0.000000,0.000000,0.000000,0.258423,0.442658,0.000000,0.000000,0.333635,469.000000,469.000000,0.000000,0.000000,0.000000,0.000000,0.000000,0.000000,0.000000;
#CREDIT:;
#NOTES:
0000
0000
0000
0000
,
0000
0000
0000
0000
,
0000
0000
0000
0000
,
0000
0000
0000
0000
,
0000
0000
0000
0000
,
0000
0000
0000
0000
,
0000
0000
0000
0000
,
0000
0000
0000
0000
,
0100
1000
0100
0001
0000
0000
0010
0100
0001
1000
0000
0000
,
0100
0001
0010
0100
0000
0000
0010
0100
0001
1000
0000
0000
,
0100
0001
0010
0100
0000
0000
1000
0100
0001
0010
0000
0000
,
0000
0000
0000
0000
,
1000
0100
0001
0010
0000
0000
0100
0001
1000
0001
0000
0000
,
0010
0001
0100
1000
0000
0000
0001
0100
1000
0010
0000
0000
,
0010
0001
0100
1000
0000
0000
0010
0001
0100
1000
0000
0000
,
0000
0000
0000
0000
,
0010
0000
0000
0000
0000
0000
0000
0000
0000
0000
0000
0000
0100
0001
1000
0100
,
0000
0000
0000
0000
0000
0000
0000
0000
0000
0000
0000
0000
1000
0001
0010
0100
,
0000
0000
0000
0000
0000
0000
0000
0000
0000
0000
0000
0000
0010
0001
1000
0000
,
0000
0000
0000
0000
0000
0000
0000
0000
0000
0000
0000
0000
0000
0100
0000
0000
,
0001
0000
0000
0000
0000
0000
0000
0000
0000
0000
0000
0000
0010
0001
0100
1000
,
0000
0000
0000
0000
0000
0000
0000
0000
0000
0000
0000
0000
0001
0100
0001
0010
,
0000
0000
0000
0000
0000
0000
0000
0000
0000
0000
0000
0000
0001
1000
0010
0000
,
0000
0000
0000
0000
0000
0000
0000
0000
0000
0000
0000
0000
0000
0001
0000
0000
,
0000
0000
0100
0001
0100
0010
0000
0100
0000
0001
0000
0100
1000
0000
0100
0000
,
0000
0000
0001
0100
0100
1000
0000
0100
0000
0010
0000
1000
0100
0000
0001
0000
,
0000
0000
0010
0100
0001
0100
0000
0010
0000
0001
0000
0100
1000
0000
0100
0000
,
0000
0001
0010
0100
0001
1000
0000
0100
0000
0000
0000
0000
0000
0000
0000
0000
,
0000
0000
0100
0010
0100
0001
0000
0100
0000
0010
0000
0001
1000
0000
0100
0000
,
0000
0000
0010
0001
0100
1000
0000
0100
0000
0010
0000
0100
1000
0000
0100
0000
,
0001
0000
0010
0100
0001
0010
0000
0100
0000
0001
0000
1000
0100
0000
0001
0000
,
0000
0010
0100
0001
1000
0001
0000
0010
0000
0000
0000
0000
0000
0000
0000
0000
,
1000
0000
0000
0000
,
0001
0000
0000
0000
,
0010
0000
0000
0000
,
0100
0000
0000
0000
,
0001
0000
0000
0000
,
1000
0000
0000
0000
,
0100
0000
0000
0000
,
0010
0000
0000
0000
,
0001
1000
0001
0100
1000
0010
0100
0001
,
0010
0100
0001
1000
0001
0010
0100
0001
,
1000
0001
0010
0100
0001
1000
0001
0010
,
0100
0001
1000
0001
0100
0010
0001
0100
,
0001
1000
0001
0010
0100
0001
1000
0001
,
0010
0100
0001
1000
0001
0010
0100
0001
,
1000
0010
0001
0100
0010
0001
0100
1000
,
0000
0000
0000
0000
,
0010
0001
0100
0001
0100
0010
0001
1000
,
0100
0010
0100
0001
1000
0001
0010
0100
,
0001
0100
0001
0010
0100
0001
1000
0001
,
0010
0100
0001
1000
0001
0010
0100
0001
,
0100
0001
1000
0001
0010
0100
0001
1000
,
0001
0100
0010
0100
0001
0100
0010
0001
,
1000
0001
0100
0010
0001
0100
0001
0100
,
0010
0001
1000
0001
0100
0010
0001
0100
,
1000
0100
0010
0001
,
0100
0001
0100
0010
,
0001
1000
0001
0100
,
0010
0001
0100
1000
,
0000
0000
0000
0000
,
0010
0000
0000
0000
,
0000
0000
0000
0000
,
0000
0000
0000
0000
,
0010
0001
0100
1000
0000
0000
0100
0001
0100
1000
0000
0000
,
0010
0100
0001
1000
0000
0000
0100
0001
0010
0100
0000
0000
,
0010
0100
0001
1000
0000
0000
0100
0001
0010
0100
0000
0000
,
0000
0000
0000
0000
,
0100
0001
0010
0100
0000
0000
1000
0100
0001
0010
0000
0000
,
0100
0001
0010
0100
0000
0000
1000
0100
0001
0010
0000
0000
,
0010
0100
0001
1000
0000
0000
0100
0001
0100
0010
0000
0000
,
0000
0000
0000
0000
,
0010
0000
0000
0000
0000
0000
0000
0000
0000
0000
0000
0000
0100
0010
0001
0100
,
0000
0000
0000
0000
0000
0000
0000
0000
0000
0000
0000
0000
0001
0010
0100
0001
,
0000
0000
0000
0000
0000
0000
0000
0000
0000
0000
0000
0000
0010
0100
0001
0000
,
0000
0000
0000
0000
0000
0000
0000
0000
0000
0000
0000
0000
0000
1000
0000
0000
,
0010
0000
0000
0000
0000
0000
0000
0000
0000
0000
0000
0000
0100
0001
1000
0001
,
0000
0000
0000
0000
0000
0000
0000
0000
0000
0000
0000
0000
0010
0100
0001
1000
,
0000
0000
0000
0000
0000
0000
0000
0000
0000
0000
0000
0000
0001
0100
1000
0000
,
0000
0000
0000
0000
0000
0000
0000
0000
0000
0000
0000
0000
0000
0100
0000
0000
,
0000
0000
0100
0001
0010
0100
0000
0001
0000
1000
0000
0100
0001
0000
0010
0000
,
0000
0000
0010
0001
0100
1000
0000
0010
0000
0100
0000
0001
0010
0000
0100
0000
,
0000
0000
0010
0001
0100
1000
0000
0001
0000
0100
0000
0010
0100
0000
0001
0000
,
0000
0100
0010
0001
0010
1000
0000
0100
0000
0000
0000
0000
0000
0000
0000
0000
,
0000
0000
0010
0100
0010
0001
0000
1000
0000
0001
0000
0010
0100
0000
0001
0000
,
0000
0000
0010
0100
0001
1000
0000
0100
0000
0001
0000
0010
0100
0000
0001
0000
,
0000
0000
0010
0100
0001
1000
0000
0100
0000
0001
0000
0010
0100
0000
0001
0000
,
0000
0001
0100
0010
1000
0001
0000
0100
0000
0000
0000
0000
0000
0000
0000
0000
,
0010
0000
0001
0010
0001
0100
0000
0001
0000
1000
0000
0100
0001
0010
0100
0001
,
1000
0000
0001
0100
0001
0010
0000
0100
0000
0010
0000
0001
0100
0010
0001
0100
,
1000
0000
0001
0100
0001
0010
0000
0001
0000
0100
0000
0010
0001
0100
0001
0000
,
1000
0100
0010
0001
1000
0100
0000
0001
0000
0000
0000
0000
0000
0010
0000
0000
;

//---------------dance-single - ----------------
#NOTEDATA:;
#CHARTNAME:;
#STEPSTYPE:dance-single;
#DESCRIPTION:;
#CHARTSTYLE:;
#DIFFICULTY:Easy;
#METER:3;
#RADARVALUES:0.117365,0.176460,0.003857,0.000000,0.000000,213.000000,212.000000,1.000000,0.000000,0.000000,0.000000,0.000000,0.000000,0.000000,0.117365,0.176460,0.003857,0.000000,0.000000,213.000000,212.000000,1.000000,0.000000,0.000000,0.000000,0.000000,0.000000,0.000000;
#CREDIT:;
#NOTES:
0000
0000
0000
0000
,
0000
0000
0000
0000
,
0000
0000
0000
0000
,
0000
0000
0000
0000
,
0000
0000
0000
0000
,
0000
0000
0000
0000
,
0000
0000
0000
0000
,
0000
0000
0000
0000
,
1000
0000
0010
0000
,
0100
0000
1000
0000
,
0100
0000
0001
0000
,
0000
0000
0000
0000
,
0010
0000
0100
0000
,
0001
0000
1000
0000
,
0100
0000
0001
0000
,
0000
0000
0000
0000
,
0010
0000
0000
0100
,
0100
0000
0000
0001
,
0001
0000
0000
1000
,
1000
0000
0000
0000
,
0100
0000
0000
0010
,
0010
0000
0000
1000
,
1000
0000
0000
0100
,
0100
0000
0000
0000
,
0010
0100
0001
1000
,
0001
0010
0100
0001
,
1000
0001
0010
0100
,
0001
0100
0001
0000
,
0010
0001
1000
0100
,
0100
0001
0010
0100
,
0001
1000
0001
0010
,
0100
0001
1000
0000
,
0010
0000
0000
0000
,
0100
0000
0000
0000
,
0001
0000
0000
0000
,
0010
0000
0000
0000
,
0100
0000
0000
0000
,
1000
0000
0000
0000
,
0001
0000
0000
0000
,
0010
0000
0000
0000
,
0010
0001
1000
0100
,
0100
0001
0010
0100
,
0001
1000
0001
0010
,
0100
0001
1000
0001
,
0010
0100
0001
1000
,
0001
0010
0100
0001
,
0100
0010
0001
0100
,
1000
0000
0000
0000
,
0100
0010
0001
1000
,
0001
0010
0100
0001
,
1000
0001
0010
0100
,
0001
1000
0001
0010
,
0100
0001
1000
0001
,
0010
0100
0001
1000
,
0001
0010
0100
0001
,
0010
0011
0010
0100
,
0001
1000
0100
0010
,
0100
0001
1000
0001
,
0010
0100
0001
0100
,
0010
0001
0100
1000
,
0000
0000
0000
0000
,
0000
0000
0000
0000
,
0000
0000
0000
0000
,
0000
0000
0000
0000
,
1000
0000
0100
0000
,
0001
0000
0010
0000
,
0100
0000
0001
0000
,
0000
0000
0000
0000
,
1000
0000
0100
0000
,
0001
0000
0010
0000
,
0100
0000
0010
0000
,
0000
0000
0000
0000
,
0100
0000
0000
0001
,
0001
0000
0000
0010
,
0010
0000
0000
0100
,
0100
0000
0000
0000
,
0010
0000
0000
0010
,
0001
0000
0000
0001
,
0010
0000
0000
0010
,
0100
0000
0000
0000
,
1000
0100
0001
0010
,
0100
0001
0010
0100
,
0001
1000
0001
0010
,
0100
0001
1000
0000
,
0100
0001
0010
0100
,
0001
1000
0001
0010
,
0100
0001
0100
0100
,
0010
0001
1000
0000
,
0100
0001
0010
0100
,
0001
1000
0001
0010
,
0100
0001
0100
0001
,
0010
0100
0001
0000
;

//---------------dance-single - ----------------
#NOTEDATA:;
#CHARTNAME:;
#STEPSTYPE:dance-single;
#DESCRIPTION:;
#CHARTSTYLE:;
#DIFFICULTY:Beginner;
#METER:1;
#RADARVALUES:0.043530,0.087748,0.000000,0.000000,0.000000,79.000000,79.000000,0.000000,0.000000,0.000000,0.000000,0.000000,0.000000,0.000000,0.043530,0.087748,0.000000,0.000000,0.000000,79.000000,79.000000,0.000000,0.000000,0.000000,0.000000,0.000000,0.000000,0.000000;
#CREDIT:;
#NOTES:
// measure 0
0000
0000
0000
0000
,  // measure 1
0000
0000
0000
0000
,  // measure 2
0000
0000
0000
0000
,  // measure 3
0000
0000
0000
0000
,  // measure 4
0000
0000
0000
0000
,  // measure 5
0000
0000
0000
0000
,  // measure 6
0000
0000
0000
0000
,  // measure 7
0000
0000
0000
0000
,  // measure 8
0100
0000
1000
0000
,  // measure 9
0001
0000
0010
0000
,  // measure 10
0100
0000
0001
0000
,  // measure 11
0000
0000
0000
0000
,  // measure 12
0010
0000
0100
0000
,  // measure 13
0001
0000
0010
0000
,  // measure 14
0100
0000
0001
0000
,  // measure 15
0000
0000
0000
0000
,  // measure 16
1000
0000
0000
0000
,  // measure 17
0100
0000
0000
0000
,  // measure 18
0001
0000
0000
0000
,  // measure 19
0010
0000
0000
0000
,  // measure 20
0100
0000
0000
0000
,  // measure 21
1000
0000
0000
0000
,  // measure 22
0100
0000
0000
0000
,  // measure 23
0001
0000
0000
0000
,  // measure 24
0010
0000
0000
0000
,  // measure 25
0100
0000
0000
0000
,  // measure 26
1000
0000
0000
0000
,  // measure 27
0001
0000
0000
0000
,  // measure 28
0010
0000
0000
0000
,  // measure 29
0100
0000
0000
0000
,  // measure 30
0001
0000
0000
0000
,  // measure 31
1000
0000
0000
0000
,  // measure 32
0100
0000
0000
0000
,  // measure 33
0000
0000
0000
0000
,  // measure 34
0100
0000
0000
0000
,  // measure 35
0000
0000
0000
0000
,  // measure 36
0001
0000
0000
0000
,  // measure 37
0000
0000
0000
0000
,  // measure 38
1000
0000
0000
0000
,  // measure 39
0000
0000
0000
0000
,  // measure 40
0010
0000
0000
0000
,  // measure 41
0100
0000
0000
0000
,  // measure 42
0001
0000
0000
0000
,  // measure 43
1000
0000
0000
0000
,  // measure 44
0100
0000
0000
0000
,  // measure 45
0001
0000
0000
0000
,  // measure 46
0010
0000
0000
0000
,  // measure 47
0000
0000
0000
0000
,  // measure 48
0100
0000
0000
0000
,  // measure 49
1000
0000
0000
0000
,  // measure 50
0001
0000
0000
0000
,  // measure 51
0010
0000
0000
0000
,  // measure 52
0100
0000
0000
0000
,  // measure 53
0001
0000
0000
0000
,  // measure 54
1000
0000
0000
0000
,  // measure 55
0100
0000
0000
0000
,  // measure 56
0000
0000
0000
0000
,  // measure 57
0000
0000
0000
0000
,  // measure 58
0000
0000
0000
0000
,  // measure 59
0000
0000
0000
0000
,  // measure 60
0000
0000
0000
0000
,  // measure 61
0000
0000
0000
0000
,  // measure 62
0000
0000
0000
0000
,  // measure 63
0000
0000
0000
0000
,  // measure 64
0010
0000
0100
0000
,  // measure 65
0001
0000
1000
0000
,  // measure 66
0100
0000
0001
0000
,  // measure 67
0000
0000
0000
0000
,  // measure 68
0010
0000
0100
0000
,  // measure 69
0001
0000
1000
0000
,  // measure 70
0100
0000
0001
0000
,  // measure 71
0000
0000
0000
0000
,  // measure 72
0010
0000
0000
0000
,  // measure 73
0100
0000
0000
0000
,  // measure 74
0001
0000
0000
0000
,  // measure 75
1000
0000
0000
0000
,  // measure 76
0100
0000
0000
0000
,  // measure 77
0001
0000
0000
0000
,  // measure 78
0010
0000
0000
0000
,  // measure 79
0100
0000
0000
0000
,  // measure 80
1000
0000
0000
0000
,  // measure 81
0001
0000
0000
0000
,  // measure 82
0010
0000
0000
0000
,  // measure 83
0001
0000
0000
0000
,  // measure 84
0010
0000
0000
0000
,  // measure 85
0100
0000
0000
0000
,  // measure 86
1000
0000
0000
0000
,  // measure 87
0001
0000
0000
0000
,  // measure 88
0010
0000
0000
0000
,  // measure 89
0100
0000
0000
0000
,  // measure 90
0001
0000
0000
0000
,  // measure 91
1000
0000
0000
0000
;
