#TITLE:tgif;
#SUBTITLE:;
#ARTIST:Glorilla;
#TITLETRANSLIT:;
#SUBTITLETRANSLIT:;
#ARTISTTRANSLIT:;
#GENRE:;
#CREDIT:;
#BANNER:;
#BACKGROUND:;
#LYRICSPATH:;
#CDTITLE:;
#MUSIC:TGIF (Extended).ogg;
#OFFSET:0.000000;
#SAMPLESTART:100.059883;
#SAMPLELENGTH:12.000000;
#SELECTABLE:YES;
#BPMS:0.000000=140.500000
,88.000000=140.000000
,146.000000=139.500000
,240.000000=140.000000
,284.000000=140.500000
,336.000000=140.000000
;
#STOPS:0.000000=0.050000
;
#BGCHANGES:;
#KEYSOUNDS:;
#ATTACKS:;

//---------------dance-single - ----------------
#NOTES:
     dance-single:
     :
     Hard:
     12:
     0.574855,0.629477,0.306173,0.233275,0.029159,828.000000,765.000000,63.000000,48.000000,0.000000,0.000000,0.574855,0.629477,0.306173,0.233275,0.029159,828.000000,765.000000,63.000000,48.000000,0.000000,0.000000:
// measure 0
0000
0000
0000
0000
,  // measure 1
0000
0000
0000
0000
,  // measure 2
0000
0000
0000
0000
,  // measure 3
0000
0000
0000
0000
,  // measure 4
0001
0100
0010
0000
0001
0100
1000
0000
,  // measure 5
0001
0100
0010
0000
0001
0100
1000
0000
,  // measure 6
0001
0100
1000
0000
0001
0100
0010
0000
,  // measure 7
0100
0001
0100
0000
1000
0001
0100
0000
,  // measure 8
0000
0000
0000
0000
0000
0100
0001
1000
,  // measure 9
0000
1001
0101
1001
,  // measure 10
0000
0110
0000
0101
,  // measure 11
1000
0000
0000
2002
,  // measure 12
0000
0000
3003
0010
0001
0100
0001
1000
,  // measure 13
0001
0000
1000
0000
2002
3003
0001
0000
0100
0000
1000
0000
0100
0000
0001
0000
,  // measure 14
0100
0000
1001
0000
0010
0100
0001
1000
,  // measure 15
0001
0010
0001
1000
0001
0100
1000
0001
,  // measure 16
0010
0100
0001
0010
0001
1000
0001
0100
,  // measure 17
1000
0000
0110
0010
0001
1000
0001
0100
,  // measure 18
1000
0000
0100
0010
0001
1000
0001
0100
,  // measure 19
1000
0000
1001
0001
1000
0001
0100
0010
,  // measure 20
1000
0010
2002
3003
0010
0001
1000
0001
,  // measure 21
0100
1000
2002
3003
0010
0001
1000
0001
,  // measure 22
0100
1000
2002
3003
0001
1000
0001
0100
,  // measure 23
1000
0000
0110
0000
0010
0001
1000
0001
,  // measure 24
0100
1000
2002
3003
0010
0100
0001
0100
,  // measure 25
0010
0000
0100
0010
0001
1000
0001
0100
,  // measure 26
1000
0000
0100
0010
0001
0100
0010
0001
,  // measure 27
1000
0001
0100
0010
0001
1000
0001
0100
,  // measure 28
1000
0000
1001
0000
0001
1000
0001
0100
,  // measure 29
0001
1000
2002
3003
0010
0001
1000
0001
,  // measure 30
0100
1000
2002
3003
0001
1000
0001
0100
,  // measure 31
1000
0000
1001
0000
0010
0100
0001
1000
,  // measure 32
0001
0010
2002
3003
0010
0100
0010
0001
,  // measure 33
1000
0000
0100
0010
0001
1000
0001
0100
,  // measure 34
1000
0000
0100
0010
0001
1000
0001
0100
,  // measure 35
0010
0000
0100
0010
0001
1000
0001
0100
,  // measure 36
1000
0000
0100
0001
1000
0100
0001
0010
,  // measure 37
0001
0100
0010
0001
1000
0001
0100
0010
,  // measure 38
1000
0000
0010
0100
0001
0100
0010
0001
,  // measure 39
1000
0001
0100
0010
0001
1000
0001
0100
,  // measure 40
1000
0000
0010
0000
1010
0000
1000
0000
0001
0000
0100
0000
0001
0000
0010
0100
,  // measure 41
0000
0000
1001
0001
1000
0100
0010
0001
,  // measure 42
1001
0000
0001
0000
1000
0000
0100
0001
0010
0000
0100
0000
0001
1000
0100
0000
,  // measure 43
0001
0000
0010
0000
0100
0000
1000
0010
0001
0000
0100
0000
0010
0001
0100
0000
,  // measure 44
1000
0000
2002
3003
0001
1000
0001
0100
,  // measure 45
1000
0000
0000
0000
0202
0303
0001
0000
0010
0000
1000
0000
0001
0000
0100
0000
,  // measure 46
1000
0000
0000
0000
2002
0000
3003
0000
0010
0100
0001
0000
1000
0000
0100
0000
,  // measure 47
0001
0000
0000
0000
2002
3003
0001
0000
1000
0000
0000
0000
0100
0000
0001
0000
,  // measure 48
0010
0000
0000
0000
2002
3003
0001
0000
0010
0000
0010
0000
0001
0000
0100
0000
,  // measure 49
1000
0000
2002
3003
0001
1000
0001
0100
,  // measure 50
1000
0000
2002
3003
0001
1000
0001
0100
,  // measure 51
1000
0000
0000
0000
2002
3003
0010
0000
0100
0000
0001
0000
1000
0000
0001
0000
,  // measure 52
0010
0100
0010
0000
0010
0001
1000
0001
,  // measure 53
0100
1000
2002
3003
0010
0001
1000
0001
,  // measure 54
0100
1000
2002
3003
0001
1000
0001
0100
,  // measure 55
1000
0000
1001
0000
0010
0100
0001
1000
,  // measure 56
0001
0010
0220
0330
0001
1000
0001
0010
,  // measure 57
0100
0000
0001
0010
0100
0001
1000
0001
,  // measure 58
0010
0000
0001
1000
0001
0100
0010
0001
,  // measure 59
1000
0001
0100
0010
0001
1000
0001
0100
,  // measure 60
1000
0000
1001
0001
0100
0010
0100
0001
,  // measure 61
1000
0100
0001
0100
0010
0001
1000
0100
,  // measure 62
0001
0000
1001
0001
1000
0001
0010
0100
,  // measure 63
0001
1000
0001
0010
0001
1000
0001
0100
,  // measure 64
1000
0001
1000
0010
0001
1000
0001
0100
,  // measure 65
1000
0000
1001
0010
0100
0001
1000
0001
,  // measure 66
0010
0000
0001
1000
0001
0100
0010
0001
,  // measure 67
1000
0000
0101
0001
0100
0001
1000
0001
,  // measure 68
0100
0000
0000
0000
0110
0000
0000
0000
0010
0000
0100
0001
0000
0000
0000
0000
,  // measure 69
1000
0000
0001
0010
0000
0000
0000
0000
0001
0000
1000
0000
0001
0000
0100
0000
,  // measure 70
1000
0000
0000
0001
0010
0000
0000
0000
0001
0000
0000
1000
0100
0000
0001
0000
,  // measure 71
0010
0000
0000
0100
0000
0000
0000
0000
1000
0000
0001
0000
0100
0000
0010
0000
,  // measure 72
1000
0000
0001
0100
0010
0001
1000
0000
,  // measure 73
0100
0000
1001
0000
0001
1000
0001
0000
,  // measure 74
0010
0100
0001
0000
1000
0001
0100
0010
,  // measure 75
0100
0001
1001
0000
0001
1000
0001
0100
,  // measure 76
1000
0000
0000
0000
0220
0000
0000
0000
0330
0000
0000
0000
0100
0000
0001
1000
,  // measure 77
0000
0000
1000
0100
0001
0100
0001
1000
,  // measure 78
0100
0000
1001
0001
0001
1000
0001
0100
,  // measure 79
1000
0000
0010
0000
0001
1000
0001
0100
,  // measure 80
1000
0000
0110
0100
0001
1000
0001
0100
,  // measure 81
1000
0000
0110
0010
0001
1000
0001
0100
,  // measure 82
1000
0000
1001
0001
1000
0100
0001
0100
,  // measure 83
1000
0010
0001
0000
0100
0010
0001
0100
,  // measure 84
1001
0000
0101
0000
0001
1000
0001
0010
,  // measure 85
0100
0001
2002
3003
0010
0100
0001
1000
,  // measure 86
0001
0010
2002
3003
0010
0100
0001
1000
,  // measure 87
0001
0000
1001
0000
0010
0001
1000
0001
,  // measure 88
0100
0010
2002
3003
0100
0010
0001
1000
,  // measure 89
0001
0000
0100
0010
0001
1000
0001
0100
,  // measure 90
1000
0000
0001
1000
0001
0100
0010
0001
,  // measure 91
1000
0001
0100
0010
0001
1000
0001
0100
,  // measure 92
1000
0000
0101
0001
1000
0001
0010
0100
,  // measure 93
0001
1000
0110
0010
0001
1000
0001
0100
,  // measure 94
1000
0000
1001
0000
0001
0100
0010
0001
,  // measure 95
1000
0001
0100
0010
0001
1000
0001
0100
,  // measure 96
1000
0001
0100
0010
0001
1000
0001
0100
,  // measure 97
1000
0000
0101
0010
0001
1000
0001
0100
,  // measure 98
1000
0000
0100
0010
0001
1000
0001
0100
,  // measure 99
1000
0000
0110
0010
0001
1000
0001
0100
,  // measure 100
1000
0001
0100
0000
0001
0100
0010
0000
,  // measure 101
0001
0100
1000
0000
0001
0100
0010
0000
,  // measure 102
0001
0100
0010
0000
0001
0100
1000
0000
,  // measure 103
0001
0100
1000
0000
0001
0100
0010
0000
,  // measure 104
0001
0100
1000
0000
0100
0001
0010
0000
,  // measure 105
0001
0100
1000
0000
0001
0100
0010
0000
,  // measure 106
0001
0100
1000
0000
0001
1000
0100
0000
,  // measure 107
0001
1000
0100
0000
0001
0100
0010
0000
,  // measure 108
0001
0000
0101
0001
0100
0001
1000
0001
,  // measure 109
0010
0100
1001
0010
0001
1000
0001
0100
,  // measure 110
1000
0000
1001
0000
0001
0100
0010
0001
,  // measure 111
1000
0001
0100
0010
0001
1000
0001
0100
,  // measure 112
1000
0100
0001
0100
0001
0100
0010
0100
,  // measure 113
1000
0000
1001
0010
0001
1000
0001
0100
,  // measure 114
1000
0000
0001
0100
0001
1000
0001
0010
,  // measure 115
0100
0000
0101
0001
1000
0001
0100
1000
,  // measure 116
1000
0100
1000
0000
0001
0100
0010
0000
,  // measure 117
0001
0100
0010
0000
0001
0100
1000
0000
;
