#VERSION:0.83;
#TITLE:swang;
#SUBTITLE:;
#ARTIST:Rae Sremmurd;
#TITLETRANSLIT:;
#SUBTITLETRANSLIT:;
#ARTISTTRANSLIT:;
#GENRE:;
#ORIGIN:;
#CREDIT:;
#BANNER:;
#BACKGROUND:;
#PREVIEWVID:;
#JACKET:;
#CDIMAGE:;
#DISCIMAGE:;
#LYRICSPATH:;
#CDTITLE:;
#MUSIC:Rae Sremmurd - Swang.ogg;
#OFFSET:0.000000;
#SAMPLESTART:100.059883;
#SAMPLELENGTH:12.000000;
#SELECTABLE:YES;
#BPMS:0.000=140.000;
#STOPS:0.000=0.200,
60.000=1.700;
#DELAYS:;
#WARPS:;
#TIMESIGNATURES:0.000=4=4;
#TICKCOUNTS:0.000=4;
#COMBOS:0.000=1;
#SPEEDS:0.000=1.000=0.000=0;
#SCROLLS:0.000=1.000;
#FAKES:;
#LABELS:0.000=Song Start;
#BGCHANGES:;
#KEYSOUNDS:;
#ATTACKS:
;

//---------------dance-single - ----------------
#NOTEDATA:;
#CHARTNAME:;
#STEPSTYPE:dance-single;
#DESCRIPTION:;
#CHARTSTYLE:;
#DIFFICULTY:Hard;
#METER:9;
#RADARVALUES:0.461732,0.570305,0.768411,0.633939,0.000000,673.000000,513.000000,160.000000,132.000000,0.000000,0.000000,0.000000,0.000000,0.000000,0.461732,0.570305,0.768411,0.633939,0.000000,673.000000,513.000000,160.000000,132.000000,0.000000,0.000000,0.000000,0.000000,0.000000;
#CREDIT:;
#NOTES:
// measure 0
0000
0000
0000
0000
,  // measure 1
0000
0000
0000
0000
,  // measure 2
1000
0100
0001
0100
0001
1000
0001
0010
,  // measure 3
0100
0001
1000
0001
0010
0100
0002
0000
,  // measure 4
0020
0000
0000
0000
,  // measure 5
0000
0000
0000
0033
,  // measure 6
1000
0100
0001
0000
0100
0001
0010
0100
,  // measure 7
0002
0000
0000
0000
0000
1000
0003
0000
,  // measure 8
2200
3300
0202
0303
,  // measure 9
0220
0330
0022
0033
,  // measure 10
0100
1000
0001
0000
0100
0010
0100
0001
,  // measure 11
0002
0000
2000
3003
,  // measure 12
0100
1000
0001
0000
0010
0100
0001
0100
,  // measure 13
2002
0000
0000
0000
,  // measure 14
0000
0000
0000
0000
,  // measure 15
3003
0100
0010
0000
0001
1000
0001
0100
,  // measure 16
2200
3300
0220
0330
,  // measure 17
0001
0010
1000
0000
0001
0100
0010
0001
,  // measure 18
0220
0000
0330
0110
,  // measure 19
0101
0000
1001
0000
0001
0100
1000
0010
,  // measure 20
0202
0303
2200
3300
,  // measure 21
0100
0001
0100
0000
0001
1000
0100
0000
,  // measure 22
0202
0000
0303
0000
2200
0000
3300
0001
,  // measure 23
0010
0100
0001
0000
1000
0000
0001
0100
,  // measure 24
0202
0000
0303
0000
1001
0000
0100
0001
,  // measure 25
0100
0010
0100
0000
0001
1000
0100
0001
,  // measure 26
2200
3300
0202
0303
,  // measure 27
0001
0100
0110
0000
0001
1000
0001
0100
,  // measure 28
2002
0000
3003
0000
0101
0000
1000
0100
,  // measure 29
0001
0000
0010
0000
0001
0100
1000
0001
,  // measure 30
0220
0330
2002
3003
,  // measure 31
0220
0330
2002
3003
,  // measure 32
0110
0101
1100
0110
,  // measure 33
0101
0000
0110
0000
1001
0001
1000
0000
,  // measure 34
0100
0010
0101
0000
0101
0000
0000
0000
,  // measure 35
1001
0101
0110
0000
,  // measure 36
1000
0000
0001
0100
1001
0001
0010
0000
,  // measure 37
0101
0110
1001
0000
,  // measure 38
0001
0010
0110
0000
0101
0000
0000
0000
,  // measure 39
0100
0000
0010
0000
0001
0100
1000
0000
,  // measure 40
0220
0330
2002
3003
,  // measure 41
0020
0000
0200
0000
0330
0000
0010
0001
,  // measure 42
0220
0330
0202
0303
,  // measure 43
0010
0001
0100
0010
0001
1000
0001
0100
,  // measure 44
0010
0000
0001
0100
1000
0000
0000
0000
,  // measure 45
0010
0000
0001
0100
1001
0000
0101
0000
,  // measure 46
0220
0330
2002
3003
,  // measure 47
0110
0000
0101
0000
0110
0000
0001
0100
,  // measure 48
1000
1001
0202
0303
,  // measure 49
1000
0001
0100
0000
0010
0100
0001
1000
,  // measure 50
0202
0303
2200
3300
,  // measure 51
0110
0000
0101
0000
0110
0100
0001
0100
,  // measure 52
1000
1001
0220
0330
,  // measure 53
0010
0100
0001
1000
0001
0000
0010
0100
,  // measure 54
0002
0000
0000
0000
1000
1000
1003
0000
,  // measure 55
1001
1001
1001
0000
0001
1000
0001
0100
,  // measure 56
2002
3003
0220
0330
,  // measure 57
0001
1000
0100
0000
0001
0010
0100
0001
,  // measure 58
2002
3003
0220
0330
,  // measure 59
0101
0000
0011
0000
0001
0100
1000
0010
,  // measure 60
0220
0330
2002
3003
,  // measure 61
0001
0100
0010
0000
0001
0100
1000
0000
,  // measure 62
0220
0000
0330
0000
2002
0000
3003
0010
,  // measure 63
0001
0100
1000
0000
0001
0100
0001
0100
,  // measure 64
1001
0000
0100
0001
0101
0000
0001
0100
,  // measure 65
0010
0001
0100
0000
0010
0001
0100
0010
,  // measure 66
2200
3300
0202
0303
,  // measure 67
0101
0000
0011
0000
0001
1000
0001
0100
,  // measure 68
1000
0010
0001
0100
1000
0000
0100
0001
,  // measure 69
1000
0000
0010
0000
0100
0001
0100
1000
,  // measure 70
0110
0101
0101
0110
,  // measure 71
2002
3003
0220
0330
,  // measure 72
0110
0110
0101
1100
,  // measure 73
0101
0000
0110
0000
0001
0100
1000
0000
,  // measure 74
0100
0010
1001
0000
1001
0000
0000
0000
,  // measure 75
1001
1001
1001
0000
,  // measure 76
1001
0000
0001
0100
1000
0100
0001
0000
,  // measure 77
1001
0011
0110
1001
,  // measure 78
0100
0010
1001
0000
1001
0001
1000
0001
,  // measure 79
0010
0010
0001
0100
1000
0010
0001
0100
,  // measure 80
1000
0000
1001
0000
0010
0100
0001
1000
,  // measure 81
0001
0010
0100
0001
1000
0001
1000
0200
,  // measure 82
0000
0300
0000
0010
0100
0010
0001
1000
,  // measure 83
0001
0100
0001
1000
0100
0000
0100
2000
,  // measure 84
0000
3000
0001
0100
0010
0000
0001
1000
,  // measure 85
0100
0001
0100
0001
0100
1000
0000
0000
,  // measure 86
1001
0000
0100
0010
1001
0000
1001
0000
,  // measure 87
0110
0000
0001
1000
0110
0000
0110
0000
,  // measure 88
0101
0000
0110
0000
1001
0001
1001
0000
,  // measure 89
0101
0000
1000
0100
0001
0100
1000
0000
,  // measure 90
1001
0000
0001
1000
0100
1000
0001
0100
,  // measure 91
0010
0000
0001
1000
0001
0100
1000
0000
,  // measure 92
0110
0000
0100
0001
1000
0100
0000
0001
,  // measure 93
1000
0001
0100
0010
1001
1001
1001
0000
,  // measure 94
0101
0000
0101
0000
0000
0000
1001
1001
,  // measure 95
1001
0001
1000
0000
0001
0100
0010
0001
,  // measure 96
2002
3003
0220
0330
,  // measure 97
0001
0100
1000
0000
1000
0001
0100
0010
,  // measure 98
2002
3003
0220
0330
,  // measure 99
1001
0000
0110
0000
0100
0001
0010
1000
,  // measure 100
2200
3300
0202
0303
,  // measure 101
0001
1000
0100
0000
0010
0100
0001
0000
,  // measure 102
2002
0000
3003
0000
0220
0000
0330
0001
,  // measure 103
1000
0100
0011
0000
0110
0000
0010
0001
,  // measure 104
1100
0000
0100
0010
1001
0000
0001
1000
,  // measure 105
0100
0010
0100
0000
1000
0001
0100
0010
,  // measure 106
2200
3300
0202
0303
,  // measure 107
0101
0000
0110
0000
0001
1000
0001
0100
,  // measure 108
2200
0000
3300
0000
0101
0000
0010
0100
,  // measure 109
0001
0000
1000
0000
0100
0001
0100
0001
,  // measure 110
1000
0110
0101
0110
,  // measure 111
2002
0000
0000
3003
,  // measure 112
0202
0000
0000
0303
,  // measure 113
0220
0000
0000
0330
,  // measure 114
2002
0000
0000
3003
,  // measure 115
0220
0000
0000
0330
,  // measure 116
2002
0000
0000
3003
,  // measure 117
0202
0000
0000
0303
,  // measure 118
2002
0000
0000
3003
;
