#VERSION:0.83;
#TITLE:sunday afternoon;
#SUBTITLE:;
#ARTIST:Reverese Pathogen;
#TITLETRANSLIT:;
#SUBTITLETRANSLIT:;
#ARTISTTRANSLIT:;
#GENRE:;
#ORIGIN:;
#CREDIT:;
#BANNER:;
#BACKGROUND:;
#PREVIEWVID:;
#JACKET:;
#CDIMAGE:;
#DISCIMAGE:;
#LYRICSPATH:;
#CDTITLE:;
#MUSIC:Reverse Pathogen - Sunday Afternoon (Official Music Video).ogg;
#OFFSET:0.000000;
#SAMPLESTART:100.059883;
#SAMPLELENGTH:12.000000;
#SELECTABLE:YES;
#BPMS:0.000=156.000;
#STOPS:0.000=0.200;
#DELAYS:;
#WARPS:;
#TIMESIGNATURES:0.000=4=4;
#TICKCOUNTS:0.000=4;
#COMBOS:0.000=1;
#SPEEDS:0.000=1.000=0.000=0;
#SCROLLS:0.000=1.000;
#FAKES:;
#LABELS:0.000=Song Start;
#BGCHANGES:0.000=Reverse Pathogen - Sunday Afternoon (Official Music Video).mp4=1.000=0=0=1=====,
99999=-nosongbg-=1.000=0=0=0 // don't automatically add -songbackground-
;
#KEYSOUNDS:;
#ATTACKS:
;

//---------------dance-single - ----------------
#NOTEDATA:;
#CHARTNAME:;
#STEPSTYPE:dance-single;
#DESCRIPTION:;
#CHARTSTYLE:;
#DIFFICULTY:Hard;
#METER:12;
#RADARVALUES:0.412376,0.545695,0.026778,0.021422,0.000000,539.000000,534.000000,5.000000,4.000000,0.000000,0.000000,0.000000,0.000000,0.000000,0.412376,0.545695,0.026778,0.021422,0.000000,539.000000,534.000000,5.000000,4.000000,0.000000,0.000000,0.000000,0.000000,0.000000;
#CREDIT:;
#NOTES:
// measure 0
0000
0000
0000
0000
,  // measure 1
0000
0000
0000
0000
,  // measure 2
0000
0000
0000
0000
,  // measure 3
0000
0000
0000
0000
,  // measure 4
0001
0000
0100
0010
0000
0001
0100
0000
,  // measure 5
0000
0100
1000
0001
,  // measure 6
0100
0000
0010
0001
0000
0100
1000
0000
,  // measure 7
0000
0001
0100
0010
,  // measure 8
0001
0000
0100
0010
0000
0001
1000
0000
,  // measure 9
0000
0000
0100
0010
0001
1000
0100
0000
,  // measure 10
0100
0000
0010
0001
0000
0100
1000
0000
,  // measure 11
0000
0001
0100
1000
,  // measure 12
0010
0000
0100
0001
0000
1000
0100
0000
,  // measure 13
0000
0001
0100
0010
,  // measure 14
0001
0000
1000
0100
0000
0010
0100
0000
,  // measure 15
0000
1000
0001
0100
,  // measure 16
0010
0000
0001
0100
0000
1000
0100
0000
,  // measure 17
0000
0001
0100
0010
,  // measure 18
0001
0000
1000
0100
0000
0010
0001
0000
,  // measure 19
0000
0001
0100
0010
,  // measure 20
0001
0000
1000
0100
0000
0100
0010
0000
,  // measure 21
0000
0000
0100
0000
0010
0000
1000
0100
,  // measure 22
0001
0000
0001
0100
0001
0100
1000
0001
,  // measure 23
0010
0100
0010
0000
0001
0100
1000
0010
,  // measure 24
0110
0000
0110
0000
0100
0001
0000
1000
,  // measure 25
0000
0010
0000
0001
0000
1000
0000
0100
,  // measure 26
0000
0000
0000
0100
0010
0001
0000
0100
,  // measure 27
0000
0010
0000
0001
0000
0100
0000
1000
,  // measure 28
0000
0000
0000
1000
0100
0001
0000
0100
,  // measure 29
0000
0010
0000
0001
0000
0100
0000
2000
,  // measure 30
0000
0000
0000
0000
,  // measure 31
0000
0000
0001
3001
,  // measure 32
0100
0000
0100
0000
0010
0001
0000
0001
,  // measure 33
0000
0010
0000
0100
0000
0010
0000
0001
,  // measure 34
0000
0000
0000
0010
1000
0010
0000
0100
,  // measure 35
0000
0010
0000
0100
0000
0000
0000
0000
,  // measure 36
0100
0000
0001
0010
0001
0100
0000
1000
,  // measure 37
0000
0001
0000
0100
0000
0010
0000
0002
,  // measure 38
0000
0000
0000
0000
,  // measure 39
0000
0000
1000
1003
,  // measure 40
0100
0000
0010
0000
0001
1000
0100
0000
,  // measure 41
0100
0000
0010
0000
0001
0100
1000
0001
,  // measure 42
0100
0000
0010
0000
0001
0100
1000
0000
,  // measure 43
1000
0000
0001
0000
0100
0010
0001
0100
,  // measure 44
1000
0000
0100
0000
1000
0001
0100
0000
,  // measure 45
0010
0000
0001
0000
0100
0100
0010
0001
,  // measure 46
1000
0000
0000
0100
0001
0000
0010
0000
,  // measure 47
0000
0100
0001
1000
0001
0010
0100
0001
,  // measure 48
1000
0000
0100
0001
0000
1000
0100
0000
,  // measure 49
0000
1000
0100
0000
0001
0000
0010
0000
,  // measure 50
1000
0000
0100
0001
0000
0010
0100
0000
,  // measure 51
0000
0001
0100
1000
,  // measure 52
0001
0000
0100
1000
0000
0010
0010
0000
,  // measure 53
0000
0100
0001
0000
0010
0000
0100
0000
,  // measure 54
0100
0000
0010
0001
0000
0100
1000
0000
,  // measure 55
0000
0001
1000
0100
,  // measure 56
0010
0000
0000
0001
0000
0000
0100
0000
,  // measure 57
0000
0001
0100
0010
,  // measure 58
0001
0000
0000
1000
0000
0000
0100
0000
,  // measure 59
0000
0100
0010
0001
,  // measure 60
0100
0000
0000
1000
0000
0000
0001
0000
,  // measure 61
0000
0000
0001
0000
0100
0000
0010
0001
,  // measure 62
0100
0000
0100
0000
0010
0000
0001
0100
,  // measure 63
1000
0001
1000
0100
,  // measure 64
0010
0010
0001
0001
0100
1000
0100
0001
,  // measure 65
0010
0001
0100
0010
0001
0000
0000
0000
,  // measure 66
0001
0100
0010
0001
1000
0001
0100
0010
,  // measure 67
0001
0100
1000
0000
,  // measure 68
0100
1000
0100
0010
0100
0001
0100
0010
,  // measure 69
0001
0100
0100
0000
,  // measure 70
0001
0100
0010
0001
1000
0001
0100
0010
,  // measure 71
0001
1000
0100
0000
,  // measure 72
1000
0000
0000
0001
0000
0000
0100
0000
,  // measure 73
0000
0010
0001
0100
,  // measure 74
0010
0001
1000
0001
0100
0010
0001
1000
,  // measure 75
0100
0001
0100
0010
0001
1000
0001
0100
,  // measure 76
0010
0000
0000
0001
0000
0000
1000
0000
,  // measure 77
0000
0100
0001
1000
,  // measure 78
0100
0010
0001
1000
0001
0100
0010
0001
,  // measure 79
1000
0001
0100
0010
0001
1000
0001
0100
,  // measure 80
1000
0000
0001
0000
1000
0100
0000
1000
,  // measure 81
0000
0001
0000
0100
0000
0010
0000
0001
,  // measure 82
0000
0000
0000
0001
1000
0100
0000
0010
,  // measure 83
0000
0001
0000
1000
0000
0100
0000
0000
,  // measure 84
0000
0000
0000
0100
0001
1000
0000
0100
,  // measure 85
0000
0010
0000
0001
0000
0100
0000
2000
,  // measure 86
0000
0000
0000
0000
,  // measure 87
0000
0000
0001
3001
,  // measure 88
0001
0000
0001
0000
0100
0001
0000
1000
,  // measure 89
0000
0010
0000
0001
0000
1000
0000
0100
,  // measure 90
0000
0000
0000
0100
1000
0001
0000
0001
,  // measure 91
0000
0100
0000
0010
0000
0000
0001
0000
,  // measure 92
0010
0000
0001
0100
0001
1000
0000
0100
,  // measure 93
0000
0010
0000
0001
0000
0100
0000
0020
,  // measure 94
0000
0000
0000
0000
,  // measure 95
0000
0000
0100
0130
,  // measure 96
0100
0000
0010
0000
0001
0100
1000
0000
,  // measure 97
1000
0000
0001
0000
0100
0010
0001
1000
,  // measure 98
0100
0000
0010
0000
0001
0100
1000
0000
,  // measure 99
0001
0000
0100
0000
0001
0100
1000
0010
,  // measure 100
0100
0000
0010
0000
0001
0100
1000
0000
,  // measure 101
0100
0000
0010
0000
0001
0010
0001
0100
,  // measure 102
1000
0000
0000
0100
0000
0000
0010
0000
,  // measure 103
0010
0001
0100
0010
0001
1000
0001
0100
,  // measure 104
1000
0000
0001
0000
0100
0010
0100
1000
,  // measure 105
0001
0000
0010
0000
0001
0100
1000
0001
,  // measure 106
0100
0000
0010
0000
1000
0001
0100
0010
,  // measure 107
0001
1000
0001
0100
0000
0010
0100
0000
,  // measure 108
0110
0000
0100
0000
0001
1000
0001
0100
,  // measure 109
1001
0000
0010
0000
1000
0001
0100
1000
,  // measure 110
1001
0000
0010
0000
0001
1000
0001
0100
,  // measure 111
0010
0100
0001
1000
0000
0100
1000
0000
,  // measure 112
0001
0000
0100
0000
0010
0001
1000
0100
,  // measure 113
0100
0000
0010
0000
0001
0100
0001
1000
,  // measure 114
0100
0000
0010
0000
0001
1000
0001
0100
,  // measure 115
1000
0010
0100
0001
0000
0100
1000
0000
,  // measure 116
0100
0000
0010
0000
0001
0100
1000
0010
,  // measure 117
0100
0000
0010
0000
0001
1000
0001
0100
,  // measure 118
1000
0000
1000
0000
0001
0100
0010
0001
,  // measure 119
1000
0001
0100
0010
0000
0100
0001
1000
;
