#TITLE:sue me;
#SUBTITLE:;
#ARTIST:Audrey Hobert;
#TITLETRANSLIT:;
#SUBTITLETRANSLIT:;
#ARTISTTRANSLIT:;
#GENRE:;
#CREDIT:;
#BANNER:;
#BACKGROUND:;
#LYRICSPATH:;
#CDTITLE:;
#MUSIC:Audrey Hobert - Sue Me (Lyrics).mp3;
#OFFSET:0.000000;
#SAMPLESTART:100.059883;
#SAMPLELENGTH:12.000000;
#SELECTABLE:YES;
#BPMS:0.000000=120.000000
;
#STOPS:0.000000=0.500000
;
#BGCHANGES:;
#KEYSOUNDS:;
#ATTACKS:;

//---------------dance-single - ----------------
#NOTES:
     dance-single:
     :
     Hard:
     12:
     0.673349,0.658711,0.035131,0.029276,1.390613,805.000000,799.000000,6.000000,5.000000,0.000000,0.000000,0.673349,0.658711,0.035131,0.029276,1.390613,805.000000,799.000000,6.000000,5.000000,0.000000,0.000000:
0000
0000
0000
0000
,
0000
0000
0000
0000
,
1000
0000
0001
0010
0000
0100
0001
0000
1000
0100
0000
0001
,
0010
0000
0100
0001
0000
1000
0100
0000
0001
0010
1000
0100
,
0001
0000
1000
0100
0000
0001
0010
0000
0100
0001
0000
1000
,
0100
0000
0001
0010
0000
0100
0001
1000
0100
0001
0010
0100
,
0001
0000
0100
1000
0000
0001
0100
0000
0010
0001
0000
0100
,
1000
0000
0001
0100
0000
0010
0001
0000
0100
0010
0001
0100
,
1000
0000
0100
1000
0000
0001
0100
0000
0010
0001
0000
0100
,
1000
0000
0100
0010
0000
0001
0100
0001
0100
0010
0001
0100
,
1000
0000
0010
0001
0000
0100
1000
0001
0100
0010
0001
0100
,
1000
0000
0100
0010
0000
0001
1000
0001
0100
0010
0001
0100
,
1000
0000
0001
0100
0000
0010
0001
0100
0010
0001
0100
0001
,
0100
0010
0001
1000
0001
0100
0010
0001
1000
0001
0100
0010
,
0001
0000
1000
0100
0000
0100
0010
0001
1000
0001
0100
0010
,
0001
0000
0100
1000
0000
0100
0010
0001
0100
0010
0001
0100
,
1000
0000
0100
0010
0000
0001
0100
1000
0010
0001
0100
0010
,
0001
1000
0001
0100
0010
0001
1000
0001
0100
0010
0001
0100
,
1000
0000
0001
0100
0000
0001
0100
0000
0010
0001
0000
0100
,
0010
0000
0000
0000
0001
0000
0100
0000
0000
0000
1000
0000
0001
0000
0000
0000
0100
0000
0010
0000
0000
1000
0001
0000
,
0100
0000
0100
1000
0000
0001
0100
0000
0010
0001
0000
0100
,
0010
0000
0000
0100
0000
0001
0010
0100
0001
1000
0001
0010
,
0100
0000
0001
0010
0000
0100
0001
1000
0100
0001
0010
0100
,
0001
0000
0100
1000
0000
0001
0010
0100
0001
1000
0001
0010
,
0100
0000
0010
0001
0000
0100
0001
1000
0100
0001
0010
0100
,
0001
1000
0001
0010
0100
0001
0100
0001
1000
0001
0010
0100
,
0001
0000
0010
0100
0000
0100
0010
0001
0100
0010
0001
0100
,
1000
0000
0001
0100
0000
0010
1000
0001
0100
0010
0001
0100
,
1000
0000
0100
0010
0000
0001
0100
0010
0001
1000
0100
0010
,
0001
0100
0001
0100
0010
0001
1000
0001
0100
0010
0001
0100
,
1000
0000
0001
0100
0000
0010
0001
0000
0100
0010
0000
0001
,
0100
0000
1000
0001
0000
0100
0010
0000
0001
0100
0000
0010
,
0001
0000
0100
1000
0000
0001
0100
0000
0010
0001
0000
0100
,
0010
0000
0001
0100
0000
0010
1000
0001
0100
0010
0001
0100
,
1000
0000
0000
0100
0000
0000
1000
0001
0100
0010
0001
0100
,
1000
0000
0001
0000
0010
0001
0100
0001
0100
0010
0001
0100
,
1000
0000
0001
0100
0000
0010
0001
0000
0100
1000
0000
0001
,
0100
0000
0010
0001
0000
0100
0001
0100
0010
0001
0100
1000
,
0010
0000
0100
0010
0000
0001
1000
0001
0100
0010
0001
0100
,
1000
0000
0100
0010
0000
0001
0100
0001
0100
0010
0001
1000
,
0100
0000
0100
0010
0000
0001
1000
0000
0100
0010
1000
0001
,
0100
0010
0001
1000
0001
0100
0010
0001
0100
1000
0000
0100
,
0001
0000
1000
0100
0000
0001
0010
0000
0100
0001
0000
0100
,
1000
0000
0000
0000
0001
0000
0100
0000
0000
0000
0010
0000
0001
0000
0000
0000
0100
0000
1000
0000
0000
0010
0001
0000
,
0010
0000
0001
0100
0000
0010
0001
0000
0100
1000
0000
0001
,
0100
0000
0001
0100
0010
0001
1000
0001
0100
0010
0001
0100
,
1000
0000
0010
0100
0000
0001
1000
0001
0100
0010
0001
0100
,
1000
0000
0100
0010
0000
0001
1000
0001
0100
0010
0001
0100
,
1000
0000
0100
0010
0000
0100
0010
0001
0100
0001
0100
0010
,
0001
1000
0001
0100
0010
0001
1000
0001
0100
0010
0001
0100
,
1000
0000
0001
0100
0000
0001
0100
0010
0001
1000
0001
0100
,
0010
0000
0001
0100
0010
0100
1000
0100
0010
0001
0100
0010
,
0001
0000
0100
0010
0000
0100
0010
0001
1000
0001
0100
0010
,
0001
1000
0001
0100
0010
0001
1000
0001
0100
0010
0001
0100
,
1000
0000
0001
0100
0000
0010
0001
0000
0100
0001
0000
0100
,
0010
0000
0001
0100
0010
0001
1000
0001
0100
0010
0001
0100
,
1000
0000
0001
0100
0000
0001
0100
0000
0010
0001
0100
0010
,
0001
1000
0001
0100
0010
0001
1000
0001
0100
0010
0001
0100
,
1000
0000
0100
1000
0000
0001
0100
0000
0010
0001
0000
0100
,
0010
0000
0001
0100
0010
0001
1000
0001
0100
0010
0001
0100
,
1000
0000
0100
1000
0000
0001
0100
0000
0010
0001
0100
0010
,
0001
0100
0001
0100
0010
0001
1000
0001
0100
0010
0001
0100
,
2000
0000
0000
3000
0000
0000
0001
1000
0001
0100
0010
0001
,
2002
0000
0000
3003
0000
0000
0010
0001
0100
0010
0001
0100
,
2200
0000
0000
3300
0000
0000
0001
0100
0001
0100
0001
0100
,
1000
0010
0100
0100
1000
0100
0100
1000
0100
0101
0101
0101
,
0101
0000
0010
0100
0000
0001
0010
0100
0001
1000
0001
0010
,
0100
0000
0100
0010
0000
0001
1000
0001
0100
0010
0001
0100
,
1000
0000
0010
0001
0000
0100
0010
0001
0100
0001
0100
0010
,
0001
0100
0001
0100
0010
0001
1000
0001
0100
0010
0001
0100
,
1000
0000
0100
0010
0001
0100
0001
1000
0001
0010
0100
0001
,
1000
0000
0001
0010
0100
0001
1000
0001
0010
0100
0001
1000
,
0001
0000
0010
0100
0000
0001
0010
0100
0001
1000
0001
0010
,
0100
0001
1000
0001
0010
0100
0001
1000
0001
0010
0100
0001
,
1000
0000
0001
0100
0000
0010
0001
0000
0100
1000
0000
0001
,
0100
0000
0010
0001
0000
0100
0010
0001
1000
0100
0010
0001
,
1000
0000
0001
0100
0000
0010
0001
0100
0001
0100
0010
0001
,
1000
0001
0100
0001
0010
0100
1000
0100
0001
0100
0001
1000
,
0001
0000
1000
0100
0000
0001
0010
0000
0100
0001
0000
1000
,
0100
0000
0001
0010
0001
0100
0010
0100
0001
1000
0001
0010
,
0100
0000
0001
0010
0000
0100
0001
0010
0100
0010
0100
0001
,
0100
0010
0001
1000
0001
0100
0010
0001
1000
0001
0100
0010
,
0001
1000
0001
0100
0010
0001
1000
0001
0100
0010
0001
0100
,
1000
0000
0010
0001
1000
0000
0000
0000
0000
0000
0000
0000
;

//---------------dance-single - ----------------
#NOTES:
     dance-single:
     :
     Medium:
     9:
     0.314509,0.558880,0.046842,0.076118,0.213715,376.000000,368.000000,8.000000,13.000000,0.000000,0.000000,0.314509,0.558880,0.046842,0.076118,0.213715,376.000000,368.000000,8.000000,13.000000,0.000000,0.000000:
0000
0000
0000
0000
,
0000
0000
0000
0000
,
0100
1000
0001
0010
,
0100
0001
1000
0001
,
0010
0100
0001
1000
,
0001
0010
0100
0001
,
1000
0001
0100
0010
,
0001
1000
0100
0010
,
0100
0001
1000
0001
,
0010
0100
0001
0100
,
0001
0000
0000
0100
0000
0000
1000
0001
0100
0010
0001
0100
,
1000
0000
0000
1000
0000
0000
0001
0100
1000
0010
0001
0100
,
1000
0010
0001
1000
,
0001
0000
0000
0100
0000
0000
0010
0001
0100
0010
0001
0100
,
1000
0000
0000
0100
0000
0000
1000
0001
0100
0010
0001
0100
,
1000
0000
0000
0100
0000
0000
1000
0001
0100
0010
0001
0100
,
1000
0010
0100
0001
,
0010
0000
0000
0100
0000
0000
0001
1000
0100
0001
0010
0100
,
0001
0010
0001
1000
,
0001
0000
0100
0000
0010
0000
0001
0100
,
1000
1000
0001
0100
,
0010
0000
0000
0000
0000
0000
1000
0001
0100
0001
0100
0001
,
0100
0010
0001
1000
,
0100
0100
0001
1000
,
0001
0010
0100
0001
,
1000
0001
0010
0100
,
0001
1000
0001
0010
,
0100
0001
0100
0001
,
0100
0001
0010
0100
,
0001
1000
0100
0010
,
0110
0010
1001
0100
,
0001
0100
0001
1000
,
0001
0010
0100
0001
,
1000
0001
0010
0010
,
0001
0000
0000
0100
0000
0000
0100
0001
0100
0010
0001
0100
,
1000
0000
0000
0000
0100
0001
0100
0001
1000
0001
0010
0100
,
0001
0010
0001
1000
,
0001
0100
0010
0200
,
0000
0000
0000
0300
0000
0000
0001
0001
0100
0010
0000
0100
,
1000
0000
0001
0100
0000
0000
0010
0001
1000
0100
0000
0010
,
0001
0000
1000
0100
0000
0000
0000
0000
0000
0000
0000
0000
,
1000
0100
0010
0001
,
0100
0010
0001
1000
,
0001
0000
0100
0000
0010
0000
0001
0100
,
1000
0100
0010
0001
,
1000
0001
0100
0010
,
0001
1000
0100
0010
,
0001
0010
0100
0001
,
0100
0001
0100
0001
,
0100
0100
0010
0100
,
0100
0001
0100
0001
,
1000
0001
0010
0100
,
0001
0000
0000
1000
0000
0000
0100
0001
0010
0001
0100
0010
,
0001
0010
0100
1000
0000
0000
0100
0000
0000
0100
0000
0000
,
0010
0001
1000
0100
,
0010
0100
0001
1000
,
0020
0000
0030
0010
,
0001
1000
0100
0010
,
0100
0001
1000
0001
,
0010
0010
0001
0100
,
2000
0000
3000
0001
,
1000
0001
0100
0010
,
2002
3003
0010
0100
,
0202
0303
1000
0100
,
0220
0330
0001
1000
,
0100
0001
0100
0010
0100
0001
1000
0100
0001
0010
0100
0001
,
2002
0000
0000
0000
,
0000
0000
0000
0000
,
0000
0000
0000
0000
,
0000
0000
0000
0000
,
3003
0100
0010
0001
,
1000
0001
0010
0100
,
0001
1000
0001
0010
,
0100
0001
1000
0001
,
0010
0001
1000
0100
,
0110
0010
0010
0100
,
0001
1000
0001
0010
,
0100
0001
1000
0001
,
0010
0100
0001
1000
,
0001
0100
0010
0001
,
1000
0000
0000
0001
0000
0010
0100
0001
0010
0010
0100
0010
,
0001
0100
0010
1000
0100
0010
0001
0010
0100
0100
0010
0001
,
2002
0000
0000
3003
,
0010
0000
0000
0000
;

//---------------dance-single - ----------------
#NOTES:
     dance-single:
     :
     Easy:
     6:
     0.255956,0.340188,0.058552,0.070263,0.000000,306.000000,296.000000,10.000000,12.000000,0.000000,0.000000,0.255956,0.340188,0.058552,0.070263,0.000000,306.000000,296.000000,10.000000,12.000000,0.000000,0.000000:
0000
0000
0000
0000
,
0000
0000
0000
0000
,
0010
0100
1000
0001
,
0010
0100
0010
0001
,
0100
0001
0010
0100
,
0001
1000
0001
0010
,
0100
0001
1000
0001
,
0010
0100
0001
1000
,
0001
0010
0100
0001
,
1000
0001
0010
0100
,
0001
0100
0001
0010
,
0100
0010
0100
0001
,
0100
0001
1000
0001
,
0010
0001
0100
0010
,
0001
1000
0100
0000
,
0010
0100
0001
1000
,
0001
0010
0100
0001
,
0100
0001
0100
0001
,
0010
0001
0100
1000
,
0100
0010
0001
0010
,
0100
0010
0100
0001
,
1000
0001
0010
0100
,
0001
0100
1000
0100
,
0010
0100
0001
1000
,
0001
0010
0100
0001
,
1000
0001
0010
0100
,
0001
1000
0001
0010
,
0100
0001
0100
0001
,
0010
0100
0001
0010
,
0001
0100
0010
0001
,
1000
0100
0010
0100
,
0001
1000
0001
0010
,
0100
0001
0001
0100
,
0010
0001
1000
0100
,
0010
0010
0001
0100
,
1000
0010
0100
0001
,
1000
0100
0001
0010
,
0100
0001
1000
0001
,
0010
0100
0001
1000
,
0001
0010
0100
0001
,
1000
0001
0010
0100
,
0001
1000
0001
0010
,
0100
0001
0010
0100
,
0001
1000
0001
0010
,
0010
0001
1000
0100
,
0100
0001
0010
0100
,
0001
1000
0001
0010
,
0100
0001
0100
1000
,
0001
0010
0100
0010
,
0100
0001
0100
1000
,
0100
0001
0100
0001
,
0001
1000
0100
0010
,
0100
0001
1000
0001
,
0010
0100
0001
1000
,
0001
0010
1000
0100
,
0001
0010
0100
0001
,
0200
0000
0300
0001
,
1000
0001
0010
0100
,
0001
1000
0001
0010
,
0100
0001
1000
0100
,
0020
0000
0030
0100
,
0001
1000
0001
0001
,
2002
3003
0010
0000
,
0220
0330
0010
0000
,
2002
3003
0110
0000
,
1001
0110
1001
0110
,
2002
0000
0000
0000
,
0000
0000
0000
0000
,
0000
0000
0000
0000
,
0000
0000
0000
3003
,
0010
0100
0001
1000
,
0001
0010
0100
0001
,
1000
0001
1000
0001
,
0100
0010
0001
1000
,
0001
0100
0010
0001
,
1000
0001
0100
0010
,
0001
1000
0001
0100
,
0010
0001
1000
0100
,
0010
0100
0001
1000
,
0001
0010
0100
0001
,
1000
0010
0001
1000
,
0001
0100
0001
0100
,
2002
0000
0000
3003
,
0010
0000
0000
0000
;

//---------------dance-single - ----------------
#NOTES:
     dance-single:
     :
     Beginner:
     3:
     0.073608,0.284563,0.046842,0.000000,0.000000,88.000000,80.000000,8.000000,0.000000,0.000000,0.000000,0.073608,0.284563,0.046842,0.000000,0.000000,88.000000,80.000000,8.000000,0.000000,0.000000,0.000000:
// measure 0
0000
0000
0000
0000
,  // measure 1
0000
0000
0000
0000
,  // measure 2
1000
0000
0000
0000
,  // measure 3
0100
0000
0000
0000
,  // measure 4
0001
0000
0000
0000
,  // measure 5
0010
0000
0000
0000
,  // measure 6
0100
0000
0000
0000
,  // measure 7
1000
0000
0000
0000
,  // measure 8
0100
0000
0000
0000
,  // measure 9
0001
0000
0000
0000
,  // measure 10
0010
0000
0000
0000
,  // measure 11
0100
0000
0000
0000
,  // measure 12
1000
0000
0000
0000
,  // measure 13
0100
0000
0000
0000
,  // measure 14
0010
0000
0000
0000
,  // measure 15
0100
0000
0000
0000
,  // measure 16
1000
0000
0000
0000
,  // measure 17
0100
0000
0000
0000
,  // measure 18
0001
0000
0000
0000
,  // measure 19
0100
0000
0000
0000
,  // measure 20
1000
0000
0000
0000
,  // measure 21
0100
0000
0000
0000
,  // measure 22
0001
0000
0000
0000
,  // measure 23
1000
0000
0000
0000
,  // measure 24
0100
0000
0000
0000
,  // measure 25
0001
0000
0000
0000
,  // measure 26
0010
0000
0000
0000
,  // measure 27
0100
0000
0000
0000
,  // measure 28
1000
0000
0000
0000
,  // measure 29
0001
0000
0000
0000
,  // measure 30
0010
0000
0000
0000
,  // measure 31
0100
0000
0000
0000
,  // measure 32
0001
0000
0000
0000
,  // measure 33
1000
0000
0000
0000
,  // measure 34
0100
0000
0000
0000
,  // measure 35
0000
0000
0000
0000
,  // measure 36
0010
0000
0000
0000
,  // measure 37
0100
0000
0000
0000
,  // measure 38
0001
0000
0000
0000
,  // measure 39
1000
0000
0000
0000
,  // measure 40
0100
0000
0000
0000
,  // measure 41
0001
0000
0000
0000
,  // measure 42
0010
0000
0000
0000
,  // measure 43
0100
0000
0000
0000
,  // measure 44
0001
0000
0000
0000
,  // measure 45
1000
0000
0000
0000
,  // measure 46
0100
0000
0000
0000
,  // measure 47
0001
0000
0000
0000
,  // measure 48
1000
0000
0000
0000
,  // measure 49
0100
0000
0000
0000
,  // measure 50
0001
0000
0000
0000
,  // measure 51
0010
0000
0000
0000
,  // measure 52
0100
0000
0000
0000
,  // measure 53
0001
0000
0000
0000
,  // measure 54
1000
0000
0000
0000
,  // measure 55
0100
0000
0000
0000
,  // measure 56
0000
0000
0000
0000
,  // measure 57
0010
0000
0000
0000
,  // measure 58
0100
0000
0000
0000
,  // measure 59
0010
0000
0000
0000
,  // measure 60
0000
0000
0000
0000
,  // measure 61
1000
0000
0000
0000
,  // measure 62
1001
0000
0000
0000
,  // measure 63
1001
0000
0000
0000
,  // measure 64
1001
0000
0000
0000
,  // measure 65
1001
1001
1001
1001
,  // measure 66
1001
0000
0000
0000
,  // measure 67
0010
0000
0000
0000
,  // measure 68
0100
0000
0000
0000
,  // measure 69
0001
0000
0000
0000
,  // measure 70
0010
0000
0000
0000
,  // measure 71
1000
0000
0000
0000
,  // measure 72
0100
0000
0000
0000
,  // measure 73
0001
0000
0000
0000
,  // measure 74
0010
0000
0000
0000
,  // measure 75
1000
0000
0000
0000
,  // measure 76
0100
0000
0000
0000
,  // measure 77
0001
0000
0000
0000
,  // measure 78
0010
0000
0000
0000
,  // measure 79
0100
0000
0000
0000
,  // measure 80
0001
0000
0000
0000
,  // measure 81
1000
0000
0000
0000
;
