#VERSION:0.83;
#TITLE:stateside;
#SUBTITLE:;
#ARTIST:PinkPanteress;
#TITLETRANSLIT:;
#SUBTITLETRANSLIT:;
#ARTISTTRANSLIT:;
#GENRE:;
#ORIGIN:;
#CREDIT:;
#BANNER:;
#BACKGROUND:;
#PREVIEWVID:;
#JACKET:;
#CDIMAGE:;
#DISCIMAGE:;
#LYRICSPATH:;
#CDTITLE:;
#MUSIC:PinkPantheress - Stateside (Official Audio).mp3;
#OFFSET:0.000000;
#SAMPLESTART:100.059883;
#SAMPLELENGTH:12.000000;
#SELECTABLE:YES;
#BPMS:0.000=123.500;
#STOPS:0.000=1.000,
240.000=1.000;
#DELAYS:;
#WARPS:;
#TIMESIGNATURES:0.000=4=4;
#TICKCOUNTS:0.000=4;
#COMBOS:0.000=1;
#SPEEDS:0.000=1.000=0.000=0;
#SCROLLS:0.000=1.000;
#FAKES:;
#LABELS:0.000=Song Start;
#BGCHANGES:;
#KEYSOUNDS:;
#ATTACKS:
;

//---------------dance-single - ----------------
#NOTEDATA:;
#CHARTNAME:;
#STEPSTYPE:dance-single;
#DESCRIPTION:;
#CHARTSTYLE:;
#DIFFICULTY:Hard;
#METER:12;
#RADARVALUES:0.476615,0.577907,0.404401,0.011894,0.338983,561.000000,493.000000,68.000000,2.000000,0.000000,0.000000,0.000000,0.000000,0.000000,0.476615,0.577907,0.404401,0.011894,0.338983,561.000000,493.000000,68.000000,2.000000,0.000000,0.000000,0.000000,0.000000,0.000000;
#CREDIT:;
#NOTES:
0000
0000
0000
0000
,
0000
0000
0000
0000
,
0000
0000
0000
0000
,
0000
0000
0000
0000
,
0010
0000
0000
0000
0100
0000
1000
0001
0000
0100
0010
0000
0001
0000
0100
0000
,
1000
0000
0100
0000
0001
0000
0010
0100
0000
0001
1000
0000
0100
0000
0001
0000
,
0010
0001
0010
0100
0000
0001
0010
0100
0000
0001
0010
1000
0000
0100
0010
0000
,
0110
0000
1001
0000
0110
0100
1001
0001
,
0001
0000
0100
0000
1000
0000
0100
0001
0000
1000
0100
0000
0001
0000
0100
0000
,
1000
0000
0100
0000
0001
0000
0010
0100
0000
0001
1000
0000
0100
0000
0001
0000
,
1000
0000
0100
0000
0001
0000
0010
0100
0000
0010
0001
0000
0100
0000
0010
0000
,
0001
0100
1000
0000
0000
0010
0001
0100
,
1000
0000
0000
0000
0001
0000
1000
0100
0000
0001
0010
0000
0100
0000
0001
0000
,
1000
0000
0100
0000
0001
0000
0010
0100
0000
0001
1000
0000
0100
0000
0010
0000
,
0100
0001
1000
0100
0000
0001
0010
0100
0000
1000
0100
0001
0000
0010
0100
0000
,
1001
0110
1001
0110
,
1000
0100
0001
0010
0100
0001
1000
0000
,
0010
0001
0100
0010
0001
0100
1000
0000
,
0010
0001
0100
0010
0001
0100
1000
0000
,
0100
1000
0001
0100
0010
0001
0100
0000
,
1000
0001
0100
0010
0001
0100
1000
0000
,
0101
0110
1100
0101
,
0100
0010
0001
1000
0001
0100
0010
0000
,
0110
0000
0000
0000
1001
0000
0000
0000
0110
0000
0000
0000
1000
0001
0000
0010
,
0000
0000
0000
0000
1000
0100
0000
0001
0000
0000
0000
0000
0001
0100
0000
1000
,
0000
0100
0000
0010
0000
0001
0000
0100
0000
0000
0000
0000
0010
0001
0000
0100
,
0000
0010
0000
0001
0000
1000
0000
0100
0000
0000
0000
0000
1000
0001
0000
0100
,
0000
0010
0000
0001
0000
0100
0000
1000
0000
0000
0000
0000
0001
0100
0000
1000
,
0000
0000
0000
0000
0100
0001
0000
1000
0000
0000
0000
0000
1000
0100
0001
0010
,
0100
0001
0000
0010
0000
0100
0000
0001
0000
0000
0000
0000
0100
1000
0000
0001
,
0000
0000
0000
0000
0001
0100
0000
1000
0000
0000
0000
0000
0001
0010
0000
0100
,
0000
0010
0000
0001
0000
0100
0000
1000
0100
0000
0010
0000
0001
0000
0100
0000
,
1000
0000
0000
0000
0100
0010
0001
0100
,
1000
0000
0000
0000
0010
0001
1000
0100
,
0000
0010
0001
0100
0010
0001
0100
1000
,
0000
0000
0000
0000
0000
1000
0100
0001
,
0010
0100
0001
1000
0001
0010
0100
0000
,
1100
0101
0110
0000
,
0100
0010
0001
1000
0001
0100
0010
0000
,
0101
0000
0110
0000
0100
0010
0100
0001
,
0010
0000
0000
0100
0010
0001
0100
1000
,
0100
0000
0000
0000
0010
0001
0100
1000
,
0000
0001
1000
0001
0100
0010
0001
1000
,
0100
0000
0000
0000
0000
0100
1000
0001
,
0100
0010
0001
1000
0001
0010
0100
0000
,
0101
1100
0110
0000
,
1000
0001
0100
0010
0001
0100
1000
0000
,
0110
0110
0101
1100
,
0220
0000
0000
0000
,
0000
0000
0000
0000
,
0000
0000
0000
0000
,
0000
0000
0000
0000
0330
1000
0100
0001
,
0110
0000
0101
0000
0000
0001
0100
0010
,
1001
0000
0101
0000
0000
0001
0110
0010
,
1001
0000
0101
0000
0000
1000
0100
0001
,
0110
0001
1000
0000
0000
1000
0110
0100
,
0101
0000
1100
0000
0000
0001
0100
0010
,
1001
0000
0000
0000
0000
0000
0100
1000
,
0001
0010
0000
0100
0000
0001
0000
1000
0000
0100
0000
0001
0000
0010
0100
0000
,
1001
0000
0000
0000
,
0000
0000
1001
0000
0101
0001
0100
0010
,
0001
0100
1000
0000
0010
0001
0100
0010
,
0001
0100
1100
0000
0101
0010
0100
0001
,
1000
0001
0010
0000
0100
0001
0100
0010
,
0001
0100
1001
0000
0001
0010
0100
0001
,
1000
0001
0010
0000
0101
0000
0110
0000
,
1001
0000
1001
0000
0100
0001
0100
0010
,
0001
0100
1000
0000
0101
0000
0110
0000
,
0100
0010
0100
1000
0011
0000
0000
0001
,
0100
0010
0001
0100
1001
0000
0000
0000
,
0010
0001
0100
1000
0101
0100
0001
0100
,
0010
0001
0100
1000
0100
0000
0000
0000
,
0000
0010
0001
0100
1010
0001
0100
0010
,
0001
0100
1000
0000
0101
0000
0110
0000
,
1100
0000
0110
0000
0101
0001
0100
0010
,
0001
0100
1000
0000
0110
0000
0101
0000
,
0110
0000
0000
0000
0100
0001
0000
0000
1001
0000
0000
0000
0100
0001
0000
0000
,
1000
0000
0000
0000
0100
0001
0000
0010
0000
0100
0000
0001
0000
1000
0000
0100
,
0000
0000
0000
0000
0010
0100
0000
0001
0000
0010
0000
0001
0000
0100
0000
1000
,
0000
0000
0000
0000
0010
0001
0000
0100
0000
0010
0000
0001
0000
0100
0000
1000
,
0000
0000
0000
0000
1000
0100
0000
0000
0101
0000
0000
0000
0001
0100
0000
0000
,
1000
0000
0000
0000
0100
0010
0001
0100
1000
0001
0000
0001
0000
0100
0000
1000
,
0000
0000
0000
0000
0100
0001
0000
0000
1000
0000
0000
0000
0001
0100
0000
0000
,
1000
0000
0000
0000
0100
0010
0000
0001
0000
0100
0000
0010
0000
0001
0000
0100
,
0000
1000
0000
0000
0110
0000
0000
0000
0101
0000
0000
0000
0000
0000
0000
0000
;

//---------------dance-single - ----------------
#NOTEDATA:;
#CHARTNAME:;
#STEPSTYPE:dance-single;
#DESCRIPTION:;
#CHARTSTYLE:;
#DIFFICULTY:Medium;
#METER:8;
#RADARVALUES:0.333886,0.450937,0.267618,0.011894,0.000000,393.000000,348.000000,45.000000,2.000000,0.000000,0.000000,0.000000,0.000000,0.000000,0.333886,0.450937,0.267618,0.011894,0.000000,393.000000,348.000000,45.000000,2.000000,0.000000,0.000000,0.000000,0.000000,0.000000;
#CREDIT:;
#NOTES:
0000
0000
0000
0000
,
0000
0000
0000
0000
,
0000
0000
0000
0000
,
0000
0000
0000
0000
,
1000
0000
0100
0000
0000
0010
0100
0010
,
1000
0100
0001
0000
0000
0000
0001
0100
,
0001
0100
0010
0001
1000
0001
0100
0000
,
1001
0110
1001
0110
,
0100
0000
0010
0000
0001
0100
0010
0001
,
0100
0000
0010
0000
0100
0010
0001
0100
,
1000
0000
0010
0000
1000
0001
0100
0010
,
0001
0100
1000
0000
0010
0100
0001
0100
,
1000
0000
0100
0000
1000
0001
0100
0010
,
0001
0100
1000
0000
0000
0000
0010
0001
,
0100
0010
0001
1000
0001
0100
0010
0000
,
1001
0110
1001
0110
,
1001
0001
0100
0010
,
0001
0100
0001
0100
,
0010
0001
0100
0001
,
0100
0010
0001
0100
,
1000
0001
0100
0010
0100
0001
1000
0000
,
0010
0010
0010
0010
,
0010
0001
0100
1000
,
1000
1000
1000
1000
,
0001
0000
0010
0000
,
0001
0100
1000
0000
,
0001
1000
0100
0000
,
0001
1000
0100
0000
,
0100
0000
1000
0000
,
0001
0010
0100
0000
,
0001
0000
1000
0000
,
0110
1001
0110
1001
,
0110
0000
0000
0000
0010
0001
1000
0001
,
0100
0000
0000
0000
0100
0001
1000
0100
,
0000
0001
1000
0001
0100
0010
0001
0100
,
1000
0000
0000
0000
0000
0100
1000
0001
,
0010
0100
0001
1000
0001
0010
0100
0000
,
1000
1000
1000
0000
,
1000
0001
0100
0010
0001
0100
1000
0000
,
1001
0110
1001
0110
,
0001
0000
0000
0001
0100
0010
0001
0100
,
1000
0000
0000
0000
0010
0001
0100
1000
,
0000
0001
1000
0001
0100
0010
0001
0100
,
1000
0000
0000
0000
0000
0100
1000
0001
,
0100
0001
0100
0010
0001
0100
1000
0000
,
1000
1000
1000
0000
,
0010
0001
0100
0010
0001
0100
1000
0000
,
0101
0110
1001
0110
,
0220
0000
0000
0000
,
0000
0000
0000
0000
,
0000
0000
0000
0000
,
0000
0000
0000
0000
0330
1000
0100
0001
,
0010
0000
0100
0000
0000
0100
0010
0001
,
0100
0000
1000
0000
0000
0001
0010
0100
,
1001
0000
1100
0000
0000
0001
0100
0010
,
0001
0100
1000
0000
0000
0010
0001
0100
,
1000
0000
0100
0000
0000
1000
0100
0001
,
0000
0000
0000
0000
,
0001
1000
0001
0100
0010
0001
0100
1000
,
0000
0000
0000
0000
,
0000
0101
1001
0010
,
0001
1000
0001
0100
,
0010
0101
0110
0000
,
0000
0000
0000
0000
,
0000
0000
0110
0000
0110
0001
1000
0100
,
0001
0010
0100
0000
0010
0000
0010
0000
,
0010
0000
0110
0000
0110
0001
1000
0001
,
0010
0100
0001
0000
1001
0000
0110
0000
,
1001
0000
0110
0000
1001
0000
0000
0001
,
0100
0010
0001
0100
1000
0000
0000
0000
,
1000
0100
0001
0010
0101
0001
1000
0001
,
0100
0010
0001
0100
1000
0000
0000
0000
,
0000
0001
0100
0010
1001
0010
0100
0001
,
1000
0001
0010
0000
0010
0000
0010
0000
,
0010
0000
0000
0000
1001
0100
0010
0001
,
1000
0001
0100
0000
0100
0000
0100
0000
,
0100
0100
0001
0000
,
1000
0000
0001
0100
,
0010
1001
0101
0001
,
0100
0000
0001
1000
,
0100
0000
0001
0000
,
1000
0000
0100
0001
,
1000
0000
0100
0000
,
0001
0000
1000
0100
,
0011
0110
0000
0000
;

//---------------dance-single - ----------------
#NOTEDATA:;
#CHARTNAME:;
#STEPSTYPE:dance-single;
#DESCRIPTION:;
#CHARTSTYLE:;
#DIFFICULTY:Easy;
#METER:6;
#RADARVALUES:0.219192,0.450937,0.231936,0.011894,0.000000,258.000000,219.000000,39.000000,2.000000,0.000000,0.000000,0.000000,0.000000,0.000000,0.219192,0.450937,0.231936,0.011894,0.000000,258.000000,219.000000,39.000000,2.000000,0.000000,0.000000,0.000000,0.000000,0.000000;
#CREDIT:;
#NOTES:
0000
0000
0000
0000
,
0000
0000
0000
0000
,
0000
0000
0000
0000
,
0000
0000
0000
0000
,
1000
1000
0000
0000
,
0100
0001
0000
0000
,
0100
1000
0001
0010
,
1001
0110
1001
0110
,
0100
1000
0000
0001
,
0100
1000
0000
0010
,
0001
0100
0000
0001
,
0100
0010
0000
0001
,
0100
1000
0000
1000
,
0100
0010
0000
0000
,
1000
0001
0100
0010
,
1001
0110
1001
0110
,
0001
0000
0000
0000
,
1000
0000
0000
0000
,
0100
0000
0000
0000
,
0001
0000
0000
0000
,
1000
0100
0010
0001
,
0100
0100
0100
0100
,
0010
0000
0000
0000
,
0100
0000
0000
0000
,
1000
0000
0001
0000
,
0001
0100
1000
0000
,
0001
1000
0100
0000
,
0010
0100
0001
0000
,
1000
0000
0001
0000
,
0100
0010
0001
0000
,
1000
0000
0001
0000
,
1001
0110
1001
0110
,
1001
0000
0010
0100
,
0001
0000
0001
0100
,
0010
1000
0100
0001
,
0010
0000
0000
0010
,
0001
0010
0100
1000
,
0100
0100
0100
0000
,
1000
0100
0010
0001
,
0010
0010
0010
0010
,
0110
0000
0100
1000
,
0001
0000
0010
0100
,
0001
1000
0001
0010
,
0100
0000
0000
0010
,
0001
0010
0100
1000
,
0001
0001
0001
0000
,
1000
0100
0010
0001
,
0001
0001
0001
0001
,
2002
0000
0000
0000
,
0000
0000
0000
0000
,
0000
0000
0000
0000
,
0000
0000
3003
1001
,
0110
0001
0000
0110
,
0110
1000
0000
0110
,
0101
1000
0000
0100
,
0001
1000
0000
1001
,
0110
0100
0000
0010
,
0000
0000
0000
0100
,
0010
1000
0100
0001
,
0000
0000
0000
0000
,
0000
0000
1001
0000
,
0000
0000
0010
0000
,
0000
0000
0100
0000
,
0000
0000
0001
0000
,
0000
0000
1000
0100
,
0010
0001
0010
0010
,
0010
0110
0001
0010
,
0100
1000
0100
0100
,
0100
0100
0001
0000
,
0100
0010
0001
0000
,
0010
0101
0110
0010
,
0001
0100
1000
0000
,
0000
0100
1000
0100
,
0010
0001
0001
0001
,
0001
1001
0110
1001
,
0110
1001
0110
1001
,
0110
1001
0110
0000
,
0001
0000
1000
0100
,
0001
0000
0010
0100
,
0001
0000
1000
0100
,
0001
0000
0010
0000
,
0100
0000
0001
1000
,
0100
0000
0010
0000
,
0001
0000
1000
0100
,
0011
0101
0000
0000
;

//---------------dance-single - ----------------
#NOTEDATA:;
#CHARTNAME:;
#STEPSTYPE:dance-single;
#DESCRIPTION:;
#CHARTSTYLE:;
#DIFFICULTY:Beginner;
#METER:2;
#RADARVALUES:0.070515,0.124145,0.035682,0.000000,0.000000,83.000000,77.000000,6.000000,0.000000,0.000000,0.000000,0.000000,0.000000,0.000000,0.070515,0.124145,0.035682,0.000000,0.000000,83.000000,77.000000,6.000000,0.000000,0.000000,0.000000,0.000000,0.000000,0.000000;
#CREDIT:;
#NOTES:
// measure 0
0000
0000
0000
0000
,  // measure 1
0000
0000
0000
0000
,  // measure 2
0000
0000
0000
0000
,  // measure 3
0000
0000
0000
0000
,  // measure 4
0100
0000
0000
0000
,  // measure 5
1000
0000
0000
0000
,  // measure 6
0001
0000
0000
0000
,  // measure 7
0000
0000
0000
0000
,  // measure 8
0100
0000
0000
0000
,  // measure 9
0001
0000
0000
0000
,  // measure 10
1000
0000
0000
0000
,  // measure 11
0100
0000
0000
0000
,  // measure 12
0001
0000
0000
0000
,  // measure 13
1000
0000
0000
0000
,  // measure 14
0100
0000
0000
0000
,  // measure 15
0000
0000
0000
0000
,  // measure 16
1001
0000
0000
0000
,  // measure 17
1000
0000
0000
0000
,  // measure 18
0010
0000
0000
0000
,  // measure 19
0100
0000
0000
0000
,  // measure 20
0001
0000
0000
0000
,  // measure 21
0010
0000
0000
0000
,  // measure 22
0000
0000
0000
0000
,  // measure 23
0000
0000
0000
0000
,  // measure 24
0100
0000
1000
0000
,  // measure 25
0001
0000
0000
0000
,  // measure 26
0010
0000
0000
0000
,  // measure 27
0100
0000
0000
0000
,  // measure 28
0001
0000
1000
0000
,  // measure 29
0100
0000
0000
0000
,  // measure 30
0001
0000
0010
0000
,  // measure 31
0100
0000
0000
0000
,  // measure 32
1000
0000
0000
0000
,  // measure 33
0001
0000
0000
0000
,  // measure 34
0010
0000
0000
0000
,  // measure 35
0100
0000
0000
0000
,  // measure 36
0001
0000
0000
0000
,  // measure 37
1000
0000
0000
0000
,  // measure 38
0100
0000
0000
0000
,  // measure 39
0001
0000
0000
0000
,  // measure 40
1000
0000
0000
0000
,  // measure 41
0100
0000
0000
0000
,  // measure 42
0001
0000
0000
0000
,  // measure 43
0010
0000
0000
0000
,  // measure 44
0100
0000
0000
0000
,  // measure 45
0001
0000
0000
0000
,  // measure 46
1000
0000
0000
0000
,  // measure 47
0100
0000
0000
0000
,  // measure 48
0110
0000
0000
0000
,  // measure 49
0000
0000
0000
0000
,  // measure 50
0000
0000
0000
0000
,  // measure 51
0000
0000
0000
0000
,  // measure 52
1000
0000
0000
0000
,  // measure 53
0100
0000
0000
0000
,  // measure 54
0001
0000
0000
0000
,  // measure 55
0010
0000
0000
0000
,  // measure 56
0100
0000
0000
0000
,  // measure 57
0000
0000
0000
0000
,  // measure 58
0001
0000
0000
0000
,  // measure 59
0000
0000
0000
0000
,  // measure 60
0000
0000
1001
0000
,  // measure 61
0000
0000
0100
0000
,  // measure 62
0000
0000
0010
0000
,  // measure 63
0000
0000
0100
0000
,  // measure 64
0000
0000
0001
0000
,  // measure 65
0000
0000
1000
0000
,  // measure 66
0000
0000
0110
0000
,  // measure 67
0000
0000
0001
0000
,  // measure 68
0000
0000
1001
0000
,  // measure 69
0000
0000
0100
0000
,  // measure 70
0000
0000
0010
0000
,  // measure 71
0000
0000
0100
0000
,  // measure 72
0000
0000
0001
0000
,  // measure 73
0000
0000
1000
0000
,  // measure 74
0000
0000
0110
0000
,  // measure 75
0000
0000
0001
0000
,  // measure 76
0000
0000
1000
0000
,  // measure 77
0001
0000
0010
0000
,  // measure 78
0000
0000
0100
0000
,  // measure 79
0000
0000
1000
0000
,  // measure 80
0000
0000
0001
0000
,  // measure 81
0010
0000
0100
0000
,  // measure 82
0000
0000
0001
0000
,  // measure 83
0010
0000
0100
0000
;
