#TITLE:spin the block;
#SUBTITLE:;
#ARTIST:Master Peace;
#TITLETRANSLIT:;
#SUBTITLETRANSLIT:;
#ARTISTTRANSLIT:;
#GENRE:;
#CREDIT:;
#BANNER:;
#BACKGROUND:;
#LYRICSPATH:;
#CDTITLE:;
#MUSIC:Master Peace - Spin The Block.ogg;
#OFFSET:0.000000;
#SAMPLESTART:100.059883;
#SAMPLELENGTH:12.000000;
#SELECTABLE:YES;
#BPMS:0.000000=136.000000
;
#STOPS:0.000000=0.150000
;
#BGCHANGES:0.000=Master Peace - Spin The Block.mp4=1.000=0=0=1=====,
99999=-nosongbg-=1.000=0=0=0 // don't automatically add -songbackground-
;
#KEYSOUNDS:;
#ATTACKS:;

//---------------dance-single - ----------------
#NOTES:
     dance-single:
     :
     Hard:
     12:
     0.542370,0.550204,0.172051,0.200726,0.238004,662.000000,632.000000,30.000000,35.000000,0.000000,0.000000,0.542370,0.550204,0.172051,0.200726,0.238004,662.000000,632.000000,30.000000,35.000000,0.000000,0.000000:
// measure 0
0000
0000
0000
0000
,  // measure 1
0000
0000
0000
0000
,  // measure 2
0000
0000
0000
0000
,  // measure 3
0000
0000
0000
0000
,  // measure 4
0001
0000
0101
0000
1001
0000
0100
0010
,  // measure 5
0001
1000
0001
0100
1000
0000
0100
0010
,  // measure 6
0001
1000
0001
0100
0001
0000
0100
0010
,  // measure 7
0001
1000
0001
0100
0011
0000
1001
0000
,  // measure 8
0110
0000
0101
0000
0110
0000
0001
1000
,  // measure 9
0001
0100
0001
1000
0100
0000
0100
0001
,  // measure 10
0100
0010
0001
1000
0001
0000
1000
0001
,  // measure 11
0010
0100
0001
1000
0001
0000
0101
0000
,  // measure 12
0010
0100
0001
0000
1000
0100
0001
0000
,  // measure 13
0001
0100
0010
0000
0001
0100
0001
0100
,  // measure 14
0001
1000
0100
0000
0100
0010
0001
1000
,  // measure 15
0001
0100
1000
0000
0000
0001
0100
0000
,  // measure 16
0001
0000
0100
0010
0000
0100
0001
0000
0000
0000
0001
0000
0100
0000
1000
0000
,  // measure 17
0100
0000
0001
1000
0000
0000
0100
0000
0000
0000
0000
0010
0001
0000
0000
0000
,  // measure 18
0100
0000
0001
1000
0000
0010
0100
0000
0000
0000
0001
0000
0100
0000
1000
0000
,  // measure 19
0010
0000
0001
1000
0000
0100
0001
0000
0000
0000
0000
0000
1001
0000
0000
0000
,  // measure 20
0010
0000
0100
0001
0000
0000
1000
0000
0000
0000
0100
0000
0001
0000
0010
0000
,  // measure 21
0010
0000
0100
0001
0000
1000
0001
0000
0000
0000
0000
0000
0010
0000
0000
0000
,  // measure 22
0200
0000
0000
0000
0300
0000
0001
0100
,  // measure 23
0000
0001
1000
0100
0000
0100
0001
0000
,  // measure 24
0101
0000
0110
0000
1001
0000
0100
0010
,  // measure 25
0001
0000
1000
0000
0001
0000
0100
0000
1000
0000
0001
1000
0100
0000
0010
0000
,  // measure 26
0001
1000
0001
0100
1000
0000
0010
0001
,  // measure 27
0100
0000
1000
0000
0001
0000
0100
0000
1000
0000
0001
0100
0001
0100
0001
0000
,  // measure 28
1001
0000
0101
0000
1001
0000
0100
0010
,  // measure 29
0001
0000
1000
0000
0001
0000
0100
0000
1000
0000
0100
0001
0010
0100
0001
0000
,  // measure 30
0001
1000
0001
0100
1000
0000
0010
0001
,  // measure 31
1000
0000
0001
0000
0100
0000
0010
0000
0001
0000
0010
0001
1000
0001
0100
0000
,  // measure 32
0020
0000
0030
0100
0002
0000
0003
0010
,  // measure 33
0200
0000
0300
0100
0010
0001
0100
1000
,  // measure 34
0020
0000
0030
0100
0001
0000
0100
0001
,  // measure 35
0100
0000
0001
0000
0100
0000
0010
0000
1000
0100
0001
0100
0001
1000
0001
0010
,  // measure 36
0200
0000
0300
0001
2000
0000
3001
0100
,  // measure 37
0020
0000
0030
0010
0001
1000
0001
0100
,  // measure 38
2000
3000
0000
0100
0001
0000
1000
0100
,  // measure 39
0001
0000
0010
0000
0001
0000
0100
0000
0010
0001
1000
0001
0100
0010
0001
1000
,  // measure 40
0100
0000
0101
0000
0110
0000
0100
0010
,  // measure 41
0001
1000
0001
0100
1000
0000
0100
0010
,  // measure 42
0001
1000
0001
0100
1000
0000
0100
0010
,  // measure 43
0001
1000
0001
0100
1000
0000
1000
0000
,  // measure 44
0001
0100
0010
0001
0100
0001
1000
0010
,  // measure 45
0001
1000
0100
0000
0100
0010
0001
1000
,  // measure 46
0001
0100
1000
0000
0001
0100
1000
0100
,  // measure 47
0010
0001
1000
0000
0000
0100
0001
0000
,  // measure 48
1000
0000
0100
0001
0000
0010
0100
0000
0000
0000
0001
0000
0010
0000
0100
0000
,  // measure 49
0001
0000
0000
0010
0000
0000
0100
0000
0000
0000
0000
0000
0001
0000
0000
0000
,  // measure 50
0010
0000
0100
0001
0000
0010
0100
0000
0000
0000
0001
0000
0100
0000
1000
0000
,  // measure 51
0010
0000
0100
0001
0000
1000
0100
0000
0001
0000
0010
0100
0000
0001
1000
0000
,  // measure 52
0100
0000
0001
0010
0000
1000
0100
0000
0000
0000
0010
0000
0100
0000
0001
0000
,  // measure 53
0100
0000
0001
0010
0000
0100
0001
0000
0000
0000
0000
0000
0010
0000
0000
0000
,  // measure 54
0200
0000
0000
0000
0300
0000
0100
0001
,  // measure 55
0001
0100
1000
0000
0000
0000
0010
0100
0001
0000
1000
0000
0100
0001
0010
0000
,  // measure 56
0101
0000
1100
0000
0101
0000
0010
0001
,  // measure 57
1000
0000
0001
0000
0100
0000
0010
0000
1000
0000
0100
0001
0100
0001
1000
0000
,  // measure 58
0010
0001
0100
0001
1000
0000
0100
0010
,  // measure 59
0001
0000
1000
0000
0001
0000
0100
0000
0010
0000
0001
0100
0001
0100
1000
0000
,  // measure 60
0101
0000
0110
0000
0101
0000
0100
0010
,  // measure 61
0001
0000
1000
0000
0001
0000
0100
0000
1000
0000
0100
0001
1000
0001
0010
0000
,  // measure 62
0100
0001
1000
0100
0001
0000
0100
0010
,  // measure 63
0001
0000
1000
0000
0001
0000
0100
0000
1000
0000
0001
0010
0100
0001
1000
0000
,  // measure 64
0200
0000
0300
0001
2000
0000
3000
0100
,  // measure 65
0002
0000
0000
0000
0003
0000
0010
0000
1000
0000
0100
0001
0100
0001
1000
0000
,  // measure 66
0002
0000
0003
1000
0100
0000
0100
0010
,  // measure 67
0001
0000
1000
0000
0001
0000
0100
0000
0010
0000
0000
0000
0100
0001
1000
0001
,  // measure 68
0020
0000
0030
0100
0002
0000
1003
0000
,  // measure 69
0200
0000
0000
0000
0300
0000
0001
0000
1000
0100
0001
1000
0001
0010
0100
0001
,  // measure 70
2000
0000
3000
0100
0001
0000
0010
0100
,  // measure 71
0001
0000
0001
0000
0100
0000
0010
0000
0100
0001
0100
0010
0001
1000
0001
0100
,  // measure 72
2000
0000
3000
0100
0002
0000
0003
0010
,  // measure 73
0002
0000
0003
1000
0100
0001
0100
0001
,  // measure 74
2000
0000
3000
0100
0001
0010
1000
0001
,  // measure 75
0000
0001
0000
1000
0000
0100
0000
0220
,  // measure 76
0000
0000
0330
0001
2000
0000
3000
0100
,  // measure 77
0020
0000
0030
0010
0001
0100
1000
0000
,  // measure 78
0002
0000
0003
0010
1000
0100
0001
0010
,  // measure 79
0000
0000
1000
0000
0100
0000
0001
0000
0010
0100
0001
0100
1000
0000
0000
0000
,  // measure 80
0000
0000
0101
0000
1001
0000
0100
0010
,  // measure 81
0001
1000
0001
0100
1000
0000
0110
0100
,  // measure 82
0001
1000
0001
0100
1000
0000
0010
0001
,  // measure 83
1000
0000
0001
0000
0100
0000
0010
0000
0001
0000
0100
0010
1000
0100
0001
0000
,  // measure 84
0101
0000
0110
0000
0101
0000
1000
0100
,  // measure 85
0001
0000
0100
0000
0001
0000
1000
0000
0001
0000
0010
0100
0001
1000
0001
0000
,  // measure 86
0010
0001
0100
1000
0001
0000
0100
0010
,  // measure 87
0001
0000
1000
0000
0001
0000
0100
0000
0010
0000
0001
1000
0001
0100
1000
0000
,  // measure 88
0002
0000
0003
0100
0020
0000
0030
0001
,  // measure 89
2000
0000
0000
0000
3000
0000
0100
0000
0001
0000
1000
0100
0001
0100
0001
0010
,  // measure 90
0200
0000
0300
0001
1000
0000
0001
0010
,  // measure 91
0001
0000
1000
0000
0001
0000
0100
0000
1000
0000
0000
0000
0001
1000
0001
0100
,  // measure 92
2000
0000
3000
0100
0002
0000
0003
0010
,  // measure 93
0200
0000
0000
0000
0300
0000
0001
0000
1000
0001
0100
0010
0001
0010
1000
0010
,  // measure 94
0200
0000
0300
0001
1000
0000
0100
0001
,  // measure 95
1000
0000
0100
0000
0001
0000
0100
0000
0010
0001
1000
0001
0100
0001
0100
1000
;
