#TITLE:space invader;
#SUBTITLE:;
#ARTIST:KAYTRANDA;
#TITLETRANSLIT:;
#SUBTITLETRANSLIT:;
#ARTISTTRANSLIT:;
#GENRE:;
#CREDIT:;
#BANNER:;
#BACKGROUND:;
#LYRICSPATH:;
#CDTITLE:;
#MUSIC:KAYTRANADA - SPACE INVADER (Official Audio).ogg;
#OFFSET:0.000000;
#SAMPLESTART:100.059883;
#SAMPLELENGTH:12.000000;
#SELECTABLE:YES;
#BPMS:0.000000=112.000000
;
#STOPS:0.000000=0.850000
;
#BGCHANGES:;
#KEYSOUNDS:;
#ATTACKS:;

//---------------dance-single - ----------------
#NOTES:
     dance-single:
     :
     Hard:
     14:
     0.844494,0.761743,0.000000,0.003624,1.359164,1631.000000,1631.000000,0.000000,1.000000,0.000000,0.000000,0.844494,0.761743,0.000000,0.003624,1.359164,1631.000000,1631.000000,0.000000,1.000000,0.000000,0.000000:
// measure 0
0000
0000
0000
0000
,  // measure 1
0000
0000
0000
0000
,  // measure 2
0000
0000
0000
0000
,  // measure 3
0000
0000
0000
0000
,  // measure 4
0100
0000
0010
0000
0000
0100
0000
0000
0001
1000
0000
0100
0000
0001
0010
0100
,  // measure 5
0001
0000
1000
0000
0000
0100
0000
0000
0001
0000
0010
0000
0100
0001
1000
0000
,  // measure 6
0100
0000
0010
0000
0000
0100
0000
0000
0001
0010
0000
0100
0000
0001
1000
0100
,  // measure 7
0001
0000
0010
0000
0000
0100
0000
0000
0001
0000
0100
0000
0000
1000
0100
0001
,  // measure 8
0010
0000
0010
0001
0000
0010
0100
0000
0001
1000
0000
0100
0001
1000
0010
0100
,  // measure 9
0001
0000
0010
0100
0000
0001
1000
0000
0100
0001
0000
0010
0100
0001
1000
0100
,  // measure 10
0001
0000
0001
0010
0000
0010
0100
0000
0100
0010
0000
0010
0100
0010
0001
1000
,  // measure 11
0100
0000
0010
0100
0000
0001
1000
0000
0100
0001
0000
0010
0100
0001
1000
0001
,  // measure 12
0010
0000
1000
0100
0000
0001
0010
0000
0100
0001
0000
1000
0100
0001
0010
0100
,  // measure 13
0001
0000
0010
0100
0000
0001
0010
0000
0100
0001
0000
1000
0100
0001
0010
0100
,  // measure 14
0001
0000
0010
0100
0000
0001
0010
0000
0001
0010
0000
0100
0001
1000
0100
0001
,  // measure 15
0010
0000
0100
0001
0000
1000
0100
0000
0001
0010
0000
0100
0001
1000
0100
0001
,  // measure 16
0010
0000
0100
0001
1000
0100
0001
0010
0100
0001
1000
0001
0010
0100
0001
1000
,  // measure 17
0001
0000
0100
0010
0001
0100
0001
0100
0010
0001
1000
0001
0100
0010
0100
1000
,  // measure 18
0001
0000
0100
0010
0001
0100
0001
0100
0010
0001
1000
0001
0100
0010
0001
0100
,  // measure 19
1000
0000
0100
0010
0001
0100
0001
0100
0010
0001
1000
0001
0100
0010
0001
0100
,  // measure 20
1000
0000
0100
0010
0001
0100
0001
0100
0010
0001
1000
0001
0100
0010
0001
0100
,  // measure 21
1000
0000
0100
0010
0001
0100
0001
0100
0010
0001
1000
0001
0100
0010
0001
0010
,  // measure 22
0100
0000
0010
0001
0100
0010
0001
0100
0010
0001
1000
0001
0100
0010
0001
0100
,  // measure 23
1000
0000
0100
0010
0001
0100
0001
0100
0010
0001
1000
0001
0100
0010
0001
0000
,  // measure 24
1000
0000
0000
0010
0000
0000
0100
0000
0000
0001
0000
0000
1000
0000
0000
0000
,  // measure 25
0100
0000
0000
0010
0000
0000
0001
0000
0000
1000
0000
0000
0100
0000
0000
0000
,  // measure 26
1000
0000
0000
0001
0000
0000
0100
0000
0000
0010
0000
0000
0001
0000
1000
0001
,  // measure 27
0010
0000
0000
0000
0100
0000
0001
0010
0000
0000
1000
0001
0010
0100
0001
1000
,  // measure 28
0001
0000
0010
0100
0000
0001
0010
0000
0000
0100
0000
0001
0010
1000
0100
0001
,  // measure 29
0010
0000
0001
1000
0000
0100
0001
0000
0010
0100
0000
0001
0010
0100
0001
1000
,  // measure 30
0100
0000
0001
0010
0000
0100
0001
0000
1000
0100
0000
0001
0010
0100
0001
1000
,  // measure 31
0001
0000
0010
0100
0000
0001
0010
0000
0100
0001
0000
1000
0100
0001
0010
0100
,  // measure 32
0001
0000
0100
0001
0000
0010
0100
0000
0001
1000
0000
0001
0010
0100
0001
0010
,  // measure 33
0100
0000
0100
1000
0000
0001
0100
0000
0100
0010
0000
0001
0100
0010
0001
1000
,  // measure 34
0100
0000
0010
0100
0000
0001
0010
0000
0100
0001
0000
0010
0100
0001
1000
0001
,  // measure 35
0010
0000
0100
0001
0000
1000
0100
0000
0001
0010
0000
0001
0010
0100
0001
1000
,  // measure 36
0001
0000
0010
0100
0000
0001
0010
0000
0100
0001
0000
0100
0001
0010
0100
0001
,  // measure 37
0100
0000
0010
0100
0000
0001
0100
0000
0000
0010
0100
0000
0001
0100
0001
0100
,  // measure 38
0001
0000
1000
0100
0000
0001
0010
0000
0100
0001
0000
1000
0100
0001
0010
0100
,  // measure 39
0001
0000
0010
0100
0000
0001
0010
0000
0100
0001
0000
0100
0001
0010
0100
0001
,  // measure 40
0100
0000
0010
0100
0001
1000
0001
0010
0100
0001
1000
0001
0010
0100
0001
0100
,  // measure 41
0001
0000
0100
0010
0001
0100
0001
0100
0010
0001
1000
0001
0100
0010
0001
0100
,  // measure 42
1000
0000
0100
0010
0001
0100
0001
0100
0010
0001
1000
0001
0100
0010
0001
0100
,  // measure 43
1000
0000
0001
0100
0010
0001
0100
0001
0100
0010
0001
1000
0001
0100
0001
1000
,  // measure 44
0100
0000
0100
0010
0001
0100
0001
0100
0010
0001
1000
0001
0100
0010
0001
0100
,  // measure 45
1000
0000
0100
0010
0001
0100
0001
0100
0010
0001
1000
0001
0100
0010
0001
0100
,  // measure 46
1000
0000
0100
0010
0001
0100
0001
0100
0010
0001
1000
0001
0100
0010
0001
0100
,  // measure 47
1000
0010
0001
0100
0000
0100
0001
0010
1000
0001
0000
0000
0010
0100
0001
1000
,  // measure 48
0001
0000
0100
0010
0001
0100
0001
0100
0010
0001
1000
0001
0100
0010
0001
1000
,  // measure 49
0100
0000
0010
0100
0001
1000
0001
0010
0100
0001
1000
0001
0010
0100
0001
0100
,  // measure 50
0001
0000
0010
0100
0001
1000
0001
0010
0100
0001
1000
0001
0010
0100
0001
0100
,  // measure 51
0010
0000
0001
0010
0100
0001
1000
0001
0010
0100
0001
1000
0001
0010
0100
0001
,  // measure 52
0010
0000
0100
0001
1000
0001
0010
0100
0001
1000
0001
0010
0100
0001
0100
0001
,  // measure 53
0100
0000
0001
0100
0001
0100
0001
0100
0010
0001
1000
0001
0100
0010
0001
0100
,  // measure 54
1000
0000
0010
0100
0001
0100
0001
0100
0010
0001
1000
0001
0100
0010
0100
1000
,  // measure 55
0001
0000
0010
0100
0001
0100
0001
1000
0001
0000
0000
0000
0010
0100
0001
1000
,  // measure 56
0001
0000
0100
0010
0001
0100
0001
0100
0010
0001
1000
0001
0100
0010
0001
0100
,  // measure 57
1000
0000
0100
0010
0001
0100
0001
0100
0010
0001
1000
0001
0100
0010
0001
0100
,  // measure 58
1000
0000
0100
0010
0001
0100
0001
0100
0010
0001
1000
0001
0100
0010
0001
0100
,  // measure 59
1000
0000
0001
0100
0001
0100
0001
0100
0010
0001
1000
0001
0100
0010
0001
1000
,  // measure 60
0100
0000
0100
0010
0001
0100
0001
0100
0010
0001
1000
0001
0100
0010
0001
0100
,  // measure 61
1000
0000
0100
0010
0001
0100
0001
0100
0010
0001
1000
0001
0100
0010
0001
0100
,  // measure 62
1000
0000
0100
0010
0001
0100
0001
0100
0010
0001
1000
0001
0100
0010
0001
0100
,  // measure 63
1000
0000
0001
0100
0001
0100
0010
0001
0100
1000
0000
0000
0001
0010
0100
0000
,  // measure 64
0100
0000
0010
0001
0100
0001
0100
0001
0100
0010
0001
1000
0001
0100
0001
1000
,  // measure 65
0100
0000
0001
0100
0001
0100
0001
0010
0100
0010
0001
1000
0001
0100
0001
0100
,  // measure 66
0100
0000
0001
0100
0001
0010
0001
0100
0010
0001
1000
0001
0100
0010
0001
0100
,  // measure 67
1000
0000
0100
0010
0001
0100
0001
0100
0010
0001
1000
0001
0100
0010
0001
0100
,  // measure 68
1000
0000
0010
0100
0001
0010
0001
0100
0010
0001
1000
0001
0100
0010
0001
0100
,  // measure 69
1000
0000
0001
0100
0010
0100
0001
1000
0001
0010
0100
0001
1000
0001
0010
0100
,  // measure 70
0001
0000
0100
0010
0001
0100
0001
0100
0010
0001
1000
0001
0100
0010
0001
0100
,  // measure 71
1000
0000
0010
0001
0100
0010
0001
1000
0100
0000
0010
0001
0100
0010
0001
0100
,  // measure 72
1000
0000
0001
0100
0010
0001
1000
0001
0100
0010
0001
0100
1000
0010
0001
0100
,  // measure 73
0001
0000
1000
0100
0001
0010
0100
0001
1000
0001
0010
0100
0001
1000
0001
0010
,  // measure 74
0100
0000
0001
0010
0100
0001
1000
0001
0010
0100
0001
1000
0001
0010
0100
0001
,  // measure 75
0100
0000
0010
0100
0001
1000
0001
0010
0100
0001
1000
0001
0010
0100
0001
0100
,  // measure 76
0001
0000
0010
0100
0001
1000
0001
0010
0100
0001
1000
0001
0010
0100
0001
0100
,  // measure 77
0001
0000
0010
0100
0001
1000
0001
0010
0100
0001
1000
0001
0010
0100
0001
1000
,  // measure 78
0001
0000
0010
0100
0001
0100
0010
0001
1000
0001
0100
0010
0001
1000
0001
0100
,  // measure 79
0010
0000
0001
1000
0001
0100
0010
0001
0100
0000
0010
0001
0100
0010
0001
0100
,  // measure 80
1000
0000
0010
0001
0010
0100
0001
1000
0001
0010
0100
0001
1000
0001
0010
0100
,  // measure 81
0001
0000
0010
0100
0001
1000
0001
0010
0100
0001
1000
0001
0010
0100
0001
0100
,  // measure 82
0010
0000
0100
0001
1000
0001
0010
0100
0001
1000
0001
0010
0100
0001
1000
0001
,  // measure 83
0010
0000
0100
0010
0001
0100
0001
0100
0010
0001
1000
0001
0100
0010
0001
1000
,  // measure 84
0100
0000
0010
0100
0001
0010
0100
0001
1000
0001
0010
0100
0001
1000
0001
0010
,  // measure 85
0100
0000
0100
0010
0001
0100
0001
0100
0010
0001
1000
0001
0100
0010
0001
0100
,  // measure 86
1000
0000
0010
0100
0001
1000
0001
0010
0100
0001
1000
0001
0002
0000
0000
0000
,  // measure 87
0000
0000
0000
0000
0000
0000
0000
0000
0000
0000
0003
0000
0010
0100
0001
1000
,  // measure 88
0001
0000
0010
0100
0001
1000
0001
0010
0100
0001
1000
0001
0010
0100
0001
1000
,  // measure 89
0001
0000
0010
0100
0001
1000
0001
0010
0100
0001
1000
0001
0010
0100
0001
1000
,  // measure 90
0001
0000
0100
0010
0001
0100
0001
0100
0010
0001
1000
0001
0100
0010
0001
0100
,  // measure 91
1000
0000
0010
0100
0000
0001
0010
0000
0100
0001
0000
0000
0100
0001
0010
0100
,  // measure 92
0001
0000
0100
0010
0001
0100
0001
0100
0010
0001
1000
0001
0100
0010
0001
0100
,  // measure 93
1000
0000
0010
0100
0001
1000
0001
0010
0100
0001
1000
0001
0010
0100
0001
0100
,  // measure 94
0001
0000
0100
0010
0001
0100
0001
0100
0010
0001
1000
0001
0100
0010
0001
0100
,  // measure 95
1000
0000
0100
0010
0001
0100
0001
0100
0010
0001
0000
0000
0100
0010
0001
1000
,  // measure 96
0100
0000
0010
0100
0001
1000
0001
0010
0100
0001
1000
0001
0010
0100
0001
0100
,  // measure 97
0001
0000
0010
0100
0001
1000
0001
0010
0100
0001
1000
0001
0010
0100
0001
0100
,  // measure 98
0010
0000
0001
0100
0001
0100
0001
0100
0010
0001
1000
0001
0100
0010
0100
1000
,  // measure 99
0001
0000
0010
0100
0001
1000
0001
0010
0100
0001
1000
0001
0010
0100
0001
0100
,  // measure 100
0001
0000
0100
0010
0001
0100
0001
0100
0010
0001
1000
0001
0100
0010
0001
0100
,  // measure 101
1000
0000
0010
0100
0001
0100
0001
0100
0010
0001
1000
0001
0100
0010
0001
1000
,  // measure 102
0100
0000
0010
0100
0001
1000
0001
0010
0100
0001
1000
0001
0010
0100
0001
0100
,  // measure 103
0001
0000
0001
0100
0010
0001
1000
0001
0100
0010
0001
1000
0100
0010
0001
0100
,  // measure 104
1000
0000
0100
0010
0001
0100
0001
0100
0010
0001
1000
0001
0100
0010
0001
0100
,  // measure 105
1000
0000
0001
0100
0001
1000
0001
0010
0100
0001
1000
0001
0010
0100
0001
1000
,  // measure 106
0001
0000
0100
0001
0100
0001
0010
0100
1000
0001
0100
0010
0001
0100
0001
1000
,  // measure 107
0100
0000
0010
0100
0001
1000
0001
0010
0100
0001
1000
0001
0010
0100
0001
0100
,  // measure 108
0001
0000
1000
0001
0100
0001
0010
0100
0010
0001
0100
0001
0100
0010
0001
0100
,  // measure 109
1000
0000
0001
0100
0001
1000
0001
0010
0100
0001
1000
0001
0010
0100
0001
0100
,  // measure 110
0010
0000
0001
0100
0001
0100
0001
0100
0010
0001
1000
0001
0100
0010
0001
0100
,  // measure 111
1000
0000
0010
0100
0000
0001
1000
0000
0100
0001
0000
0010
0100
0001
1000
0001
,  // measure 112
0010
0001
0100
0001
0100
0010
0001
1000
,  // measure 113
0001
0100
0010
0001
1000
0001
0100
0010
,  // measure 114
0001
0000
0100
0000
1000
0000
0001
0000
0100
0010
0001
0100
1000
0000
0010
0000
,  // measure 115
0100
0000
0001
0000
0010
0000
0100
0000
0001
1000
0100
0001
0010
0000
0100
0000
,  // measure 116
0001
0000
0010
0000
0100
0000
0001
0000
0010
0100
0000
0001
0000
0010
0100
0001
,  // measure 117
1000
0000
0100
0000
0001
0010
0100
0000
0000
0000
0010
0000
0100
0001
1000
0000
,  // measure 118
0010
0000
0100
0000
0000
0001
0010
0000
0010
0100
0000
0001
0000
0010
0100
0001
,  // measure 119
0100
0000
0010
0000
0000
0001
0010
0000
0100
0001
0000
1000
0000
0100
0001
0010
,  // measure 120
1000
0100
0001
0010
0100
0001
1000
0001
0010
0100
0001
0010
0100
0001
1000
0001
,  // measure 121
0010
0010
0001
0100
0001
0100
0001
0100
0010
0001
1000
0001
0100
0010
0001
1000
,  // measure 122
0001
0100
0010
0001
1000
0001
0100
0010
0001
1000
0001
0100
0001
0010
0001
0100
,  // measure 123
0010
0001
1000
0001
0100
0010
0001
0100
0001
0100
0010
0001
1000
0001
0100
0010
,  // measure 124
0001
1000
0001
0100
0010
0001
1000
0001
0100
0010
0001
1000
0001
0100
0010
0001
,  // measure 125
0100
0010
0001
1000
0001
0100
0010
0000
0000
0000
0000
0000
0000
0000
0000
0000
,  // measure 126
1000
0000
0000
0001
0000
0000
0000
0000
,  // measure 127
0001
0000
0000
0100
0000
0000
0000
0000
;
