#VERSION:0.83;
#TITLE:soap;
#SUBTITLE:;
#ARTIST:Yves & PinkPantheress;
#TITLETRANSLIT:;
#SUBTITLETRANSLIT:;
#ARTISTTRANSLIT:;
#GENRE:;
#ORIGIN:;
#CREDIT:;
#BANNER:;
#BACKGROUND:;
#PREVIEWVID:;
#JACKET:;
#CDIMAGE:;
#DISCIMAGE:;
#LYRICSPATH:;
#CDTITLE:;
#MUSIC:Soap (feat. PinkPantheress) [TubeRipper.cc].ogg;
#OFFSET:0.000000;
#SAMPLESTART:100.059883;
#SAMPLELENGTH:12.000000;
#SELECTABLE:YES;
#BPMS:0.000=134.000,
0.500=135.000;
#STOPS:;
#DELAYS:;
#WARPS:;
#TIMESIGNATURES:0.000=4=4;
#TICKCOUNTS:0.000=4;
#COMBOS:0.000=1;
#SPEEDS:0.000=1.000=0.000=0;
#SCROLLS:0.000=1.000;
#FAKES:;
#LABELS:0.000=Song Start;
#BGCHANGES:;
#KEYSOUNDS:;
#ATTACKS:
;

//---------------dance-single - ----------------
#NOTEDATA:;
#CHARTNAME:;
#STEPSTYPE:dance-single;
#DESCRIPTION:;
#CHARTSTYLE:;
#DIFFICULTY:Hard;
#METER:10;
#RADARVALUES:0.444015,0.499409,0.148649,0.141892,0.087838,460.000000,438.000000,22.000000,21.000000,0.000000,0.000000,0.000000,0.000000,0.000000,0.444015,0.499409,0.148649,0.141892,0.087838,460.000000,438.000000,22.000000,21.000000,0.000000,0.000000,0.000000,0.000000,0.000000;
#CREDIT:;
#NOTES:
// measure 0
0000
0000
0000
0000
,  // measure 1
0000
0000
0000
0000
,  // measure 2
0000
0000
0000
0000
,  // measure 3
0000
0000
0000
0000
,  // measure 4
0001
0010
0100
0010
0001
1000
0100
0000
,  // measure 5
0010
0001
0100
0010
0001
0100
1000
0000
,  // measure 6
0001
0100
1000
0000
0001
0100
1000
0000
,  // measure 7
0010
0001
0100
0000
0001
0100
1000
0000
,  // measure 8
0100
0010
0001
0100
0010
0001
0100
1000
,  // measure 9
0010
0001
0100
0010
0001
0100
2000
0000
,  // measure 10
3100
0010
0100
0001
1000
0000
0000
0100
,  // measure 11
0010
0001
0100
0010
0001
0100
1000
0000
,  // measure 12
0000
0000
0010
0000
0100
0000
0001
0010
,  // measure 13
0100
0010
0001
0100
1000
0010
0200
0000
,  // measure 14
0020
0000
0330
0001
0010
0100
0001
0100
,  // measure 15
1000
0001
0100
0010
0001
0100
2000
0000
,  // measure 16
3000
0100
0001
0010
0100
0000
0100
0010
,  // measure 17
0000
0000
0100
0001
1000
0000
0100
0000
,  // measure 18
0000
0100
0000
0001
0010
0000
0100
1000
,  // measure 19
0000
0010
0001
0100
1000
0000
0100
0000
,  // measure 20
0000
0010
0000
0100
0010
0000
0001
0100
,  // measure 21
0000
0010
0001
0100
1000
0000
0100
0001
,  // measure 22
0000
0101
0000
1100
0000
0202
0000
0000
,  // measure 23
0303
0000
0001
0100
0001
0010
0100
0001
,  // measure 24
0010
0100
0000
0001
0010
0000
1000
0100
,  // measure 25
0000
0010
0001
0100
1000
0000
0100
0000
,  // measure 26
0000
0010
0000
0100
0001
0000
1000
0100
,  // measure 27
0000
0100
0010
0001
1000
0000
0100
0000
,  // measure 28
0000
0010
0000
0100
0001
0000
0100
1000
,  // measure 29
0000
0010
0001
0100
0010
0000
1000
0110
,  // measure 30
0000
0101
0000
1100
0000
0220
0000
0000
,  // measure 31
0000
0330
0001
0100
0001
0010
0100
0020
,  // measure 32
0000
0000
0000
0000
,  // measure 33
0000
0000
0000
0000
0000
0000
0030
1000
,  // measure 34
0100
0000
0000
0001
0100
0000
0000
1000
,  // measure 35
0100
0000
0000
0010
0001
0000
0000
0100
,  // measure 36
1000
0001
0010
0100
0001
0000
0010
0000
,  // measure 37
0010
0001
0100
2000
0000
0000
3100
0000
,  // measure 38
0001
0010
0100
0010
0001
0100
1000
0100
,  // measure 39
0000
0010
0000
0100
0001
0000
1001
0000
,  // measure 40
0000
0010
0001
1000
0100
0001
0010
0010
,  // measure 41
0000
0010
0000
0100
0001
0000
2001
0000
,  // measure 42
3001
0000
0001
0100
0010
0001
2000
0000
,  // measure 43
3000
0100
0001
0010
0100
0001
2000
0000
,  // measure 44
0000
0000
0000
0000
3000
0000
0000
0100
0000
0010
0000
0001
0000
0100
0000
0010
,  // measure 45
0000
0001
0000
0100
0000
1000
0000
0001
0000
0100
0000
0010
0000
1000
0000
0001
,  // measure 46
1000
0000
0100
0001
0010
1000
0200
0000
,  // measure 47
0300
0000
0100
0010
0001
0100
2000
0000
,  // measure 48
0000
0000
0000
0000
3000
0000
0000
0100
0000
0001
0000
0010
0000
0100
0000
0001
,  // measure 49
0000
1000
0000
0010
0000
0001
0000
0100
0000
0010
0000
0001
0000
0100
0000
1000
,  // measure 50
0000
0010
0000
0100
0001
0000
0100
1000
,  // measure 51
0000
0001
0010
0100
0001
0000
1000
0000
,  // measure 52
0000
0100
0000
0001
0010
0000
0010
0001
,  // measure 53
0000
0100
0010
0001
1000
0000
0100
0000
,  // measure 54
0000
0010
0000
0100
0001
0000
1000
0100
,  // measure 55
0000
1000
0001
0100
0010
0000
0100
0011
,  // measure 56
0000
0110
0000
0101
0000
2200
0000
0000
,  // measure 57
0000
3300
0100
0001
0100
0001
1000
0001
,  // measure 58
0000
0001
0000
0010
0100
0000
0100
1000
,  // measure 59
0000
0001
0100
0010
0100
0000
1000
0000
,  // measure 60
0000
0010
0000
0100
0001
0000
1000
0100
,  // measure 61
0000
0001
0100
0010
0001
0000
0100
0000
,  // measure 62
0000
0010
0000
0100
0001
0000
0010
0001
,  // measure 63
0000
1000
0001
0100
0010
0000
0100
0011
,  // measure 64
0000
0101
0000
1100
0000
0220
0000
0000
,  // measure 65
0000
0330
0001
0100
0010
0001
1000
0100
,  // measure 66
0010
0100
0000
0001
0010
0000
0100
0100
,  // measure 67
0000
0010
0001
0100
1000
0000
0100
0000
,  // measure 68
0000
0010
0000
0100
0001
0000
0100
0100
,  // measure 69
0000
0010
0001
0100
1000
0000
0100
0000
,  // measure 70
0000
0001
0000
0010
0100
0000
0001
1000
,  // measure 71
0000
1000
0001
0100
0010
0000
0100
0011
,  // measure 72
0000
0101
0000
1100
0000
0220
0000
0000
,  // measure 73
0000
0330
0001
0100
0010
0001
1000
0100
,  // measure 74
0011
0100
0010
0001
0100
1000
0001
0010
,  // measure 75
0100
0010
0100
0001
1000
0001
0010
0100
,  // measure 76
0001
1000
0100
0001
0010
0001
1000
0100
,  // measure 77
0001
1000
0001
0100
0010
0001
0100
1000
,  // measure 78
0001
0100
0001
0100
0010
0001
1000
0100
,  // measure 79
0001
0100
0010
0001
1000
0001
0100
0010
,  // measure 80
0001
0100
0001
0100
0010
0001
1000
0001
,  // measure 81
0100
0010
0001
1000
0001
0100
0010
0001
,  // measure 82
1000
0100
0000
0000
0000
0000
0000
0000
;
