#TITLE:shake it to the max;
#SUBTITLE:;
#ARTIST:Moliy, Silent Addy, Skillinberg, & Shenessa;
#TITLETRANSLIT:;
#SUBTITLETRANSLIT:;
#ARTISTTRANSLIT:;
#GENRE:;
#CREDIT:;
#BANNER:;
#BACKGROUND:;
#LYRICSPATH:;
#CDTITLE:;
#MUSIC:MOLIY & Silent Addy, Skillibeng, Shenseea - Shake it to the max (Remix).mp3;
#OFFSET:0.000000;
#SAMPLESTART:100.059883;
#SAMPLELENGTH:12.000000;
#SELECTABLE:YES;
#BPMS:0.000000=98.000000
;
#STOPS:0.000000=0.100000
;
#BGCHANGES:;
#KEYSOUNDS:;
#ATTACKS:;

//---------------dance-single - ----------------
#NOTES:
     dance-single:
     :
     Hard:
     14:
     0.608526,0.631147,0.206294,0.022302,0.716452,764.000000,727.000000,37.000000,4.000000,0.000000,0.000000,0.608526,0.631147,0.206294,0.022302,0.716452,764.000000,727.000000,37.000000,4.000000,0.000000,0.000000:
0000
0000
0000
0000
,
0000
0000
0000
0000
,
0000
0000
0000
0000
,
0000
0000
0000
0000
,
0001
0100
0001
0100
0001
0100
0001
0100
1000
0000
0001
0100
0010
0000
1001
0000
,
0010
0000
0100
0010
0001
0000
0100
0010
0001
0100
1000
0001
0100
0010
0001
0100
,
0010
0001
1000
0010
0100
0000
0100
0001
1000
0000
0010
0100
0001
0000
1001
0000
,
1000
0000
0001
0100
0010
0000
0001
0100
0001
0100
0001
0100
1000
0000
1001
0000
,
0010
0000
0001
0000
0100
0000
0010
0000
0001
1000
0001
0100
0010
0000
1001
0000
,
0100
0000
0001
0000
0100
0000
0010
0000
0100
0010
0001
0100
1000
0000
1001
0000
,
0100
0000
0001
0000
0100
0000
0010
0000
0001
0100
0001
0100
1000
0000
1001
0000
,
0010
0000
0100
0001
1000
0000
0100
0001
0100
0001
0010
0100
0001
0000
1001
0000
,
0000
0000
0000
0000
0000
0000
0000
0000
1000
0000
0001
0000
0000
0010
0100
0000
0000
0000
0000
0000
0000
0000
0000
0000
0100
0000
0001
0000
0000
0100
0001
0000
,
0000
0000
0000
0000
0000
0000
0000
0000
1000
0000
0001
0000
0000
0010
0100
0000
0000
0000
0000
0000
0000
0000
0000
0000
0010
0000
0001
0000
0000
0100
1000
0000
,
0000
0000
0000
0000
0000
0000
0000
0000
0010
0000
0001
0000
0000
0100
0010
0000
0000
0000
0000
0000
0000
0000
0000
0000
0010
0000
0100
0000
0000
0001
1000
0000
,
0000
0000
0000
0000
0000
0000
0000
0000
0010
0000
0001
0000
0000
0100
0010
0000
0001
0000
0000
0000
1001
0000
0000
0000
1001
0000
0000
0000
1001
0000
0000
0000
,
1001
0000
0010
0000
0100
0000
0001
1000
0100
0001
0010
0100
0002
0000
0000
0000
,
0000
0000
0000
0000
0003
0000
0100
0010
0001
0100
0001
0100
1000
0000
1001
0000
,
0010
0100
0001
0000
1001
0000
0100
0010
0001
0100
0001
0100
1000
0000
1001
0000
,
0000
0000
0010
0001
0100
0000
0010
0000
0001
0010
0100
0001
1000
0000
0000
0000
,
0000
0000
0010
0001
0100
0001
0100
2000
,
0000
0000
0000
0000
3000
0000
0001
1000
0001
0100
0010
0001
0100
0000
0010
0100
,
0001
1000
0001
0010
0100
0001
0100
0001
0100
0010
0001
0100
1000
0000
0000
0000
,
0001
0100
0010
0100
0001
1000
0001
0010
0100
0000
1000
0001
0010
0000
1001
0000
,
0010
0000
0100
0001
1000
0000
0010
0001
0100
0010
0001
1000
0100
0000
1000
0001
,
0010
0001
0100
0000
0010
0000
0001
0100
0010
0000
0100
0001
1000
0000
1001
0000
,
0100
0000
0010
0100
0001
0000
0010
0001
0100
0010
0001
0100
1000
0000
1001
0000
,
0010
0000
0100
0000
0001
0000
0100
0000
0001
0100
0001
0100
1000
0000
1001
0000
,
0001
0000
0100
0000
0001
0000
0100
0000
0010
0100
0010
0100
0010
0000
1001
0000
,
0010
0000
0001
0000
0100
0000
1000
0000
0010
0100
0001
0100
0010
0000
1001
0000
,
0010
0000
0001
0100
1000
0000
0100
0010
0001
0100
0001
0100
0010
0000
1001
0000
,
0010
0100
0001
0100
0010
0001
1000
0001
0100
0010
0001
0100
1000
0000
1001
0000
,
0001
0100
0001
0010
0100
0001
1000
0001
0100
0010
0001
0100
1000
0000
1001
0000
,
0010
0001
1000
0001
0100
0001
0010
0100
0001
1000
0001
0100
0010
0000
1000
0001
,
0000
0100
0001
0100
0010
0001
1000
0001
0100
0010
0001
0100
1000
0000
0000
0000
,
0100
0000
0100
0000
0000
0000
0000
0000
0001
0000
0010
0000
0100
0001
1000
0000
,
0100
0000
0010
0000
0001
0100
0001
0100
0010
0001
1000
0001
0100
0001
0010
0001
,
1000
0000
0100
0000
0000
0000
0010
0000
0001
1000
0001
0100
0010
0000
0100
0000
,
0100
0010
0001
0100
1000
0000
0010
0100
0001
1000
0001
0010
0100
0000
0001
0000
,
0000
0000
0001
0100
0010
0001
1000
0001
0100
0010
0001
0000
2000
0000
0000
0000
,
0000
0000
0000
3000
0000
0000
0100
0001
1000
0001
0010
0100
0001
0000
0000
0000
,
0010
0000
0100
0000
0001
0000
0100
0010
0001
0100
0001
0100
1000
0000
1001
0000
,
0001
0100
0001
0100
0010
0001
1000
0001
0100
0010
0001
0100
1000
0000
0000
0000
,
0100
0001
0100
0010
0001
1000
0001
0100
0010
0000
0100
0001
1000
0000
1001
0000
,
0010
0000
0100
0001
1000
0000
0100
0001
0100
0001
0100
0001
0010
0000
0100
0001
,
1000
0100
0001
0000
0010
0100
0001
1000
0100
0000
0100
0001
0010
0000
1001
0000
,
0100
0000
0010
0100
0001
0000
0100
0010
0001
0100
0001
0100
1000
0000
1001
0000
,
0010
0000
0100
0000
0001
0000
1000
0000
0001
0010
0100
0001
1000
0000
1001
0000
,
1000
0000
0001
0000
0100
0000
0010
0000
0001
0100
0001
0100
0010
0000
1001
0000
,
0001
0000
0100
0000
0010
0000
0001
0000
0100
0010
0001
0100
1000
0000
1001
0000
,
0010
0000
0100
0010
0001
0000
0100
0010
0001
1000
0001
0100
0010
0000
1001
0000
,
0000
0010
0100
0001
0100
0000
0100
0010
0001
1000
0001
0100
0010
0000
1000
0001
,
0010
0000
0100
0001
1000
0000
0100
0000
0010
0000
0010
0100
0001
0000
0001
0010
,
0100
0000
0001
0010
0100
0000
0001
0100
1000
0000
0001
0100
0010
0000
0001
1000
,
0100
0000
0010
0001
1000
0000
0001
0100
0010
0000
0001
1000
0100
0000
0000
0000
,
0000
0000
0000
0001
0100
0000
0010
0001
0100
0010
0001
0000
2000
0000
0000
0000
,
0000
0000
0000
3000
0000
0000
0100
0001
0100
0010
0001
1000
0100
0000
1001
0000
,
0100
0010
0001
0000
0100
0000
0010
0001
0100
0010
0001
1000
0100
0000
1001
0000
,
0000
0000
0010
0000
0100
0001
1000
0001
0010
0100
0001
1000
0001
0000
1001
0000
,
0000
0000
0000
0000
0100
0010
0001
0100
0010
0001
1000
0001
0100
0000
0010
0000
,
0000
0000
0000
0000
0010
0100
1000
0000
0100
0010
0001
0100
1000
0000
0000
0000
,
0010
0001
1000
0001
0100
0000
0010
0001
0100
0010
0001
1000
0100
0000
0000
0000
,
0000
0000
0000
0000
0010
0001
1000
0001
0100
0010
0001
1000
0100
0000
0000
0000
,
0001
0100
0001
0100
0010
0001
1000
0001
0100
0000
0010
0001
0100
0000
1001
0000
,
0010
0000
0010
0100
0001
0000
0010
0001
0100
0010
0001
0100
1000
0000
0010
0001
,
0100
0010
0100
0000
0001
0000
1000
0100
0001
0010
0100
0001
1000
0000
1001
0000
,
1000
0000
0100
0001
0010
0000
0100
0001
1000
0001
0010
0100
0001
0000
1001
0000
,
0010
0000
0001
0000
0100
0000
0010
0000
0001
0100
0010
0001
0100
0000
0000
0000
,
0100
0000
0001
0000
0010
0000
0100
0000
0001
1000
0100
0001
0010
0000
0100
0000
,
0010
0000
0001
0000
0100
0000
0010
0000
0100
0010
0001
1000
0100
0000
0000
0000
,
0010
0000
0001
1000
0100
0000
0010
0100
0001
1000
0001
0100
0010
0000
0000
0000
;

//---------------dance-single - ----------------
#NOTES:
     dance-single:
     :
     Medium:
     9:
     0.405419,0.394467,0.228596,0.016727,0.000000,509.000000,468.000000,41.000000,3.000000,0.000000,0.000000,0.405419,0.394467,0.228596,0.016727,0.000000,509.000000,468.000000,41.000000,3.000000,0.000000,0.000000:
0000
0000
0000
0000
,
0000
0000
0000
0000
,
0000
0000
0000
0000
,
0000
0000
0000
0000
,
0010
0100
0001
1000
0001
0010
0100
1001
,
0010
0100
0001
1000
0001
1000
0001
1001
,
0010
0100
0001
1000
0001
0010
0100
1001
,
0010
0100
0001
1000
0001
0010
0100
1001
,
0100
0010
0001
1000
0001
0100
0010
1001
,
0010
0001
1000
0100
0001
0100
0010
1001
,
0010
0001
0100
0010
0001
0100
1000
0101
,
0100
0010
0001
1000
0001
0100
0010
1001
,
0000
0100
0001
0100
,
0001
0100
0010
0001
,
1000
0001
0100
0010
,
0001
0000
1000
0000
0100
0100
0100
0100
,
0000
0000
0000
0010
0001
0100
2000
0000
,
0000
3000
0000
0000
,
0010
0100
0001
1000
0001
0010
0100
0000
,
0000
0010
0100
0010
0001
0100
1000
0000
,
0000
0100
0001
2000
,
0000
0000
3000
0001
1000
0001
0100
0000
,
0100
0001
0100
0010
0001
0100
1000
0000
,
0100
0010
0001
1000
0001
0100
0010
1001
,
0010
0100
0001
1000
0001
0010
0100
1001
,
0010
0100
0001
1000
0001
0010
0100
1001
,
0010
0100
0001
1000
0001
1000
0001
1001
,
0100
0010
1000
0001
0100
0010
0001
1001
,
0100
0010
0001
1000
0001
0100
0010
1001
,
0100
0010
0001
1000
0001
0100
0010
1001
,
0100
0010
0001
1000
0001
0100
0010
1001
,
1000
0001
0100
0001
0100
0100
0010
1001
,
0100
0010
0001
1000
0001
0100
0010
1001
,
0100
0010
0001
0100
0001
0100
0010
1001
,
1000
0100
0001
0100
0010
0001
0010
1001
,
0010
0100
0000
0000
0001
0100
1000
0010
,
0100
0010
0001
0100
0001
0100
0010
0001
,
1000
0100
0000
0010
0100
0001
1000
0000
,
0100
1000
0001
0100
0001
0100
0010
0110
,
0000
0001
0100
0010
0001
1000
0100
0020
,
0000
0030
0000
0010
0001
1000
0100
0000
,
0100
0001
0100
0010
0001
1000
0100
0000
,
0001
1000
0001
0100
0001
0100
0010
0000
,
0001
0100
0001
0100
0001
0100
1000
1001
,
0010
0100
0001
0100
0001
0100
0001
1001
,
0010
0100
0001
1000
0001
0010
0100
1001
,
0100
0010
0001
1000
0001
0100
0010
1001
,
0010
0001
0100
1000
0001
0100
0010
1001
,
0010
0100
0001
1000
0001
1000
1000
1001
,
0100
0010
0001
1000
0001
0100
0010
1001
,
0100
0010
0001
1000
0001
0100
0010
1001
,
0100
0010
0001
1000
0001
0100
0010
1001
,
0010
0100
0001
0100
0010
0001
0010
1001
,
0100
0010
0001
0100
0001
0100
0010
1001
,
0100
0010
0100
0010
0010
0001
0010
1001
,
0000
0000
0100
1000
0001
0100
0010
1001
,
0000
0000
0000
0010
0001
0100
1000
1001
,
0100
0001
1000
0001
0100
0010
0001
1001
,
0010
1000
0001
0100
0010
0001
0100
1001
,
0000
0000
1000
0001
0100
0010
0100
0001
,
0000
0000
0010
0100
0001
1000
0100
0000
,
0100
0001
0100
0010
0001
1000
0100
0000
,
0000
0000
1000
0001
0100
0100
0100
0100
,
0100
0010
0001
1000
0001
0100
0010
1001
,
0100
0010
0001
1000
0001
0100
0010
1001
,
0010
0100
0001
1000
0001
0010
0100
1001
,
0001
0010
0100
0010
0100
0001
1000
1001
,
0010
0001
0100
0010
0001
0100
1000
0000
,
0010
0010
0001
0100
0001
1000
0100
0000
,
0010
0100
0001
1000
0001
0010
0100
0000
,
0010
0100
0001
1000
0001
0010
0100
0000
;

//---------------dance-single - ----------------
#NOTES:
     dance-single:
     :
     Easy:
     4:
     0.194346,0.197233,0.011151,0.033453,0.000000,244.000000,242.000000,2.000000,6.000000,0.000000,0.000000,0.194346,0.197233,0.011151,0.033453,0.000000,244.000000,242.000000,2.000000,6.000000,0.000000,0.000000:
0000
0000
0000
0000
,
0000
0000
0000
0000
,
0000
0000
0000
0000
,
0000
0000
0000
0000
,
0100
1000
0001
0010
,
0100
0001
1000
0001
,
0010
0100
0001
1000
,
0001
0010
0100
0001
,
1000
0001
0010
0100
,
0001
1000
0001
0010
,
0100
0001
1000
0001
,
0010
0100
0001
1000
,
0000
0100
0000
0010
,
0000
0001
0000
1000
,
0000
0100
0000
0001
,
0000
0010
0000
0000
,
0000
0000
1000
0200
,
0000
0000
0000
0300
,
0010
0001
0100
1000
,
0000
0001
1000
0100
,
0000
0000
0001
0000
1000
0000
0100
0200
,
0000
0000
0000
0300
0001
0000
1000
0000
,
0010
0001
0100
1000
,
0010
0100
0001
1000
,
0001
0010
0100
0001
,
0010
0100
0001
1000
,
0001
0010
0100
0001
,
1000
0010
0001
1000
,
0100
0010
0100
0001
,
1000
0001
0010
0100
,
0001
1000
0001
0010
,
1000
0100
0010
0001
,
0100
0001
0100
0010
,
0010
0100
0001
1000
,
0100
0001
0010
0100
,
1001
0000
1000
1000
,
1000
0100
0001
0100
,
0010
0010
0100
0001
,
1000
0100
0001
0100
,
0010
0000
0001
0000
1000
0000
0100
0200
,
0000
0300
0001
0100
,
0100
0010
0001
0100
,
0010
0001
1000
0100
,
0010
0100
0001
1000
,
0001
0010
0100
0001
,
1000
0001
0010
0100
,
0001
1000
0001
0010
,
0100
0001
1000
0001
,
0100
0010
0001
0100
,
0001
0100
0010
0001
,
1000
0001
0100
0010
,
0100
0001
0010
0100
,
0001
1000
0001
0010
,
0001
0100
0010
0001
,
1000
0001
0100
0010
,
0000
0100
0010
2002
,
0000
3003
0100
0010
,
0100
0010
1000
0010
,
0000
0001
0100
0010
,
0000
0000
0001
0000
1000
0000
0100
0200
,
0000
0300
0001
0000
1000
0000
0100
0000
,
0100
0001
0100
0010
,
0000
0001
1000
0100
,
0010
0100
0001
1000
,
0001
0010
0100
0001
,
1000
0001
0010
0100
,
0001
1000
0001
0010
,
0100
0001
1000
0001
,
0010
0001
0100
0010
,
0001
0100
0001
0100
,
0010
0001
1000
0100
;

//---------------dance-single - ----------------
#NOTES:
     dance-single:
     :
     Beginner:
     1:
     0.055755,0.097571,0.000000,0.000000,0.000000,70.000000,70.000000,0.000000,0.000000,0.000000,0.000000,0.055755,0.097571,0.000000,0.000000,0.000000,70.000000,70.000000,0.000000,0.000000,0.000000,0.000000:
// measure 0
0000
0000
0000
0000
,  // measure 1
0000
0000
0000
0000
,  // measure 2
0000
0000
0000
0000
,  // measure 3
0000
0000
0000
0000
,  // measure 4
0010
0000
0000
0000
,  // measure 5
0100
0000
0000
0000
,  // measure 6
0001
0000
0000
0000
,  // measure 7
1000
0000
0000
0000
,  // measure 8
0100
0000
0000
0000
,  // measure 9
0001
0000
0000
0000
,  // measure 10
0010
0000
0000
0000
,  // measure 11
0100
0000
0000
0000
,  // measure 12
0001
0000
1000
0000
,  // measure 13
0010
0000
0100
0000
,  // measure 14
0001
0000
1000
0000
,  // measure 15
0100
0000
0001
0000
,  // measure 16
0010
0000
0000
0000
,  // measure 17
0100
0000
0000
0000
,  // measure 18
0000
0000
0000
0000
,  // measure 19
0001
0000
0000
0000
,  // measure 20
0010
0000
0000
0000
,  // measure 21
0001
0000
0000
0000
,  // measure 22
0010
0000
0000
0000
,  // measure 23
0100
0000
0000
0000
,  // measure 24
1000
0000
0000
0000
,  // measure 25
0100
0000
0000
0000
,  // measure 26
0001
0000
0000
0000
,  // measure 27
0010
0000
0000
0000
,  // measure 28
0100
0000
0000
0000
,  // measure 29
0001
0000
0000
0000
,  // measure 30
1000
0000
0000
0000
,  // measure 31
0100
0000
0000
0000
,  // measure 32
0010
0000
0000
0000
,  // measure 33
0100
0000
0000
0000
,  // measure 34
0001
0000
0000
0000
,  // measure 35
1000
0000
0000
0000
,  // measure 36
0100
0000
0000
0000
,  // measure 37
0001
0000
0000
0000
,  // measure 38
0010
0000
0000
0000
,  // measure 39
0100
0000
0000
0000
,  // measure 40
0001
0000
0000
0000
,  // measure 41
1000
0000
0000
0000
,  // measure 42
0100
0000
0000
0000
,  // measure 43
0001
0000
0000
0000
,  // measure 44
0010
0000
0000
0000
,  // measure 45
0100
0000
0000
0000
,  // measure 46
0001
0000
0000
0000
,  // measure 47
1000
0000
0000
0000
,  // measure 48
0100
0000
0000
0000
,  // measure 49
0001
0000
0000
0000
,  // measure 50
0010
0000
0000
0000
,  // measure 51
0100
0000
0000
0000
,  // measure 52
1000
0000
0000
0000
,  // measure 53
0001
0000
0000
0000
,  // measure 54
0010
0000
0000
0000
,  // measure 55
0100
0000
0000
0000
,  // measure 56
0001
0000
0000
0000
,  // measure 57
1000
0000
0000
0000
,  // measure 58
0100
0000
0000
0000
,  // measure 59
0001
0000
0000
0000
,  // measure 60
0010
0000
0000
0000
,  // measure 61
0100
0000
0000
0000
,  // measure 62
0001
0000
0000
0000
,  // measure 63
1000
0000
0000
0000
,  // measure 64
0100
0000
0000
0000
,  // measure 65
0001
0000
0000
0000
,  // measure 66
0010
0000
0000
0000
,  // measure 67
0100
0000
0000
0000
,  // measure 68
1000
0000
0000
0000
,  // measure 69
0001
0000
0000
0000
,  // measure 70
0010
0000
0000
0000
;
