#TITLE:season of freaks;
#SUBTITLE:;
#ARTIST:Eli;
#TITLETRANSLIT:;
#SUBTITLETRANSLIT:;
#ARTISTTRANSLIT:;
#GENRE:;
#CREDIT:;
#BANNER:;
#BACKGROUND:;
#LYRICSPATH:;
#CDTITLE:;
#MUSIC:Eli - Season of Freaks (Audio).ogg;
#OFFSET:0.000000;
#SAMPLESTART:100.059883;
#SAMPLELENGTH:12.000000;
#SELECTABLE:YES;
#BPMS:0.000000=128.000000
;
#STOPS:0.000000=0.950000
;
#BGCHANGES:;
#KEYSOUNDS:;
#ATTACKS:;

//---------------dance-single - ----------------
#NOTES:
     dance-single:
     :
     Hard:
     13:
     0.475116,0.755456,0.004308,0.025848,0.228326,772.000000,771.000000,1.000000,6.000000,0.000000,0.000000,0.475116,0.755456,0.004308,0.025848,0.228326,772.000000,771.000000,1.000000,6.000000,0.000000,0.000000:
// measure 0
0000
0000
0000
0000
,  // measure 1
0000
0000
0000
0000
,  // measure 2
0000
0000
0000
0000
,  // measure 3
0000
0000
0000
0000
,  // measure 4
0100
0000
0000
0000
0001
0000
0000
0000
1000
0000
0000
0010
0001
0000
0100
0000
,  // measure 5
0010
0000
0000
0000
0100
0000
0000
0000
0010
0000
0000
0100
0001
0000
0010
0000
,  // measure 6
0100
0000
0000
0000
0010
0000
0000
0000
0100
0000
0000
0010
0001
0000
0010
0000
,  // measure 7
0001
0000
0000
0000
0100
0000
0000
0000
0010
0000
0000
0001
1000
0000
0100
0000
,  // measure 8
1000
0001
0100
0010
,  // measure 9
0000
0000
0100
0000
0000
0000
0001
0000
1000
0000
0000
0001
0010
0000
0100
0000
,  // measure 10
0001
0010
0100
0010
0001
0000
1000
0001
,  // measure 11
0100
0010
0001
1000
0100
0000
0000
0100
,  // measure 12
0001
1000
0100
0000
,  // measure 13
0001
0000
0010
0100
0000
0001
0100
0010
,  // measure 14
0001
0100
0001
0100
1000
0010
0010
0001
,  // measure 15
0100
0001
1000
0100
0000
0000
0001
0100
,  // measure 16
0010
0001
1000
0100
0000
0100
0010
0001
,  // measure 17
0100
0001
0100
1000
0000
0100
0000
0001
,  // measure 18
1000
0001
0100
1000
0000
0002
0000
0000
,  // measure 19
0000
0000
0000
0000
0003
0000
0010
0100
,  // measure 20
0010
0001
0100
1000
0000
0100
0010
0001
,  // measure 21
0100
0001
0100
1000
0000
0100
0000
0000
,  // measure 22
0001
0100
0010
0001
1000
0001
0100
0010
,  // measure 23
0001
1000
0100
0100
0000
0010
0000
0000
,  // measure 24
1000
0001
0100
0000
0100
1000
0001
0000
,  // measure 25
0100
0010
0001
0000
0100
0000
0010
0000
,  // measure 26
0001
0100
0010
0000
0001
1000
0100
0000
,  // measure 27
0001
0010
1000
0000
0001
0100
0010
0000
,  // measure 28
0001
1000
0100
0000
0001
1000
0100
0000
,  // measure 29
0001
0100
0010
0000
0001
0000
0100
0000
,  // measure 30
0010
0001
0100
0000
0010
0001
0100
0000
,  // measure 31
0010
0001
1000
0100
0000
0000
0001
0000
,  // measure 32
0100
0000
0001
0000
0010
0000
0100
0001
1000
0100
0001
0000
1000
0000
0100
0000
,  // measure 33
0001
0000
0100
0000
0010
0000
0100
1000
0001
0010
0100
0000
0001
0000
0010
0000
,  // measure 34
0001
0000
0100
0000
0010
0000
0001
1000
0001
0100
0010
0000
0001
0000
0100
0000
,  // measure 35
1000
0000
0010
0000
0001
0000
0100
0010
0001
1000
0001
0000
1000
0000
0010
0000
,  // measure 36
0001
0000
0100
0000
0010
0000
0001
0100
0010
0001
1000
0000
0100
0000
0010
0000
,  // measure 37
0001
0000
0100
0000
0010
0000
0001
0100
0001
0100
1000
0000
0100
0000
0010
0000
,  // measure 38
0001
0000
0100
0000
0010
0000
0001
0100
0001
0100
1000
0000
0010
0000
0001
0000
,  // measure 39
1000
0000
0001
0000
0100
0000
0010
0100
0001
0100
1000
0000
0001
0000
1000
0000
,  // measure 40
0100
0000
0010
0000
0100
0001
1000
0000
,  // measure 41
0100
0001
0000
0010
0000
0000
0000
0000
,  // measure 42
0001
1000
0100
0000
0001
0100
0010
0000
,  // measure 43
0001
0100
1000
0100
0000
0000
0000
0000
,  // measure 44
0010
0001
0100
0000
,  // measure 45
0020
0000
0000
0000
0030
0000
0000
0001
,  // measure 46
0010
0100
0001
0000
0010
0000
0100
0001
,  // measure 47
1000
0100
0010
0001
0000
1000
0100
0001
,  // measure 48
0100
0000
0100
0001
0000
0100
0010
0001
,  // measure 49
1000
0000
0010
0100
0000
0100
0001
0010
,  // measure 50
0100
0001
1000
0100
0001
0000
0001
0100
,  // measure 51
1000
0000
0010
0100
0000
0010
0001
0100
,  // measure 52
1000
0010
0001
0010
0100
0001
0010
0100
,  // measure 53
0001
0100
1000
0100
0001
1000
0100
0000
,  // measure 54
0001
0100
0010
0000
0001
1000
0100
0000
,  // measure 55
0100
0010
0001
1000
0001
0100
0001
0100
,  // measure 56
1000
0010
0001
0000
0001
0100
1000
0000
,  // measure 57
0010
0100
0001
0000
1000
0000
0010
0000
,  // measure 58
0001
0100
0010
0000
0001
1000
0100
0000
,  // measure 59
0100
0010
0001
0000
0001
0100
1000
0000
,  // measure 60
0001
0010
0100
0000
0001
0100
1000
0000
,  // measure 61
0010
0001
0100
0000
0100
0000
1000
0000
,  // measure 62
0001
0100
0010
0000
0001
0100
0010
0000
,  // measure 63
1000
0001
0100
0010
0000
0000
0001
0000
,  // measure 64
0100
0000
0010
0000
0100
0000
0010
0001
0100
0001
0100
0000
1000
0000
0010
0000
,  // measure 65
0001
0000
0100
0000
0010
0000
0001
0100
0010
0001
1000
0000
0100
0000
0100
0000
,  // measure 66
1000
0000
0001
0000
0100
0000
0010
0001
0100
1000
0100
0000
0001
0000
0010
0000
,  // measure 67
0100
0000
0010
0000
0001
0000
0100
0010
0001
1000
0100
0000
0001
0000
0100
0000
,  // measure 68
0010
0000
0001
0000
0100
0000
1000
0001
0100
0010
0001
0000
0100
0000
1000
0000
,  // measure 69
0001
0000
0100
0000
0010
0000
0001
0100
0010
1000
0001
0000
0100
0000
0010
0000
,  // measure 70
0001
0100
0001
0010
0100
0001
1000
0100
0001
0100
0001
0010
0100
0000
0001
0000
,  // measure 71
0010
1000
0100
0010
0001
1000
0001
0100
0010
1000
0100
0001
0010
0000
0100
0000
,  // measure 72
0001
1000
0100
0001
0100
0001
1000
0001
0010
0100
0001
1000
0001
0000
0010
0000
,  // measure 73
1000
0100
0001
0000
0010
0100
0001
0000
,  // measure 74
0100
0001
1000
0000
0100
0010
0001
0000
,  // measure 75
0010
0001
0100
0000
0000
0000
0010
0000
,  // measure 76
0000
0000
0000
0010
0001
0100
1000
0000
,  // measure 77
0000
0000
0000
0000
0000
0000
1000
0000
0001
0000
0100
0000
0000
1000
0000
0000
,  // measure 78
0100
0000
0000
0000
,  // measure 79
0000
0000
0000
0000
0000
0000
1000
0100
,  // measure 80
0001
0000
0010
0100
0000
0000
0100
0001
,  // measure 81
1000
0100
0010
0000
0000
0000
0000
0010
,  // measure 82
0001
0100
1000
0000
0000
0000
0000
1000
,  // measure 83
0100
0001
0000
0010
0000
0000
0000
0000
0000
0000
0000
0000
0000
0000
0001
0000
,  // measure 84
0100
0000
0010
0000
0000
0000
0000
0010
,  // measure 85
0001
0100
1000
0000
0000
0000
0000
0010
,  // measure 86
0001
0100
1000
0100
0000
0000
0000
0010
,  // measure 87
0001
1000
0100
0000
0220
0000
0330
0000
,  // measure 88
0001
1000
0100
0000
0001
0010
0100
0000
,  // measure 89
0001
1000
0100
0000
0001
0000
0010
0000
,  // measure 90
0100
0001
1000
0000
0001
0010
0100
0000
,  // measure 91
0001
1000
0100
0000
0001
0010
0100
0000
,  // measure 92
0001
0100
1000
0000
0010
0100
0001
0000
,  // measure 93
1000
0100
0001
0000
0010
0000
0100
0000
,  // measure 94
0001
0100
0001
0000
1000
0100
0001
0000
,  // measure 95
0010
0001
0100
1000
0000
0000
0001
0000
,  // measure 96
1000
0010
0001
0100
0010
0001
1000
0001
,  // measure 97
0100
0010
0001
0100
0001
0100
1000
0010
,  // measure 98
0001
0100
0010
0001
0100
0001
0100
0010
,  // measure 99
0001
1000
0001
0100
0010
0001
1000
0001
,  // measure 100
0100
0010
0001
0100
0001
0100
0010
0001
,  // measure 101
1000
0001
0100
0010
0001
0100
0001
0100
,  // measure 102
0010
0001
1000
0001
0100
0010
0001
0100
,  // measure 103
0001
0100
0010
0001
1000
0001
0100
0010
,  // measure 104
1000
0000
0100
0000
0001
0000
0010
0100
0001
1000
0001
0000
0010
0000
0100
0000
,  // measure 105
0001
0000
0100
0000
0010
0000
0001
0100
0001
0100
1000
0000
1000
0000
0100
0000
,  // measure 106
0001
0010
0100
0001
,  // measure 107
0000
0000
0000
0000
,  // measure 108
0001
0010
0000
0100
0000
0000
0001
0000
0100
1000
0000
0001
0000
0000
0010
0000
,  // measure 109
0100
0001
0000
1000
0000
0000
0100
0000
0100
0010
0000
0001
0000
0000
0100
0000
,  // measure 110
0001
0010
0000
0100
0000
0000
0010
0000
0001
0100
0000
1000
0000
0000
0100
0000
,  // measure 111
0010
0001
0000
0100
0000
0000
0010
0000
0010
0100
0000
0001
0000
0000
1000
0000
,  // measure 112
0100
0010
0000
0001
0000
0000
0100
0000
0010
0001
0000
1000
0000
0000
0100
0000
,  // measure 113
0100
0001
0000
0010
0000
0000
0001
0000
0100
1000
0000
0100
0000
0000
0010
0000
,  // measure 114
0001
0100
0000
0010
0000
0000
0001
0000
0100
1000
0000
0001
0000
0000
0100
0000
,  // measure 115
0010
0001
0000
0100
0000
0000
0010
0000
0001
0100
0000
1000
0000
0000
0010
0000
,  // measure 116
0100
0010
0000
0001
0000
0000
0001
0000
0100
0001
0000
0010
0100
0001
1000
0000
,  // measure 117
0100
0010
0000
0001
0000
0000
0100
0000
1000
0100
0001
0010
0100
0001
1000
0000
,  // measure 118
0100
0001
0000
0010
0000
0000
0100
0000
1000
0100
0001
0100
0001
1000
0001
0000
,  // measure 119
0020
0000
0000
0000
0030
0000
0000
0000
0000
0000
0010
0000
0001
0000
0100
0002
,  // measure 120
0000
0000
0000
0000
0000
0000
0000
0000
0000
0000
0000
0000
0000
0000
0000
0003
;
