#VERSION:0.83;
#TITLE:scream;
#SUBTITLE:;
#ARTIST:Usher;
#TITLETRANSLIT:;
#SUBTITLETRANSLIT:;
#ARTISTTRANSLIT:;
#GENRE:;
#ORIGIN:;
#CREDIT:;
#BANNER:;
#BACKGROUND:;
#PREVIEWVID:;
#JACKET:;
#CDIMAGE:;
#DISCIMAGE:;
#LYRICSPATH:;
#CDTITLE:;
#MUSIC:Usher - Scream (Official Audio).mp3;
#OFFSET:0.000000;
#SAMPLESTART:100.059883;
#SAMPLELENGTH:12.000000;
#SELECTABLE:YES;
#BPMS:0.000=128.000;
#STOPS:0.000=0.900;
#DELAYS:;
#WARPS:;
#TIMESIGNATURES:0.000=4=4;
#TICKCOUNTS:0.000=4;
#COMBOS:0.000=1;
#SPEEDS:0.000=1.000=0.000=0;
#SCROLLS:0.000=1.000;
#FAKES:;
#LABELS:0.000=Song Start;
#BGCHANGES:;
#KEYSOUNDS:;
#ATTACKS:
;

//---------------dance-single - ----------------
#NOTEDATA:;
#CHARTNAME:;
#STEPSTYPE:dance-single;
#DESCRIPTION:;
#CHARTSTYLE:;
#DIFFICULTY:Hard;
#METER:12;
#RADARVALUES:0.489415,0.817829,0.258000,0.148033,0.099393,810.000000,749.000000,61.000000,35.000000,0.000000,0.000000,0.000000,0.000000,0.000000,0.489415,0.817829,0.258000,0.148033,0.099393,810.000000,749.000000,61.000000,35.000000,0.000000,0.000000,0.000000,0.000000,0.000000;
#CREDIT:;
#NOTES:
// measure 0
0000
0000
0000
0000
,  // measure 1
0000
0000
0000
0000
,  // measure 2
1000
0000
0000
0100
0001
0000
1000
0000
0100
0001
0000
0000
0010
0000
0000
0100
,  // measure 3
0000
0000
0001
0000
0000
0100
0010
0100
0010
0000
0001
0000
0100
0000
1000
0000
,  // measure 4
0010
0000
0001
0100
0001
0010
0100
1000
0000
0010
0000
0000
0001
0000
0000
1000
,  // measure 5
0000
0100
0001
0000
0010
0001
0100
0010
0100
0000
0010
0000
0001
0000
0100
0000
,  // measure 6
1000
0010
0001
0100
0010
0001
0100
2000
,  // measure 7
0000
0000
0000
0200
3300
0001
0100
1000
,  // measure 8
0100
0001
1000
0100
0010
0001
0100
0001
,  // measure 9
1000
0001
0100
0000
0010
0001
0100
1000
,  // measure 10
0001
0010
0100
0010
0010
0001
0100
1000
,  // measure 11
0010
0100
0000
1000
0100
0001
0010
0000
,  // measure 12
0101
0000
0101
0010
1000
0010
0101
0000
,  // measure 13
0011
0100
1000
0001
1001
0000
0110
0001
,  // measure 14
1001
0000
0100
0010
1000
0001
0110
0000
,  // measure 15
0100
0010
0001
0100
1001
0010
0100
0001
,  // measure 16
1000
0100
0001
0010
0100
0001
0100
0010
,  // measure 17
0010
0100
0001
0000
0001
0100
1000
0010
,  // measure 18
0100
0001
0010
0100
0010
0001
1000
0100
,  // measure 19
0001
1000
0001
0100
0001
0100
1000
0100
,  // measure 20
0101
0000
0100
0001
0100
0010
1001
0000
,  // measure 21
0100
0001
0100
0010
1001
0000
0110
0001
,  // measure 22
1001
0010
0001
0100
0010
0010
1001
0010
,  // measure 23
0001
0100
0010
1000
1001
0100
0001
0000
,  // measure 24
0010
0000
0000
0000
0000
0000
0100
0000
0001
0000
0000
1000
0000
0000
1000
0000
,  // measure 25
0100
0000
0010
0000
0000
1000
0100
0000
,  // measure 26
0010
0000
0000
0000
0000
0000
1000
0000
0100
0000
0000
0010
0000
0000
0001
0000
,  // measure 27
0100
0000
0010
0000
0000
1000
0100
0000
,  // measure 28
0001
0000
0000
0000
0000
0000
0000
0000
0100
0000
0000
0010
0000
0000
0001
0000
,  // measure 29
0100
0000
1000
0000
0000
0010
0100
0000
,  // measure 30
0001
0000
0100
0010
0001
0100
1000
0000
,  // measure 31
1001
0000
0010
0001
0100
0010
0001
0000
,  // measure 32
2000
0000
0000
0200
0000
0000
0000
0000
,  // measure 33
3300
0000
0100
0001
0010
0100
0001
0010
,  // measure 34
0002
0000
0003
2000
0000
3000
0200
0000
,  // measure 35
0300
0000
0010
0001
1000
0001
0100
0010
,  // measure 36
1001
0000
0010
0001
0100
0010
1001
0000
,  // measure 37
0010
0001
0100
0010
1001
0010
0001
0100
,  // measure 38
0011
0000
1000
0001
0100
0010
1001
0000
,  // measure 39
0010
0001
0100
0010
0001
0100
1000
0000
,  // measure 40
0220
0000
0000
0000
,  // measure 41
0330
0000
0100
0010
0001
0100
1000
0000
,  // measure 42
1000
0000
0000
0001
0000
0000
0100
0000
,  // measure 43
0000
0000
0001
0100
0010
0001
0100
1000
,  // measure 44
0110
0000
1000
0001
0100
0010
1010
0000
,  // measure 45
1000
0001
0100
0010
1001
0010
0100
0001
,  // measure 46
0101
0100
0010
0001
0100
0010
1001
0000
,  // measure 47
0010
0001
0100
0010
0001
0100
1000
0000
,  // measure 48
0100
0000
0010
0000
0100
0001
0010
0000
,  // measure 49
0001
0000
0100
0000
0010
0001
0100
1000
,  // measure 50
0001
1000
0001
0100
0010
0001
1000
0100
,  // measure 51
0001
0100
1000
0000
0010
0001
0100
1000
,  // measure 52
0100
0010
0001
0100
0001
0100
0010
0001
,  // measure 53
1000
0001
0100
0010
0001
0100
2000
3000
,  // measure 54
0101
0000
0010
0100
0001
1000
1001
0000
,  // measure 55
0010
0001
0100
1000
0110
0000
0101
1000
,  // measure 56
0101
0000
0010
0001
1000
0100
0101
0000
,  // measure 57
0010
0001
0100
1000
0101
0010
0100
0001
,  // measure 58
1000
0100
0001
0010
0001
0100
0010
0001
,  // measure 59
1000
0100
0010
0000
0100
0010
0001
0100
,  // measure 60
0100
0010
0010
0001
1000
0001
0100
0010
,  // measure 61
0001
0100
1000
0001
1000
0001
0100
0010
,  // measure 62
0100
0000
1000
0001
0100
0010
0001
0000
,  // measure 63
0100
0010
0001
0100
1000
0000
0000
0010
,  // measure 64
0001
0000
0100
0010
0001
0100
1000
0000
,  // measure 65
1000
0001
0100
0020
0030
0001
0010
0000
,  // measure 66
0010
0000
0000
0000
0000
0000
0001
0000
0100
0000
0000
0001
0000
0000
0010
0000
,  // measure 67
0100
0000
0001
0000
0000
0010
0100
0000
,  // measure 68
0000
0000
0000
0100
0000
0000
0010
0000
0000
0000
0000
0000
0100
0000
0000
0000
0010
0000
0000
0000
0000
0001
0000
0000
,  // measure 69
1000
0000
0100
0000
0000
0001
0100
0000
,  // measure 70
1000
0000
0000
0000
0000
0000
0001
0000
0100
0000
0000
0010
0000
0000
0001
0000
,  // measure 71
1000
0000
0100
0000
0000
0100
0001
0000
,  // measure 72
1000
0000
0100
0001
0010
0100
0001
0000
,  // measure 73
1001
0000
0100
0010
0001
0100
1000
0000
,  // measure 74
0200
0000
0000
0020
0000
0330
0000
0002
,  // measure 75
0000
0003
0100
0010
0001
0100
1000
0100
,  // measure 76
0002
0003
0000
0020
0030
0000
0200
0000
,  // measure 77
0000
0300
0010
0100
0001
1000
0001
0010
,  // measure 78
0101
0000
0010
0001
0100
0010
1001
0000
,  // measure 79
0010
1000
0001
0100
0010
0001
0100
0010
,  // measure 80
0101
0000
0010
0100
0001
1000
0101
0000
,  // measure 81
0001
0100
0001
1000
0001
0010
0100
0000
,  // measure 82
2002
0000
0000
0000
,  // measure 83
3003
0000
0010
0100
0001
1000
0001
0000
,  // measure 84
0020
0000
0030
0200
0000
0300
0001
0010
,  // measure 85
0000
0000
0010
0001
0100
0001
0100
0010
,  // measure 86
1001
0000
0010
0001
0100
0010
1001
0000
,  // measure 87
0001
1000
0001
0100
0010
1001
0100
0001
,  // measure 88
0101
0000
0010
0001
0100
0010
1001
0000
,  // measure 89
0100
0001
0010
0001
1000
0001
0100
0000
,  // measure 90
0110
0000
0000
0001
0000
0000
1000
0000
0100
0000
0000
0010
0000
0000
0100
0000
,  // measure 91
0001
0000
0000
0100
0000
0000
1000
0000
0001
0000
0000
0100
0000
0000
0010
0000
,  // measure 92
0001
0000
0000
0100
0000
0000
1000
0000
0100
0000
0000
0010
0000
0000
0001
0000
,  // measure 93
0010
0000
0100
0001
0001
1000
0001
0100
,  // measure 94
0001
0000
0000
0010
0100
0010
0100
0000
,  // measure 95
0001
0010
0000
0001
0100
1000
0000
0000
,  // measure 96
0000
0000
0110
0000
0000
0100
0010
0001
,  // measure 97
0100
0010
0001
0100
1000
0010
0100
0000
,  // measure 98
0001
0000
0000
1000
0100
0000
0001
0000
0010
0000
0000
0100
0001
0000
0010
0000
,  // measure 99
0100
0000
0000
0001
0100
0000
1000
0000
0100
0000
0000
0010
0001
0000
0100
0000
,  // measure 100
0010
0000
0000
0001
0100
0000
1000
0000
0100
0000
0000
0010
0001
0000
0100
0000
,  // measure 101
1000
0000
0000
0001
0100
0000
0010
0000
0001
0000
0000
0100
0010
0000
0100
0000
,  // measure 102
0010
0001
1000
0001
0100
0010
0001
0100
,  // measure 103
0001
0100
0010
0001
1000
0001
0100
0010
,  // measure 104
0010
0100
0010
0100
0010
0100
0010
0100
0010
0100
0010
0100
0010
0100
0010
0100
,  // measure 105
0010
0100
0010
0100
0010
0100
0010
0100
0010
0100
0010
0100
0010
0000
0000
0000
,  // measure 106
2002
0000
3003
1001
,  // measure 107
0020
0000
0000
0200
0000
0000
0000
0000
,  // measure 108
0000
0330
0100
0010
0001
0100
1000
0000
,  // measure 109
0200
0000
0300
0002
0000
0003
2000
3000
,  // measure 110
0000
0000
0001
0100
0010
0100
0001
1000
,  // measure 111
1001
0000
0010
0100
0001
1000
0011
0000
,  // measure 112
0010
0001
0100
1000
0010
0110
0001
0100
,  // measure 113
1010
0000
0010
0001
0100
1000
0110
0000
,  // measure 114
0010
0001
0100
0010
0001
0100
1000
0000
,  // measure 115
2002
0000
0000
0000
,  // measure 116
3003
0000
0010
0100
0001
1000
0001
0000
,  // measure 117
0200
0000
0300
0020
0000
0030
0200
0000
,  // measure 118
0300
0000
0001
0100
0010
0001
0100
1000
,  // measure 119
0110
0000
0001
1000
0001
0100
0110
0000
,  // measure 120
0100
0010
0001
0100
0010
0001
1000
0100
,  // measure 121
1001
0000
0010
0001
0100
0001
0101
0000
,  // measure 122
0100
0010
0001
1000
0001
0100
0010
0000
,  // measure 123
2002
0000
0000
0000
,  // measure 124
0000
0000
0000
3003
;

//---------------dance-single - ----------------
#NOTEDATA:;
#CHARTNAME:;
#STEPSTYPE:dance-single;
#DESCRIPTION:;
#CHARTSTYLE:;
#DIFFICULTY:Medium;
#METER:8;
#RADARVALUES:0.364946,0.501250,0.291836,0.093049,0.000000,604.000000,535.000000,69.000000,22.000000,0.000000,0.000000,0.000000,0.000000,0.000000,0.364946,0.501250,0.291836,0.093049,0.000000,604.000000,535.000000,69.000000,22.000000,0.000000,0.000000,0.000000,0.000000,0.000000;
#CREDIT:;
#NOTES:
0000
0000
0000
0000
,
0000
0000
0000
0000
,
0100
0001
1000
0100
,
0001
0000
0010
0000
0100
0001
0010
0100
,
0001
0000
1000
0000
0100
0001
0010
0100
,
0001
0000
0100
0000
0010
0001
0100
1000
,
0100
0010
0100
0001
,
0100
0000
0010
0000
0100
0001
1000
0100
,
0001
0000
0010
0100
0001
0000
1000
0100
,
0000
0001
0010
0000
0000
1000
0100
0001
,
0000
0010
0001
0100
0000
0001
1000
0100
,
0000
0010
0000
0100
0001
1000
0001
0000
,
0110
0000
0001
1000
0100
0001
0110
0000
,
0100
0010
0001
0100
0011
0000
0101
0000
,
1100
0000
0100
0001
0010
0100
0011
0000
,
0100
0010
0001
1000
0101
0010
0110
0001
,
0000
0010
0100
0001
0000
0001
0100
1000
,
0000
0100
0000
0000
0000
0001
0010
0100
,
0000
0001
1000
0100
0000
0001
0100
1000
,
0000
0010
0000
0001
0100
1000
0010
0000
,
0101
0000
1000
0100
0001
0010
0110
0000
,
0010
0100
0001
1000
0110
0000
0110
0000
,
0101
0000
0100
0010
0100
0001
1100
0000
,
0010
0100
0001
0100
0101
0000
0110
0000
,
1001
0000
0100
0100
,
0010
0010
0000
0000
,
1000
0000
0001
0001
,
1000
1000
0000
0000
,
0100
0000
0010
0010
,
0001
0001
0000
0000
,
0100
0000
0010
0001
0100
0001
1000
0000
,
0000
0000
0001
1000
0001
0100
0010
0000
,
2002
0000
0000
0000
,
3003
0000
0100
0010
0001
0100
1000
0000
,
0100
0000
0000
0010
0000
0000
0100
0000
,
0000
0000
0001
1000
0001
0010
0100
0001
,
0101
0000
0100
0001
0100
0010
1001
0000
,
0010
0001
0100
0010
1001
0000
0101
0000
,
0110
0000
0001
0100
0001
1000
0101
0000
,
0010
0100
0001
1000
0001
0010
0010
0000
,
2002
0000
0000
0000
,
3003
0000
0010
0100
0001
1000
0001
0000
,
0010
0000
0000
0001
0000
0000
1000
0000
,
0000
0000
0100
0010
0001
0100
0010
0000
,
1001
0000
0010
0001
0100
0001
1001
0000
,
0100
0010
0001
0100
1001
0000
0101
0000
,
1001
0000
0010
0100
0001
1000
0011
0000
,
0100
0001
1000
0001
0010
0100
0001
0000
,
0001
0100
0001
0100
,
0010
0000
0001
0000
0100
0001
1000
0010
,
0000
0001
0100
1000
0000
0100
0010
0001
,
0000
0100
0000
0000
0000
0010
0001
0100
,
0000
0100
0010
0001
0000
0001
0100
1000
,
0000
0100
0000
0001
0100
1000
0100
0000
,
1001
0000
0100
0010
0001
0100
1001
0000
,
0010
0100
0001
1000
0011
0000
0110
0000
,
1001
0000
0010
0100
0001
0100
0011
0000
,
0100
0010
0001
0100
1000
0100
0010
0001
,
0000
0001
0100
1000
0000
0010
0100
0001
,
0000
0010
0000
0000
0000
0001
0100
1000
,
0000
0010
0001
0100
0000
0001
0100
1000
,
0000
0000
0000
0010
0001
0100
1000
0010
,
0100
0000
0001
1000
0100
0001
0010
0000
,
0010
0001
0100
1000
0000
0000
0000
0001
,
0100
0000
0010
0001
1000
0001
0100
0000
,
0010
0001
0100
1000
0000
0001
0100
0000
,
1000
0000
0100
0100
,
0001
0001
0000
0000
,
1000
0000
0100
0100
,
0010
0010
0000
0000
,
0100
0000
0010
0010
,
0001
0001
0000
0000
,
0010
0000
0100
0010
0001
0100
1000
0000
,
0000
0000
0100
0010
0001
0100
1000
0000
,
2002
0000
0000
0000
,
3003
0000
0100
0010
0001
0100
1000
0000
,
0001
0000
0000
0100
0000
0000
1000
0000
,
0000
0000
0000
0001
1000
0001
0100
0010
,
1001
0000
0010
0001
0100
0010
1001
0000
,
0100
0001
0100
0010
1001
0000
0101
0000
,
1001
0000
0010
0100
0001
0100
0011
0000
,
0101
0000
0010
0100
0001
1000
0001
0000
,
0220
0000
0000
0000
,
0330
0000
0001
1000
0100
0001
0010
0000
,
0001
0000
0000
0100
0000
0000
0010
0000
,
0000
0000
0010
0001
0100
0001
0100
0010
,
1001
0000
0010
0001
0100
0010
1001
0000
,
0010
0001
0100
1000
0101
0000
1100
0000
,
0011
0000
0100
0010
0100
0001
1001
0000
,
0010
0100
0001
1000
0001
0010
0100
0000
,
0010
0000
0100
0000
,
0001
0000
1000
0000
,
0010
0000
0100
0000
,
0001
0000
1000
0000
,
0100
0000
0001
0000
,
0010
0000
0100
0000
,
0001
0000
1000
0000
,
0100
0000
0001
0000
,
0020
0000
0000
0000
,
0000
0000
0000
0030
,
0002
0000
0000
0000
,
0000
0000
0000
0003
,
2002
0000
0000
0000
,
0000
0000
0000
3003
,
0220
0000
0000
0000
,
0000
0000
0000
0330
,
2000
0000
0000
0000
,
0002
0000
0000
0000
,
3003
0000
0100
0010
0001
0100
1000
0000
,
0100
0000
0000
0010
0000
0000
0100
0000
,
0000
0000
0001
0100
0010
0001
0100
0000
,
1001
0000
0100
0001
0010
0100
1001
0000
,
0010
0001
0100
0010
1100
0000
0110
0000
,
0110
0000
0001
0100
0001
1000
0011
0000
,
0100
0001
1000
0001
0010
0100
0001
0000
,
0202
0000
0000
0000
,
0303
0000
0010
0100
0001
1000
0001
0000
,
0100
0000
0000
0010
0000
0000
0220
0330
,
0000
0000
0001
0100
0010
0001
0100
0000
,
1001
0000
0010
0100
0001
1000
0011
0000
,
0001
0100
0010
0100
0101
0000
0101
0000
,
1100
0000
0010
0100
0001
0100
0101
0000
,
0010
0100
0001
1000
0001
0100
0001
0000
,
2002
0000
0000
0000
,
0000
0000
0000
3003
;

//---------------dance-single - ----------------
#NOTEDATA:;
#CHARTNAME:;
#STEPSTYPE:dance-single;
#DESCRIPTION:;
#CHARTSTYLE:;
#DIFFICULTY:Easy;
#METER:5;
#RADARVALUES:0.258000,0.369342,0.312984,0.101508,0.000000,427.000000,353.000000,74.000000,24.000000,0.000000,0.000000,0.000000,0.000000,0.000000,0.258000,0.369342,0.312984,0.101508,0.000000,427.000000,353.000000,74.000000,24.000000,0.000000,0.000000,0.000000,0.000000,0.000000;
#CREDIT:;
#NOTES:
0000
0000
0000
0000
,
0000
0000
0000
0000
,
0100
0100
0001
0010
,
0100
0100
0010
0001
,
0010
0100
0001
0100
,
0010
0001
0100
0001
,
0100
0010
0001
1000
,
0001
0100
0010
0001
,
0100
0000
1000
0000
,
0100
0010
0001
0100
,
0010
0000
1000
0000
,
0100
0001
0010
0100
,
0101
1000
0100
0101
,
0010
0100
0110
0101
,
0110
1000
0100
0101
,
0100
0010
0110
0110
,
0100
0000
0001
0000
,
0100
0001
0100
0010
,
1000
0000
0001
0000
,
0010
0100
0001
1000
,
1001
0010
0100
0011
,
0100
0001
1010
0101
,
0110
0001
0001
1001
,
0010
0100
0110
0101
,
0110
0000
1000
0000
,
0010
0010
0000
0000
,
0100
0000
0001
0000
,
0010
0010
0000
0000
,
1000
0000
0001
0000
,
0010
0010
0000
0000
,
0010
0001
0100
1000
,
0000
0001
0100
0010
,
2002
0000
0000
0000
,
3003
0001
0010
0100
,
0001
0000
0100
0010
,
0000
0100
0010
0010
,
0101
0010
0100
0101
,
0010
0100
0101
1100
,
0110
0010
0100
0101
,
0010
0100
0001
1000
,
0220
0000
0000
0000
,
0330
0001
0100
0001
,
1000
0000
0100
0001
,
0000
0100
0001
0100
,
1001
0010
0100
0110
,
0001
0100
0011
0110
,
1100
0010
0100
0011
,
0100
0010
0100
0100
,
0010
0010
0010
0010
,
0010
0010
0010
0010
,
0110
0000
0001
0000
,
0010
0100
0001
1000
,
0010
0000
0100
0000
,
0001
0010
1000
0100
,
0011
0100
0001
0110
,
0010
0100
1001
0110
,
0110
0001
0010
0110
,
1000
0100
0101
0110
,
0010
0000
0100
0000
,
1000
0001
0100
0100
,
0001
0000
0100
0000
,
0010
0001
1000
0100
,
0010
0100
0001
1000
,
0001
0010
0000
0000
,
0001
0100
0010
0001
,
1000
0100
0000
0000
,
0010
0000
0100
0000
,
0001
0001
0000
0000
,
1000
0000
0100
0000
,
0010
0010
0000
0000
,
0100
0000
0001
0000
,
1000
1000
0000
0000
,
0100
0001
0100
0001
,
0000
0010
0100
0001
,
2002
0000
0000
0000
,
3003
0100
0010
0001
,
0100
0000
0100
1000
,
0000
0010
0100
0010
,
1001
0001
0010
0110
,
0100
0001
0110
1100
,
0110
0010
0100
0011
,
0010
0001
0100
0010
,
0220
0000
0000
0000
,
0330
0010
0100
0001
,
0001
0000
0010
0010
,
0000
0100
0001
1000
,
0101
0010
0100
0011
,
0100
0001
1001
1001
,
0110
0010
0100
0011
,
0100
0001
1000
0001
,
0010
0000
0000
0000
,
1000
0000
0000
0000
,
0001
0000
0000
0000
,
0100
0000
0000
0000
,
0001
0000
0100
0000
,
1000
0000
0000
0000
,
0100
0000
0000
0001
,
0100
0001
0100
0010
,
2002
0000
0000
0000
,
0000
0000
0000
3003
,
0022
0000
0000
0000
,
0000
0000
0000
0033
,
0220
0000
0000
0000
,
0000
0000
0000
0330
,
2002
0000
0000
0000
,
0000
0000
0000
3003
,
0220
0000
0000
0330
,
2002
0000
0000
0000
,
3003
0010
0100
0001
,
1000
0000
0100
0100
,
0000
0001
0100
0001
,
0110
0010
0100
0101
,
0010
0100
0101
1100
,
0110
0001
0100
0011
,
1000
0010
0100
0001
,
2002
0000
0000
0000
,
3003
0010
0100
0001
,
1000
0000
0001
0001
,
0000
0010
0100
0001
,
1001
0010
0100
0011
,
0100
0010
0011
0110
,
1001
0010
0100
0011
,
0100
0001
1000
0001
,
2002
0000
0000
0000
,
0000
0000
0000
3003
;

//---------------dance-single - ----------------
#NOTEDATA:;
#CHARTNAME:;
#STEPSTYPE:dance-single;
#DESCRIPTION:;
#CHARTSTYLE:;
#DIFFICULTY:Beginner;
#METER:3;
#RADARVALUES:0.131115,0.208092,0.262230,0.000000,0.000000,217.000000,155.000000,62.000000,0.000000,0.000000,0.000000,0.000000,0.000000,0.000000,0.131115,0.208092,0.262230,0.000000,0.000000,217.000000,155.000000,62.000000,0.000000,0.000000,0.000000,0.000000,0.000000,0.000000;
#CREDIT:;
#NOTES:
0000
0000
0000
0000
,
0000
0000
0000
0000
,
0010
0000
0000
0000
,
0000
0000
0000
0000
,
0100
0000
0000
0000
,
0000
0000
0000
0000
,
0001
0000
0000
0000
,
0000
0000
0000
0000
,
1000
0000
0100
0000
,
0100
0000
0000
0000
,
0010
0000
0100
0000
,
0001
0000
0000
0000
,
0110
0000
0000
0110
,
0110
0000
0000
0000
,
1001
0000
0000
1001
,
1001
0000
0000
0000
,
0100
0000
0001
0000
,
1000
0000
0000
0000
,
0001
0000
0100
0000
,
1000
0000
0000
0000
,
0110
0000
0000
1001
,
1001
0000
0000
0000
,
0101
0000
0000
1100
,
1100
0000
0000
0000
,
0010
0000
0100
0000
,
0001
0001
0000
0000
,
0100
0000
0010
0000
,
0010
0010
0000
0000
,
1000
0000
0001
0000
,
0010
0010
0000
0000
,
0100
0000
0000
0000
,
1001
0000
0000
0000
,
1001
0000
0000
0000
,
0100
0000
0000
0000
,
0010
0000
0000
0000
,
1000
0000
0000
0000
,
0101
0000
0000
1001
,
1001
0000
0000
0000
,
0110
0000
0000
1001
,
1001
0000
0000
0000
,
0110
0000
0000
0000
,
0000
0000
0000
0000
,
1000
0000
0000
0000
,
0001
0000
0000
0000
,
0110
0000
0000
1001
,
1001
0000
0000
0000
,
0110
0000
0000
1001
,
1001
0000
0000
0000
,
0010
0000
0000
0000
,
0000
0000
0000
0000
,
0100
0000
0001
0000
,
1000
0000
0000
0000
,
0100
0000
0001
0000
,
0010
0000
0000
0000
,
0101
0000
0000
0011
,
0011
0000
0000
0000
,
1001
0000
0000
1001
,
1001
0000
0000
0000
,
0010
0000
0100
0000
,
0001
0000
0000
0000
,
1000
0000
0100
0000
,
0001
0000
0000
0000
,
0010
0000
0000
0100
,
0100
0000
0000
0000
,
0010
0000
0000
0001
,
0001
0000
0000
0000
,
1000
0000
0100
0000
,
0001
0001
0000
0000
,
0010
0000
0100
0000
,
0010
0010
0000
0000
,
1000
0000
0100
0000
,
0001
0001
0000
0000
,
1000
0000
0000
0000
,
1001
0000
0000
0000
,
0110
0000
0000
0000
,
1000
0000
0000
0000
,
0100
0000
0000
0000
,
0001
0000
0000
0000
,
0110
0000
0000
1001
,
1001
0000
0000
0000
,
0110
0000
0000
0101
,
0101
0000
0000
0000
,
1001
0000
0000
0000
,
0010
0000
0000
0000
,
0100
0000
0000
0000
,
0001
0000
0000
0000
,
1001
0000
0000
0101
,
0101
0000
0000
0000
,
0110
0000
0000
1100
,
1100
0000
0000
0000
,
0010
0000
0000
0000
,
0100
0000
0000
0000
,
0001
0000
0000
0000
,
1000
0000
0001
0000
,
0100
0000
0010
0000
,
0001
0000
0100
0000
,
0000
1000
0000
0000
,
0001
0000
0000
0000
,
0100
0000
0000
0000
,
0000
0000
0000
0000
,
0010
0000
0000
0000
,
0000
0000
0000
0000
,
0100
0000
0000
0000
,
0000
0000
0000
0000
,
0001
0000
0000
0000
,
0000
0000
0000
0000
,
0000
0000
0000
0000
,
1001
0000
0000
0000
,
0010
0000
0000
0000
,
0100
0000
0000
0000
,
0001
0000
0000
0000
,
1001
0000
0000
0110
,
0110
0000
0000
0000
,
1001
0000
0000
0101
,
0101
0000
0000
0000
,
0010
0000
0000
0000
,
0100
0000
0000
0000
,
0001
0000
0000
0000
,
1000
0000
0000
0000
,
0101
0000
0000
1100
,
1100
0000
0000
0000
,
0101
0000
0000
0110
,
0110
0000
0000
0000
,
1001
0000
0000
0000
;
