#TITLE:rock that body;
#SUBTITLE:;
#ARTIST:The Black Eyed Peas;
#TITLETRANSLIT:;
#SUBTITLETRANSLIT:;
#ARTISTTRANSLIT:;
#GENRE:;
#CREDIT:;
#BANNER:;
#BACKGROUND:;
#LYRICSPATH:;
#CDTITLE:;
#MUSIC:Black Eyed Peas - Rock That Body (Official Music) HQ.mp3;
#OFFSET:0.000000;
#SAMPLESTART:100.059883;
#SAMPLELENGTH:12.000000;
#SELECTABLE:YES;
#BPMS:0.000000=124.999992
;
#STOPS:0.000000=0.350000
;
#BGCHANGES:;
#KEYSOUNDS:;
#ATTACKS:;

//---------------dance-single - ----------------
#NOTES:
     dance-single:
     :
     Hard:
     14:
     0.596311,0.753201,0.118944,0.063189,0.535246,1123.000000,1091.000000,32.000000,17.000000,0.000000,0.000000,0.596311,0.753201,0.118944,0.063189,0.535246,1123.000000,1091.000000,32.000000,17.000000,0.000000,0.000000:
0000
0000
0000
0000
,
0000
0000
0000
0000
,
0000
0000
0000
0000
,
0000
0000
0000
0000
,
0010
0000
0100
0001
0010
0000
0100
0010
1000
0000
0100
0001
0010
0000
1000
0100
,
1000
0000
0010
0001
0100
0000
0010
0001
0100
0000
1000
0001
0100
0000
0010
0001
,
0100
0000
0001
0100
0010
0000
0001
1000
0100
0000
0001
0010
0100
0000
0100
0001
,
0010
0000
0001
0100
0000
0000
0010
0001
0100
0000
0010
0001
0000
0100
0000
0000
,
1000
0000
0100
0001
0010
0000
0110
0000
0100
0000
0010
0000
1000
0000
0100
0001
,
0010
0000
0100
0001
1000
0000
1001
0000
0010
0000
1000
0100
0001
0000
0100
0010
,
0001
0000
1000
0100
0001
0000
0110
0000
0010
0000
0000
0000
0010
0000
0000
0000
,
0001
0000
0000
0000
0100
0000
0110
0000
0001
0000
0100
0001
0010
0000
0001
0100
,
1000
0000
0100
0001
0010
0000
0110
0000
0001
0000
1000
0100
0001
0000
0010
0100
,
0001
0000
0010
0100
0001
0000
1010
0000
0100
0000
0001
0100
0010
0000
0001
0010
,
0010
0000
0100
0001
1000
0000
0000
0000
0200
0000
0000
0000
0000
0000
0000
0000
,
0020
0000
0000
0000
0000
0000
0000
0000
0330
0000
0000
0000
1000
0001
1000
0001
,
1000
0001
0100
0010
0001
1000
0001
0100
,
0010
0000
0001
0000
0100
0000
1000
0000
0100
0001
0000
1000
0010
0100
0000
0000
,
0001
0100
0010
0001
1000
0001
0100
0010
,
0010
0100
0000
0000
0001
0100
0000
0000
0010
0001
0000
0000
0100
1000
0000
0000
,
0010
0001
0100
0001
0100
0010
0001
1000
,
0001
0000
0100
0000
0010
0000
0001
0000
0100
0000
0000
0000
1000
0000
0100
0001
,
0010
0100
0010
0001
0100
1000
0100
0000
,
0010
0100
0000
0000
0001
1000
0000
0000
0100
0001
0000
0000
0010
0100
0000
0000
,
1000
0000
0100
0000
0001
0000
0010
0000
0000
0100
0010
0000
0100
0001
0000
0000
,
0010
0001
0100
1000
0010
0001
0100
1000
,
0010
0000
0001
0000
0100
0000
1000
0000
0000
0010
0100
0000
0010
0001
0000
0000
,
1000
0100
0000
0000
0010
0100
0000
0000
0001
0010
0000
0000
0100
0001
0000
0000
,
0001
0000
0100
0000
1000
0000
0010
0000
0000
0000
0100
0001
0000
1000
0100
0000
,
0001
0010
1000
0100
0010
0001
1000
0100
,
0010
0000
0100
0000
0001
0000
1000
0000
0000
0000
0010
0100
0000
0001
0010
0000
,
0100
0001
0000
0000
1000
0100
0000
0000
0010
0100
0001
0000
1000
0100
0001
0000
,
1000
0000
0000
0000
0000
0000
0100
0000
0000
0001
0000
0000
0000
0000
0000
0000
0000
0000
0000
0000
0000
0000
0000
0000
1000
0000
0000
0000
0001
0000
0000
0000
0010
0000
0000
0000
0100
0000
0000
0000
0000
0000
0000
0000
0001
0000
0000
0000
,
0010
0001
0100
1000
0000
0000
0001
0000
1000
0100
0000
0100
,
0010
0000
0001
0010
0000
0000
1000
0100
0001
0010
0000
0100
,
0001
0000
1000
0100
0000
0010
0100
0000
0001
1000
0000
0010
,
0001
0000
1000
0100
0000
0000
0001
0100
0010
0001
0000
1000
,
0100
0000
0001
0010
0000
0000
0010
0001
1000
0001
0100
0010
,
0001
0000
1000
0100
0000
0010
0100
0000
0001
1000
0000
0100
,
0001
0000
0001
0100
0000
0010
0001
0000
1000
0100
0000
0100
,
0010
0000
0010
0001
0000
0000
0100
0001
1000
0001
0000
0100
,
0010
0000
0001
0010
0000
0100
1000
0000
0001
0100
0010
0100
,
0001
0000
0100
1000
0000
0001
0100
0000
0100
0010
0001
0100
,
1000
0000
0010
0001
0000
0000
0001
0000
0100
0010
0001
0100
,
1000
0000
0010
0001
0000
0000
0010
0001
0100
0010
0001
0100
,
1000
0000
0100
0010
0000
0000
1000
0001
0100
0010
0001
0100
,
1000
0000
0010
0001
0000
0000
0010
0001
0100
0010
0001
0100
,
1000
0001
1000
0001
1000
0001
1000
0001
1000
0001
1000
0001
1000
0001
1000
0001
,
1000
0000
0100
0001
0010
0000
0110
0000
0010
0000
0010
0100
0001
0000
0001
0010
,
0100
0000
0010
0001
0100
0000
0110
0000
1000
0000
0001
0010
0100
0000
0100
0001
,
0100
0000
0010
0100
0001
0000
0000
0000
0020
0000
0000
0000
0000
0000
0000
0000
,
0200
0000
0000
0000
0000
0000
0000
0000
0330
0000
0000
0000
1000
0001
1000
0001
,
1000
0010
0001
0100
0001
0100
0010
0001
,
1000
0000
0001
0000
0100
0000
0010
0000
1000
0100
0000
0001
0000
0010
0001
0000
,
0100
0001
0100
0010
0001
1000
0001
0100
,
0001
0010
0000
0000
0100
0010
0000
0000
0001
0010
0000
0000
1000
0100
0000
0000
,
0100
0010
0001
0100
0001
0100
0010
0001
,
1000
0000
0001
0000
0100
0000
0010
0000
1000
0100
0000
0001
0000
0010
0000
0000
,
0010
0001
1000
0001
0100
0001
0010
0100
,
1000
0100
0000
0000
0001
0010
0000
0000
0010
0100
0000
0000
1000
0001
0000
0000
,
0010
0000
0100
0000
0001
0000
1000
0000
0000
0000
0100
0001
0000
0010
0100
0000
,
0010
0001
0100
1000
0010
0001
1000
0100
,
0010
0000
0001
0000
1000
0000
0100
0000
0000
0000
0001
0010
0000
0100
0001
0000
,
1000
0100
0000
0000
0010
0100
0000
0000
0001
0010
0000
0000
0100
0001
0000
0000
,
1000
0000
0100
0000
0001
0000
0010
0000
0000
0001
0100
0000
0010
0100
0000
0000
,
0010
0001
1000
0100
0010
0001
0100
1000
,
0010
0000
0001
0000
0100
0000
1000
0000
0000
0100
0010
0000
0100
0010
0000
0000
,
1000
0001
1000
0000
0010
0100
0001
0000
0010
0100
0001
0000
0001
0100
1000
0000
,
0100
0000
0000
0001
0000
0000
0010
0000
0000
0000
0000
0000
0100
0000
0001
0000
1000
0000
0001
0000
0000
0100
0000
0000
,
0001
0000
0000
0010
0000
0000
0100
0000
0000
0000
0000
0000
0010
0000
0001
0000
0100
0000
0010
0000
0000
0001
0000
0000
,
1000
0000
0000
0100
0000
0000
0010
0000
0000
0000
0000
0000
0100
0000
0010
0000
0001
0000
1000
0000
0000
0100
0000
0000
,
0000
0000
0100
0001
1000
0001
0010
0000
,
1000
0100
0011
0000
0011
0000
0101
0000
,
0110
0000
0001
1000
0100
0010
1001
0000
,
0010
0001
0100
0010
0001
1000
0100
0000
,
0010
0001
0100
0010
0001
0100
1000
0000
,
0110
0000
0101
0000
1100
1100
1100
0000
,
0010
0001
0100
0010
0001
0100
1000
0000
,
0010
0001
1000
0001
0100
0000
0010
0001
,
0100
0000
0010
0000
0001
0000
0100
0000
1000
0000
0000
0000
0000
0010
0100
0001
,
1000
0000
0100
0000
0000
0001
0010
0100
0001
0000
1000
0000
0000
0001
0010
0100
,
0001
0100
1000
0000
0000
0100
0000
0001
0010
0000
0100
0000
0010
0100
0001
1000
,
0001
0000
0010
0000
1000
0100
0001
0000
0010
0000
0001
0000
0010
0000
0001
0100
,
1000
0000
0010
0000
0100
0001
1000
0001
0010
0000
0100
0000
0000
1000
0100
0001
,
0010
0000
0001
0000
0000
0010
0000
0100
0001
0000
1000
0000
0000
0100
0001
0010
,
0100
0000
0001
0000
0000
0010
0000
0100
0001
0000
1000
0000
0000
0000
0000
0000
,
1000
0100
0001
0000
0010
0100
0001
0000
,
1000
0100
0001
0000
0001
0000
1001
0000
,
0000
0001
0100
0010
0001
1000
0001
0100
,
0010
0001
0100
1000
0000
0000
0000
0000
,
0000
0100
0010
0001
1000
0001
0100
0010
,
0001
0100
0000
0000
0010
0001
0000
0000
0100
0010
0000
0000
1000
0100
0000
0000
,
0000
0001
0100
0010
0001
1000
0001
0100
,
0010
0001
0100
1000
0000
0000
0000
0000
,
0000
0001
0100
0010
0001
1000
0001
0100
,
0100
0010
0000
0000
0001
0010
0000
0000
0010
0100
0000
0000
1000
0001
1000
0000
,
0010
0001
1000
0001
0100
0010
0001
0100
,
0001
0100
0010
0001
1000
0001
0100
0010
,
0001
0100
0010
0001
1000
0001
0010
0100
,
1000
0100
0000
0000
0001
0010
0000
0000
0100
0001
0000
0000
0010
0100
0000
0000
,
1000
0100
0001
0010
0100
0001
1000
0001
,
0010
0100
0001
1000
0001
0010
0100
0001
,
1000
0001
0010
0100
0001
1000
0001
0010
,
0100
0001
0000
0000
0010
0100
0000
0000
0001
1000
0000
0000
0100
0001
0000
0000
,
0010
0000
0001
0100
0001
0000
0010
0100
0001
0000
1000
0100
0001
0000
0010
0100
,
0001
0000
0100
0001
0010
0000
0001
0100
0010
0000
0001
0100
1000
0000
0001
0100
,
0010
0000
0001
0010
0100
0000
0100
0001
0100
0000
0010
0100
0001
0000
0010
0001
,
0100
0000
0010
0100
0001
0000
1000
0001
0100
0000
0010
0001
1000
0001
1000
0001
,
1000
0000
0100
0000
0010
0000
0100
0010
0001
0100
0001
0010
0010
0100
0001
0010
,
0100
0000
1000
0100
0001
0000
0010
0100
0001
0000
1000
0100
0001
0000
0010
0100
,
0001
0000
0010
0000
0100
0000
0001
0000
0000
1000
0100
0000
0000
0001
0010
0000
,
0100
0001
1000
0000
0100
0001
0010
0000
0100
0001
0010
0000
0100
0001
1000
0000
,
0020
0100
0100
0100
,
0100
0100
0100
0000
0030
0000
2001
0000
,
0001
0001
0001
0001
,
0001
0001
0001
0000
3000
0000
0210
0000
,
0010
0010
0010
0010
,
0010
0010
0010
0000
0310
0000
2001
0000
,
0001
0001
0001
0001
,
0001
0000
0001
0000
3001
0000
0000
0000
0100
0001
0100
0001
0100
0001
0100
0001
,
0010
0000
0100
0001
0100
0000
1001
0000
0200
0000
0000
0000
0000
0000
0000
0000
,
0000
0000
0000
0000
0000
0000
0000
0000
0300
0000
0100
0001
0100
0000
0010
1000
,
0100
0000
0010
0001
0020
0000
0000
0000
0030
0000
0100
0001
1000
0000
0010
0100
,
0001
0000
1000
0100
0001
0000
0000
0000
0000
0000
0000
0000
2001
0000
0000
0000
,
0001
0001
0001
0001
,
0001
0000
0001
0000
3001
0000
0000
0000
0000
0000
0001
0100
0010
0000
0100
0001
,
1000
0000
0100
0001
0020
0000
0000
0000
0030
0000
0100
0001
1000
0000
0100
0001
,
0010
0000
0001
0010
0200
0000
0000
0000
0300
0000
0000
0000
2001
0000
0000
0000
,
0001
0001
0001
0001
,
0001
0001
0001
0000
3000
0000
0210
0000
,
0010
0010
0010
0010
,
0010
0000
0010
0000
0310
0000
0000
0000
1000
0001
1000
0001
1000
0001
1000
0001
,
1000
0000
0100
0001
0010
0000
1001
0000
0010
0000
0100
0001
0010
0000
1000
0100
,
0001
0000
0010
0100
0001
0000
0110
0000
0100
0000
1000
0100
0001
0000
0010
0100
,
0001
0000
1000
0100
0001
0000
0110
0000
1000
0000
0000
0000
0100
0000
0000
0000
,
0001
0000
0000
0000
0010
0000
0110
0000
0100
0000
0001
1000
0100
0000
0001
0010
,
0100
0000
0010
0100
0001
0000
1001
0000
0010
0000
0100
0001
1000
0000
0100
0001
,
0010
0000
0001
0100
0010
0000
1001
0000
0010
0000
0100
0001
0100
0000
0001
1000
,
0100
0000
0001
0010
0100
0000
0000
0000
0020
0000
0000
0000
0000
0000
0000
0000
,
0200
0000
0000
0330
;

//---------------dance-single - ----------------
#NOTES:
     dance-single:
     :
     Medium:
     9:
     0.350990,0.441532,0.033453,0.074340,0.000000,661.000000,652.000000,9.000000,20.000000,0.000000,0.000000,0.350990,0.441532,0.033453,0.074340,0.000000,661.000000,652.000000,9.000000,20.000000,0.000000,0.000000:
0000
0000
0000
0000
,
0000
0000
0000
0000
,
0000
0000
0000
0000
,
0000
0000
0000
0000
,
0100
0010
0001
0100
,
1000
0100
0001
0010
,
0100
0001
0100
0001
,
1000
0100
0001
0010
,
0100
0000
0001
0100
0001
0000
0010
0000
,
0100
0000
0001
1000
0100
0000
0001
0000
,
0010
0000
0100
0010
0001
0000
0100
0001
,
0010
0000
0100
0001
1000
0000
0100
0000
,
0001
0000
0010
0100
0001
0000
1000
0000
,
0100
0000
0001
0100
0010
0000
0001
0000
,
0010
0100
0020
0200
,
0000
0000
0000
0330
,
0100
0010
0001
0100
0001
0100
0010
0001
,
1000
0010
0001
0100
0000
0000
0000
0000
,
0001
1000
0001
0100
0010
0001
0100
0001
,
0100
0010
0001
1000
0001
0100
0010
0001
,
0100
0001
0100
0010
0001
1000
0001
0100
,
0010
0001
0100
1000
0000
0000
0000
0000
,
0100
0010
0001
1000
0001
0100
0010
0001
,
1000
0001
0100
0010
0001
1000
0001
0100
,
0010
0001
0100
1000
0000
0010
0000
0001
,
0100
0001
0100
0010
0001
1000
0001
0100
,
0010
0001
0100
1000
0000
0100
0000
1000
,
0100
0001
0010
0100
,
1000
0001
0100
0010
0000
0100
0000
1000
,
0010
0001
0100
0001
0100
0010
0001
1000
,
0001
0100
0010
0001
1000
0100
0000
0001
,
0001
0100
0010
0001
,
1000
0100
1000
0001
,
0100
0010
0001
0100
,
0010
0001
1000
0001
,
0100
0010
1001
0001
,
0010
1001
0001
1000
,
0100
0010
0001
1000
,
0001
0100
0010
0001
,
1000
0001
0100
0010
,
0001
0100
0010
0001
,
1000
0001
0100
0010
,
0001
1000
0001
0100
,
0010
0001
1000
0001
,
0100
0010
0001
1000
,
0001
0100
0010
0001
,
1000
0001
0100
0010
,
1000
1000
1000
1000
,
1000
0000
0100
0001
0010
0000
0100
0000
,
0010
0000
0001
0100
1000
0000
0010
0000
,
0100
0001
0020
0000
,
0200
0000
0000
0330
,
1000
0100
0001
0010
0100
0001
1000
0001
,
0010
0100
0001
0010
0000
0000
0000
0000
,
0100
0010
0100
0001
1000
0001
0010
0100
,
0001
0010
1000
0001
0100
0100
0001
0010
,
0010
0001
0100
0010
0001
1000
0001
0100
,
0010
0001
0100
1000
0000
0000
0000
0000
,
0010
0100
0001
1000
0001
0010
0100
0000
,
1000
0100
0010
0100
0100
0010
0001
0010
,
0010
0100
0001
1000
0000
0100
0000
0001
,
0100
1000
0001
0010
0100
0001
1000
0001
,
0010
0100
0001
0100
0010
0001
1000
0100
,
0001
1000
0001
0100
0010
0001
0010
1000
,
0100
0001
1000
0100
0000
0100
0000
0010
,
0100
0001
1000
0001
0010
0100
0001
1000
,
0001
0010
0100
0001
1000
0001
0000
0001
,
1000
0001
0010
0100
0001
1000
0001
0010
,
0100
0000
0000
0000
0001
0010
0100
0001
,
1000
0000
0000
0000
0010
0100
0001
1000
,
0001
0000
0000
0000
0010
0001
0100
1000
,
0000
0000
0100
0001
0000
0000
0010
0000
,
0001
0100
1000
0000
0010
0000
0001
0000
,
0100
0000
0010
0001
0100
1000
0001
0000
,
0010
0001
0100
0010
0001
0100
1000
0000
,
0100
0001
0100
0010
0001
0100
1000
0000
,
0100
0000
0001
0010
0100
0000
0001
0000
,
0010
0001
0100
0010
0001
0100
1000
0000
,
0100
0010
0001
0100
1000
0000
0100
0001
,
0100
0010
0001
1000
0100
0000
0000
0100
,
0001
0010
0000
0001
0100
1000
0000
0001
,
0100
1000
0000
0000
0010
0001
1000
0100
,
0001
0010
0100
0001
1000
0100
0010
0001
,
0100
0010
0000
0001
0100
1000
0010
0001
,
0100
1000
0000
0000
0010
0100
0000
0001
,
0100
1000
0000
0000
0001
0010
0000
0000
,
0010
0100
0010
0000
0001
0100
0010
0000
,
0001
0100
1000
0000
1000
0000
1000
0000
,
0010
0001
0100
0010
0001
1000
0001
0100
,
0010
0001
0100
1000
0000
0000
0000
0000
,
0000
0100
0001
1000
0001
0010
0100
0000
,
1000
0001
0100
1000
,
0010
0001
0100
0010
0001
1000
0001
0100
,
0010
0001
0100
1000
0000
0000
0000
0000
,
0000
0001
0100
0010
0001
0100
1000
0000
,
0001
0100
0010
0100
,
0001
0100
0010
0001
,
0100
1000
0100
0010
,
0001
0100
0001
0100
,
0010
0001
1000
0001
0100
0010
0001
0100
,
1000
0100
0001
0100
,
0001
0100
0010
0001
,
1000
0001
0100
0010
,
0001
0100
0010
0001
1000
0001
0100
0010
,
0001
0100
0001
0100
,
0001
0100
0010
0001
,
1000
0001
0100
0010
,
0001
1000
0001
0100
,
0010
0001
0100
1000
0000
0010
0000
0001
,
0100
0001
1000
0001
0000
0000
0000
0000
,
0100
0010
0100
0001
0000
1000
0000
0100
,
0001
0100
0001
0100
0001
0100
0001
0100
,
2002
0000
0000
0000
,
0000
0000
3003
0220
,
0000
0000
0000
0000
,
0000
0000
0330
0202
,
0000
0000
0000
0000
,
0000
0000
0303
2020
,
0000
0000
0000
3030
,
0100
0100
0100
0100
,
0010
0000
1000
0100
0001
0000
0000
0000
,
0000
0000
0000
1000
,
0100
0001
0000
0001
,
0100
1000
0000
0220
,
0000
0000
0000
0000
,
0000
0000
0330
1000
,
0100
0001
0000
0100
,
0010
0001
0000
2002
,
0000
0000
0000
0000
,
0000
0000
3003
0220
,
0000
0000
0000
0330
,
0010
0010
0010
0010
,
0010
0000
0001
0100
1000
0000
0100
0000
,
0010
0000
0001
0100
1000
0000
0100
0000
,
0010
0000
0001
0100
1000
0000
0100
0000
,
0010
0000
0001
0100
1000
0000
0100
0000
,
0001
0010
0100
0000
0001
0000
1000
0000
,
0100
0000
0100
0001
0010
0000
0010
0000
,
0001
0100
2000
0000
,
0002
0000
0000
3003
;

//---------------dance-single - ----------------
#NOTES:
     dance-single:
     :
     Easy:
     6:
     0.234701,0.363614,0.130095,0.022302,0.000000,442.000000,407.000000,35.000000,6.000000,0.000000,0.000000,0.234701,0.363614,0.130095,0.022302,0.000000,442.000000,407.000000,35.000000,6.000000,0.000000,0.000000:
0000
0000
0000
0000
,
0000
0000
0000
0000
,
0000
0000
0000
0000
,
0000
0000
0000
0000
,
1000
0000
1000
0000
,
0001
0000
0001
0000
,
0001
0000
0001
0000
,
0010
0000
0010
0000
,
0001
0100
1000
0000
,
0001
0100
1000
0000
,
0001
0100
1000
1000
,
1000
0100
1000
0000
,
0001
0100
1000
0000
,
0001
0100
1000
0000
,
0001
0100
0200
0000
,
2000
0000
0000
3300
,
0010
0100
0001
0010
,
0001
1000
0100
0000
,
0100
0010
0001
0100
,
1000
0100
0010
0001
,
0000
0001
0100
0010
,
0001
1000
0100
0000
,
0001
1000
0001
0100
,
0010
0001
0100
1000
,
0001
0100
0000
0100
,
0100
0100
0010
0010
,
0100
0010
0000
0100
,
1000
0100
0010
0001
,
0001
0100
0000
0010
,
0010
0010
0100
0100
,
0001
0100
0000
0010
,
0001
0010
0100
1000
,
1000
0000
1100
0000
,
0001
0000
0011
0000
,
0100
0000
0110
0000
,
0110
0000
0110
0000
,
0110
0000
0100
0000
,
1001
0000
1000
0000
,
0110
0000
0001
0000
,
1001
0000
1001
0000
,
1001
0000
0010
0000
,
0110
0000
0100
0000
,
0101
0000
1000
0000
,
1001
0000
1001
0000
,
0001
0000
1001
0000
,
1000
0000
1001
0000
,
0100
0000
0110
0000
,
0100
0100
0100
0100
,
0100
0100
1000
0000
,
0001
0100
1000
0000
,
0001
0100
2000
0000
,
0200
0000
0000
3300
,
0100
1000
0001
0010
,
0100
0001
1000
0100
,
0000
1000
0001
0100
,
0010
0001
1000
0100
,
0010
0001
0100
0010
,
0100
0100
0000
0000
,
0001
0100
0010
0100
,
1001
0110
1001
0110
,
0001
0100
0000
1000
,
1000
1000
0100
0100
,
0010
0100
0000
0001
,
1000
0100
0010
0001
,
0010
0010
0000
0100
,
0100
0100
0010
0010
,
0100
1000
0000
0001
,
0001
0010
0100
1000
,
1001
0000
0000
0000
,
0101
0000
0000
0000
,
1100
0000
0000
0000
,
0000
0000
0000
1100
,
0100
0001
0010
0100
,
0001
1000
0001
0010
,
0100
0001
0100
1000
,
0001
0100
0001
0100
,
0010
0001
1000
0100
,
0010
0100
0001
1000
,
0001
0010
0100
0001
,
0001
0100
1000
0000
,
1000
0000
0100
0000
,
0001
0000
0010
0000
,
0100
0000
0001
0000
,
1000
0000
0100
0000
,
0001
0000
0010
0000
,
1000
0000
0100
0000
,
1000
0100
0001
0100
,
1000
0100
0100
0100
,
0100
0010
0100
0001
,
1000
0100
0001
0000
,
0010
0100
0001
1000
,
0001
0010
0100
0001
,
0100
0001
1000
0001
,
0010
0100
0001
0000
,
0010
0100
0001
1000
,
1001
0110
1001
0110
,
1001
0000
0000
0000
,
0100
0000
0000
0000
,
0010
0000
0000
0000
,
1000
0100
0010
0001
,
0100
0000
0000
0000
,
1000
0000
0000
0000
,
0100
0000
0000
0000
,
0010
0100
0010
0100
,
0010
0010
0010
0010
,
0010
0010
0010
0010
,
0010
0010
0010
0010
,
0010
0010
0010
0010
,
0100
1000
0000
0100
,
0100
0100
0000
0000
,
1000
0001
0100
0010
,
0110
0110
1001
0110
,
0100
0100
0100
0100
,
0100
0100
0000
0010
,
0010
0010
0010
0010
,
0010
0010
0000
1000
,
1000
1000
1000
1000
,
1000
1000
0000
0100
,
0100
0100
0100
0100
,
0100
0100
0100
0100
,
0100
0001
0010
0000
,
0000
0000
0000
0001
,
0100
1000
0000
1000
,
0001
0100
0000
0100
,
0100
0100
0100
0100
,
0100
0100
0000
0010
,
0100
0001
0000
0001
,
1000
0100
0000
0010
,
0010
0010
0010
0010
,
0010
0010
0000
0100
,
0100
0100
0100
0100
,
0100
0100
0100
0100
,
0100
1000
0001
0000
,
0001
1000
0100
0000
,
0001
0100
0010
0010
,
0010
0010
0100
0000
,
0001
0100
1000
0000
,
0001
0100
1000
0000
,
0100
0100
2000
0000
,
0200
0000
0000
3300
;

//---------------dance-single - ----------------
#NOTES:
     dance-single:
     :
     Beginner:
     3:
     0.084429,0.180831,0.011151,0.000000,0.000000,159.000000,156.000000,3.000000,0.000000,0.000000,0.000000,0.084429,0.180831,0.011151,0.000000,0.000000,159.000000,156.000000,3.000000,0.000000,0.000000,0.000000:
// measure 0
0000
0000
0000
0000
,  // measure 1
0000
0000
0000
0000
,  // measure 2
0000
0000
0000
0000
,  // measure 3
0000
0000
0000
0000
,  // measure 4
0100
0000
0000
0000
,  // measure 5
0000
0000
0000
0000
,  // measure 6
0100
0000
0000
0000
,  // measure 7
0000
0000
0000
0000
,  // measure 8
0010
0000
0000
0000
,  // measure 9
0100
0000
0000
0000
,  // measure 10
1000
0000
0000
0000
,  // measure 11
0001
0000
0000
0000
,  // measure 12
0010
0000
0000
0000
,  // measure 13
0100
0000
0000
0000
,  // measure 14
1000
0000
0000
0000
,  // measure 15
0100
0000
0000
0000
,  // measure 16
0001
0000
0000
0000
,  // measure 17
1000
0000
0000
0000
,  // measure 18
0100
0000
0000
0000
,  // measure 19
0001
0000
0000
0000
,  // measure 20
0010
0000
0000
0000
,  // measure 21
0100
0000
0000
0000
,  // measure 22
1000
0000
0000
0000
,  // measure 23
0001
0000
0000
0000
,  // measure 24
0010
0010
0000
0000
,  // measure 25
0100
0100
0000
0000
,  // measure 26
1000
1000
0000
0000
,  // measure 27
0001
0000
0010
0010
,  // measure 28
0010
0010
0000
0000
,  // measure 29
0100
0100
0000
0000
,  // measure 30
0001
0001
0000
0000
,  // measure 31
1000
0000
0100
0100
,  // measure 32
0100
0000
0000
0000
,  // measure 33
0001
0000
0000
0000
,  // measure 34
1000
0000
0000
0000
,  // measure 35
0100
0000
0000
0000
,  // measure 36
0001
0000
0000
0000
,  // measure 37
0010
0000
0000
0000
,  // measure 38
0100
0000
0000
0000
,  // measure 39
1000
0000
0000
0000
,  // measure 40
0100
0000
0000
0000
,  // measure 41
0001
0000
0000
0000
,  // measure 42
0010
0000
0000
0000
,  // measure 43
0100
0000
0000
0000
,  // measure 44
0010
0000
0000
0000
,  // measure 45
0100
0000
0000
0000
,  // measure 46
1000
0000
0000
0000
,  // measure 47
0100
0000
0000
0000
,  // measure 48
0001
0000
0000
0000
,  // measure 49
1000
0000
0000
0000
,  // measure 50
0100
0000
0000
0000
,  // measure 51
0010
0000
0000
0000
,  // measure 52
0100
0000
0000
0000
,  // measure 53
0001
0000
0000
0000
,  // measure 54
1000
0000
0000
0000
,  // measure 55
0100
0000
0000
0000
,  // measure 56
0001
0000
0000
0000
,  // measure 57
1000
0000
0000
0000
,  // measure 58
0100
0000
0000
0000
,  // measure 59
0001
0000
0000
0000
,  // measure 60
0001
0001
0000
0000
,  // measure 61
0010
0010
0000
0000
,  // measure 62
0100
0100
0000
0000
,  // measure 63
0100
0000
0100
0100
,  // measure 64
0100
0100
0000
0000
,  // measure 65
0001
0001
0000
0000
,  // measure 66
0001
0001
0000
0000
,  // measure 67
1000
0000
0000
0000
,  // measure 68
1001
0000
0000
0000
,  // measure 69
1001
0000
0000
0000
,  // measure 70
1001
0000
0000
0000
,  // measure 71
0000
0000
0000
0010
,  // measure 72
0000
0100
0000
0001
,  // measure 73
0000
1000
0000
0100
,  // measure 74
0000
0010
0000
0100
,  // measure 75
0000
0001
0000
1000
,  // measure 76
0000
0010
0000
0001
,  // measure 77
0000
1000
0000
0100
,  // measure 78
0000
0100
0000
0001
,  // measure 79
0000
1000
0000
0000
,  // measure 80
0001
0000
0010
0000
,  // measure 81
0100
0000
0001
0000
,  // measure 82
1000
0000
0010
0000
,  // measure 83
0001
0000
0010
0000
,  // measure 84
1000
0000
0100
0000
,  // measure 85
0001
0000
0010
0000
,  // measure 86
0100
0000
0100
0000
,  // measure 87
0100
0000
0000
0000
,  // measure 88
0100
0000
0000
0000
,  // measure 89
0000
0000
0000
0000
,  // measure 90
0001
0000
0000
0000
,  // measure 91
0000
0000
0000
0000
,  // measure 92
1000
0000
0000
0000
,  // measure 93
0000
0000
0000
0000
,  // measure 94
0100
0000
0000
0000
,  // measure 95
0000
0000
0000
0000
,  // measure 96
0010
0000
0000
0000
,  // measure 97
0000
0000
0000
0000
,  // measure 98
0000
0000
0000
0000
,  // measure 99
1000
0000
0000
0000
,  // measure 100
0100
0000
0000
0000
,  // measure 101
0000
0000
0000
0000
,  // measure 102
0000
0000
0000
0000
,  // measure 103
0001
0000
0000
0000
,  // measure 104
0010
0000
0000
0000
,  // measure 105
0100
0000
0000
0000
,  // measure 106
0001
0000
0000
0000
,  // measure 107
1000
0000
0000
0000
,  // measure 108
1000
1000
0000
0000
,  // measure 109
0100
0100
0000
0000
,  // measure 110
0001
0001
0000
0000
,  // measure 111
0010
0010
0010
0010
,  // measure 112
0010
0000
0000
0000
,  // measure 113
0000
0000
0000
0000
,  // measure 114
0100
0000
0000
0000
,  // measure 115
0000
0000
0000
0000
,  // measure 116
1000
0000
0000
0000
,  // measure 117
0000
0000
0000
0000
,  // measure 118
0001
0000
0000
0000
,  // measure 119
0000
0000
0000
0000
,  // measure 120
0100
0000
0000
0000
,  // measure 121
0000
0000
0000
0000
,  // measure 122
0100
0000
0000
0000
,  // measure 123
0100
0000
0000
0000
,  // measure 124
0010
0000
0000
0000
,  // measure 125
0000
0000
0000
0000
,  // measure 126
0100
0000
0000
0000
,  // measure 127
0001
0000
0000
0000
,  // measure 128
1000
0000
0000
0000
,  // measure 129
0000
0000
0000
0000
,  // measure 130
0010
0000
0000
0000
,  // measure 131
0000
0000
0000
0000
,  // measure 132
0100
0000
0000
0000
,  // measure 133
0001
0000
0000
0000
,  // measure 134
1000
0000
0000
0000
,  // measure 135
0100
0000
0000
0000
,  // measure 136
0001
0000
0000
0000
,  // measure 137
0010
0000
0000
0000
,  // measure 138
0100
0000
0000
0000
,  // measure 139
1000
0000
0000
0000
;
