#VERSION:0.83;
#TITLE:remedy;
#SUBTITLE:;
#ARTIST:Maliboux;
#TITLETRANSLIT:;
#SUBTITLETRANSLIT:;
#ARTISTTRANSLIT:;
#GENRE:;
#ORIGIN:;
#CREDIT:;
#BANNER:;
#BACKGROUND:;
#PREVIEWVID:;
#JACKET:;
#CDIMAGE:;
#DISCIMAGE:;
#LYRICSPATH:;
#CDTITLE:;
#MUSIC:Maliboux - Remedy [Monstercat Release].ogg;
#OFFSET:0.000000;
#SAMPLESTART:100.059883;
#SAMPLELENGTH:12.000000;
#SELECTABLE:YES;
#BPMS:0.000=128.000;
#STOPS:0.000=0.100;
#DELAYS:;
#WARPS:;
#TIMESIGNATURES:0.000=4=4;
#TICKCOUNTS:0.000=4;
#COMBOS:0.000=1;
#SPEEDS:0.000=1.000=0.000=0;
#SCROLLS:0.000=1.000;
#FAKES:;
#LABELS:0.000=Song Start;
#BGCHANGES:;
#KEYSOUNDS:;
#ATTACKS:
;

//---------------dance-single - ----------------
#NOTEDATA:;
#CHARTNAME:;
#STEPSTYPE:dance-single;
#DESCRIPTION:;
#CHARTSTYLE:;
#DIFFICULTY:Hard;
#METER:13;
#RADARVALUES:0.550361,0.584460,0.000000,0.057788,0.243993,600.000000,600.000000,0.000000,9.000000,0.000000,0.000000,0.000000,0.000000,0.000000,0.550361,0.584460,0.000000,0.057788,0.243993,600.000000,600.000000,0.000000,9.000000,0.000000,0.000000,0.000000,0.000000,0.000000;
#CREDIT:;
#NOTES:
// measure 0
0000
0000
0000
0000
,  // measure 1
0000
0000
0000
0000
,  // measure 2
0001
0100
0010
0001
1000
0001
0100
0000
,  // measure 3
0010
0100
0001
1000
0001
0010
0100
0000
,  // measure 4
0010
0001
1000
0001
0100
0010
0001
0000
,  // measure 5
0100
0010
0001
1000
0001
0100
0010
0000
,  // measure 6
0001
0100
0010
0001
1000
0001
0100
0000
,  // measure 7
0010
0001
1000
0010
0001
0100
0001
0000
,  // measure 8
0100
0010
0001
1000
0001
0100
1000
0000
,  // measure 9
0100
0010
0001
1000
0001
0100
0001
0000
,  // measure 10
0100
0010
0001
1000
0001
0100
0001
0001
,  // measure 11
0100
0010
0001
0100
0001
0100
1000
0000
,  // measure 12
0100
0010
0001
0100
0001
0100
1000
0000
,  // measure 13
0100
0010
0001
0100
0001
0100
1000
0000
,  // measure 14
0100
0010
0001
1000
0001
0100
0010
0001
,  // measure 15
1000
0001
0100
0010
0001
1000
0100
0000
,  // measure 16
0100
0010
0100
0001
1000
0001
0010
0100
,  // measure 17
0001
1000
0001
0010
0100
0001
1000
0001
,  // measure 18
0010
0100
0001
1000
0001
0010
0100
0001
,  // measure 19
1000
0001
0010
0100
0001
1000
0001
0010
,  // measure 20
0001
0100
0010
0001
1000
0001
0100
0010
,  // measure 21
0001
0100
1000
0010
0001
0100
0001
0100
,  // measure 22
1000
0000
0000
0001
0000
1000
0000
0000
0100
0000
0010
0000
0001
0000
0000
0000
,  // measure 23
0100
0000
1000
0000
0001
0000
0100
0010
0100
0001
1000
0001
0010
0100
0001
1000
,  // measure 24
0001
0000
0000
0100
0000
0001
1000
0000
0100
0000
0001
0000
1000
0000
0010
0000
,  // measure 25
0200
0000
0300
0001
0000
1000
0100
0001
,  // measure 26
0010
0000
0000
0001
0000
1000
0100
0000
0010
0000
0001
0000
0100
0000
0000
0000
,  // measure 27
1000
0000
0100
0000
0001
0000
1000
0000
0100
0001
0000
0010
0100
0001
0100
0001
,  // measure 28
1000
0000
0000
0100
0000
0001
1000
0000
0100
0000
0001
0000
0100
0000
0000
0000
,  // measure 29
0200
0300
0001
1000
0000
0100
1000
0001
,  // measure 30
0010
0000
0000
0100
0000
0001
1000
0000
0100
0000
0001
0000
1000
0000
0001
0000
,  // measure 31
0000
0000
0000
0000
0010
0000
0001
1000
0001
0100
0001
0100
1000
0001
0100
0001
,  // measure 32
1000
0000
0000
0001
0000
1000
0100
0000
0001
0000
0100
0000
1000
0000
0000
0000
,  // measure 33
0200
0000
0300
0001
1000
0100
0001
1000
,  // measure 34
0001
0000
0000
0010
0000
0010
0100
0000
0001
0000
0100
0000
1000
0000
0000
0000
,  // measure 35
0200
0000
0300
0000
0001
0000
1000
0000
0010
0000
0100
0000
0001
0010
1000
0000
,  // measure 36
1000
0000
0000
0100
0000
0001
1000
0000
0100
0000
0001
0000
1000
0000
0000
0000
,  // measure 37
0200
0300
0000
0001
1000
0100
0001
1000
,  // measure 38
0010
0000
0000
0001
0000
0100
0001
1000
0010
0000
0001
0000
0100
0000
0001
0000
,  // measure 39
0000
0000
0000
0000
0001
0000
1000
0100
0001
0100
0001
1000
0001
0010
0100
0001
,  // measure 40
0100
0001
0100
0010
0001
1000
0001
0000
,  // measure 41
0100
0010
0001
1000
0001
0100
1000
0000
,  // measure 42
1000
0001
0100
0001
0010
0100
1000
0000
,  // measure 43
0010
0100
0001
1000
0001
0010
0100
0000
,  // measure 44
0001
1000
0100
0001
0100
0001
0010
0000
,  // measure 45
0100
0010
0001
1000
0001
0100
0001
0000
,  // measure 46
0100
0010
0001
1000
0001
0100
1000
0000
,  // measure 47
1000
0010
0001
1000
0001
0100
0001
0000
,  // measure 48
0100
0010
0001
1000
0001
0100
1000
0000
,  // measure 49
0100
0010
0001
0100
0001
0100
1000
0000
,  // measure 50
0010
0100
0001
1000
0001
0010
0100
0001
,  // measure 51
1000
0001
0010
0100
0001
0100
0001
0000
,  // measure 52
0100
0010
0001
0100
0001
0100
1000
0000
,  // measure 53
0010
0100
0001
1000
0001
0010
0100
0000
,  // measure 54
0100
0001
0010
0100
0001
1000
0001
0010
,  // measure 55
0100
0010
0001
0100
0010
0001
1000
0001
,  // measure 56
0100
0001
0100
0010
0001
0100
0001
0100
,  // measure 57
0010
0001
1000
0001
0100
0010
0001
1000
,  // measure 58
0001
0100
0010
0001
0100
0001
0100
0010
,  // measure 59
0001
1000
0001
0100
0010
0001
0100
0001
,  // measure 60
0100
0010
0001
1000
0001
0100
0010
0001
,  // measure 61
0100
0001
0100
0010
0001
1000
0001
0100
,  // measure 62
0010
0001
1000
0001
0100
0010
0001
1000
,  // measure 63
0001
0100
0010
0001
1000
0001
0100
0010
,  // measure 64
1000
0000
0000
0001
0000
0010
0100
0000
1000
0000
0100
0000
0001
0000
0000
0000
,  // measure 65
1000
0000
0000
0000
0001
0000
0010
0100
0001
1000
0001
0010
0100
0001
1000
0001
,  // measure 66
0010
0000
0000
0001
0000
1000
0100
0000
0010
0000
0001
0000
1000
0000
0000
0000
,  // measure 67
0200
0000
0300
0000
0000
0000
0001
0000
1000
0100
0001
1000
0001
0010
0100
0001
,  // measure 68
1000
0000
0000
0100
0000
0001
1000
0000
0100
0000
0001
0000
1000
0000
0000
0000
,  // measure 69
2000
3000
0001
0010
0001
1000
0100
0001
,  // measure 70
0010
0000
0000
0100
0000
0001
1000
0000
0100
0000
0001
0000
0010
0000
0100
0000
,  // measure 71
0000
0000
0000
0000
0001
0000
1000
0100
0001
0100
0001
1000
0001
0010
0100
0001
,  // measure 72
0010
0000
0000
0001
0000
1000
0100
0000
0001
0000
0100
0000
1000
0000
0000
0000
,  // measure 73
0200
0300
0000
0001
0010
0100
0001
1000
,  // measure 74
0001
0000
0000
1000
0000
0100
0001
0000
0001
0000
0100
0000
1000
0000
0000
0000
,  // measure 75
0001
0000
0000
0000
0100
0000
1000
0000
0000
0000
0100
0000
1000
0010
0001
0000
,  // measure 76
1000
0000
0000
0100
0000
0001
1000
0000
0100
0000
0001
0000
1000
0000
0000
0000
,  // measure 77
0010
0000
0100
0001
0000
0001
0100
1000
,  // measure 78
0010
0000
0000
0001
0000
0100
0001
1000
0001
0000
0001
0000
0100
0000
1000
0000
,  // measure 79
0000
0000
0000
0000
0010
0000
0100
0001
1000
0100
0001
0100
0001
1000
0001
0010
,  // measure 80
0200
0000
0000
0000
,  // measure 81
0000
0000
0000
0000
,  // measure 82
0000
0000
0000
0300
;
