#TITLE:rather be in oakland;
#SUBTITLE:;
#ARTIST:Ecchi.MP4 & Karri;
#TITLETRANSLIT:;
#SUBTITLETRANSLIT:;
#ARTISTTRANSLIT:;
#GENRE:;
#CREDIT:;
#BANNER:;
#BACKGROUND:;
#LYRICSPATH:;
#CDTITLE:;
#MUSIC:Rather Be In Oakland.ogg;
#OFFSET:0.000000;
#SAMPLESTART:100.059883;
#SAMPLELENGTH:12.000000;
#SELECTABLE:YES;
#BPMS:0.000000=136.000000
;
#STOPS:0.000000=0.600000
;
#BGCHANGES:;
#KEYSOUNDS:;
#ATTACKS:;

//---------------dance-single - ----------------
#NOTES:
     dance-single:
     :
     Hard:
     13:
     0.594708,0.669796,0.114577,0.050923,0.222788,654.000000,636.000000,18.000000,8.000000,0.000000,0.000000,0.594708,0.669796,0.114577,0.050923,0.222788,654.000000,636.000000,18.000000,8.000000,0.000000,0.000000:
// measure 0
0000
0000
0000
0000
,  // measure 1
0000
0000
0000
0000
,  // measure 2
0000
0001
1000
0001
0100
0000
0010
0001
,  // measure 3
0100
0010
0001
1000
0001
0100
1000
0000
,  // measure 4
0000
0100
0001
1000
0100
0000
0001
1000
,  // measure 5
0100
0000
0001
0100
0001
0100
1000
0000
,  // measure 6
0000
0010
0001
0100
1000
0100
0010
0001
,  // measure 7
1000
0001
0100
0001
1000
0100
0000
0000
,  // measure 8
0020
0000
0030
0100
0001
0010
0100
0000
,  // measure 9
0000
0001
0000
1000
0000
0000
0000
0010
0000
0000
0100
0000
0001
0000
1000
0000
,  // measure 10
0020
0000
0030
0001
1000
0001
0100
0010
,  // measure 11
0001
1000
0001
0100
0001
1000
0100
0000
,  // measure 12
0002
0000
0003
0100
0001
0100
1000
0010
,  // measure 13
0000
0100
0000
0001
0000
0000
0100
0000
1000
0000
0001
0000
0001
0000
0100
0000
,  // measure 14
2000
3000
0000
1000
0001
0100
0010
0001
,  // measure 15
1000
0001
0100
0010
1001
0000
1001
0000
,  // measure 16
1001
0001
0010
0001
1000
0001
0100
1000
,  // measure 17
0100
0010
0001
1000
0001
0100
1000
0000
,  // measure 18
1001
0001
1000
0001
0010
0001
1000
0001
,  // measure 19
0100
0010
0001
1000
0001
0100
1000
0000
,  // measure 20
0001
0100
0001
0100
0010
0001
1000
0001
,  // measure 21
0100
0010
0001
1000
0001
0100
1000
0000
,  // measure 22
0001
0100
0010
0001
1000
0001
0100
0010
,  // measure 23
0001
1000
0001
0100
0110
0010
1001
0000
,  // measure 24
1001
0000
0010
0000
0001
1000
0100
0001
1000
0000
0100
0000
0001
0000
0100
0000
,  // measure 25
0010
0100
0001
0100
0010
0001
1000
0001
,  // measure 26
0100
0000
0010
0000
1000
0010
0100
0001
0010
0000
0010
0000
0100
0000
0001
0000
,  // measure 27
1000
0001
0100
0010
0001
1000
0001
0100
,  // measure 28
1000
0000
0100
0000
0010
1000
0001
0100
1000
0000
0001
0000
0100
0000
0010
0000
,  // measure 29
0001
1000
0001
0100
0010
0001
1000
0001
,  // measure 30
0100
0010
0001
1000
0001
0100
0010
0001
,  // measure 31
1000
0001
0010
0100
1001
0001
1001
0000
,  // measure 32
0200
0000
0300
0010
0001
1000
0100
0000
,  // measure 33
0001
0010
0000
0100
0001
1000
0001
0010
0100
0000
0000
0000
0000
0000
0000
0000
,  // measure 34
0020
0030
0000
0100
0010
0001
1000
0001
,  // measure 35
0100
0010
0001
1000
0001
0100
1000
0000
,  // measure 36
0200
0300
0001
1000
1000
0001
0100
0010
,  // measure 37
0100
0001
0000
0010
0100
0000
0000
0000
0000
0000
0000
0000
0001
0000
0000
0000
,  // measure 38
2000
3000
0010
0100
0001
1000
0001
0100
,  // measure 39
1000
0000
0001
0000
0100
0000
0010
0000
1000
0000
0000
0001
0000
0000
0000
0000
,  // measure 40
0100
0010
0001
1000
0001
0100
1000
0001
,  // measure 41
0100
0010
0001
1000
0001
0100
1000
0000
,  // measure 42
0001
0100
0001
0100
0010
0001
1000
0001
,  // measure 43
0100
0010
0001
1000
0001
0100
1000
0000
,  // measure 44
0001
0100
0001
0100
0010
0001
1000
0001
,  // measure 45
0100
0010
0001
1000
0001
0100
1000
0000
,  // measure 46
0100
0001
0100
0010
0001
1000
0001
0100
,  // measure 47
0010
0001
1000
0001
0100
1000
0000
0000
,  // measure 48
0010
0000
0000
0000
1000
0010
0001
0100
0001
0000
0000
0100
1000
0000
0000
0000
,  // measure 49
0100
0001
1000
0001
0010
0100
0001
1000
0100
0000
0000
0001
1000
0000
0000
0000
,  // measure 50
0010
0001
0100
0010
0001
1000
0001
1000
0100
0000
0000
0001
1000
0000
0000
0000
,  // measure 51
0000
0000
0000
0010
0001
1000
0001
0100
1000
0000
0000
0100
0001
0000
0000
0000
,  // measure 52
0010
0001
0100
0010
0001
1000
0001
0100
1000
0000
0000
0010
0001
0000
0000
0000
,  // measure 53
0000
0000
1000
0100
0001
1000
0001
0010
0100
0000
0000
0001
0010
0000
0000
0001
,  // measure 54
0100
0001
0100
0010
0001
1000
0001
0100
1000
0000
0000
0001
0010
0000
0000
0000
,  // measure 55
0100
0010
0001
1000
0001
0100
1000
0001
1000
0000
0000
0001
0010
0000
0100
0000
,  // measure 56
0001
0000
0000
0000
0010
0000
0100
0000
0001
0000
0000
1000
0100
0000
0000
0000
,  // measure 57
0000
0000
0100
0010
0001
1000
0001
0100
1000
0000
0000
0000
0001
0000
0000
0000
,  // measure 58
0100
0010
0001
1000
0001
0100
1000
0000
,  // measure 59
0100
0010
0001
1000
0001
0100
0010
0000
,  // measure 60
0001
0100
0001
0100
0001
1000
0100
0001
,  // measure 61
0100
0010
0001
1000
0001
0100
0010
0000
,  // measure 62
0001
0100
0010
0001
1000
0001
0100
0010
,  // measure 63
0001
1000
0001
0100
0110
0010
1001
0000
,  // measure 64
1001
0001
1000
0001
0100
0001
0010
0001
,  // measure 65
0100
0010
0001
1000
0001
0100
1000
0000
,  // measure 66
0001
0100
0001
0100
0010
0001
1000
0001
,  // measure 67
0100
0010
0001
1000
0001
0100
1000
0000
,  // measure 68
0100
0000
0001
0000
1000
0100
0001
0100
0001
0000
0010
0000
0100
0000
0001
0000
,  // measure 69
0100
0010
0001
1000
0001
0100
1000
0000
,  // measure 70
0100
0010
0001
1000
0001
0100
0010
0001
,  // measure 71
1000
0001
0100
0010
1001
0001
1001
0000
,  // measure 72
0101
1000
0100
0001
0100
0001
1000
0001
,  // measure 73
0010
0100
0001
1000
0001
0010
0100
0000
,  // measure 74
0001
0100
0001
0100
0010
0001
1000
0001
,  // measure 75
0100
0010
0001
1000
0001
0100
1000
0000
,  // measure 76
0100
0010
0001
1000
0001
0100
0010
0001
,  // measure 77
0100
0010
1000
0010
0010
0100
1000
0000
,  // measure 78
0001
0100
0001
1000
0001
0010
0100
0001
,  // measure 79
1000
0001
0010
0100
1001
1000
1001
0000
,  // measure 80
0110
0000
0000
0000
0010
0100
0001
1000
0001
0000
0000
0000
0001
0000
0000
0000
,  // measure 81
0000
0001
0000
0100
,  // measure 82
0010
0000
0000
0000
0001
1000
0001
0100
1000
0000
0001
0000
1000
0000
0001
0000
,  // measure 83
0100
0010
0001
1000
0001
0100
1000
0000
,  // measure 84
0010
0000
0000
0000
0010
0100
0001
1000
0001
0000
0000
0000
0001
0000
0000
0000
,  // measure 85
0000
0010
0000
0100
,  // measure 86
1000
0000
0000
0000
0100
0001
0100
0001
1000
0000
0000
0000
0010
0000
0001
0000
,  // measure 87
1000
0000
0001
0000
0100
0000
0010
0000
1000
0000
0000
0001
0000
0000
0000
0000
;
