#TITLE:punkrocker;
#SUBTITLE:;
#ARTIST:Teddybears & Iggy Pop;
#TITLETRANSLIT:;
#SUBTITLETRANSLIT:;
#ARTISTTRANSLIT:;
#GENRE:;
#CREDIT:;
#BANNER:;
#BACKGROUND:;
#LYRICSPATH:;
#CDTITLE:;
#MUSIC:Teddybears feat. Iggy Pop - Punk Rocker (lyrics).mp3;
#OFFSET:0.000000;
#SAMPLESTART:100.059883;
#SAMPLELENGTH:12.000000;
#SELECTABLE:YES;
#BPMS:0.000000=141.500000
,184.000000=144.000000
,208.000000=142.000000
,288.000000=140.000000
,316.000000=142.000000
,432.000000=140.000000
,444.000000=142.000000
;
#STOPS:0.000000=0.400000
;
#BGCHANGES:;
#KEYSOUNDS:;
#ATTACKS:;

//---------------dance-single - ----------------
#NOTES:
     dance-single:
     :
     Hard:
     12:
     0.550348,0.557053,0.004051,0.024306,0.018229,951.000000,950.000000,1.000000,6.000000,0.000000,0.000000,0.550348,0.557053,0.004051,0.024306,0.018229,951.000000,950.000000,1.000000,6.000000,0.000000,0.000000:
// measure 0
0000
0000
0000
0000
,  // measure 1
0000
0000
0000
0000
,  // measure 2
0000
0000
0000
0000
,  // measure 3
0000
0000
0000
0000
,  // measure 4
0010
0001
0100
0001
0100
0010
0001
1000
,  // measure 5
0001
0100
0010
0001
0100
0001
0100
0010
,  // measure 6
0001
1000
0001
0100
0010
0001
0010
0100
,  // measure 7
0010
0001
1000
0001
0100
0010
0001
0100
,  // measure 8
1000
0000
0000
0000
0000
0000
0100
0001
,  // measure 9
1000
0000
0001
1000
0000
0010
0000
0200
,  // measure 10
0000
0000
0000
0000
,  // measure 11
0000
0000
0000
0000
,  // measure 12
0000
0000
0000
0000
0000
0000
0300
0100
,  // measure 13
0001
0000
1000
0000
0100
0001
0000
1000
,  // measure 14
0100
0001
0010
0000
0100
0001
1000
0000
,  // measure 15
0100
0001
0010
0000
0100
0001
1000
0000
,  // measure 16
0010
0001
0100
0000
0100
0001
0010
0000
,  // measure 17
0001
0100
1000
0000
0001
0100
0010
0001
,  // measure 18
0001
1000
0100
0000
0010
0001
0100
0000
,  // measure 19
0100
0010
0100
0000
0001
1000
0100
0000
,  // measure 20
0001
1000
0100
0000
0100
0010
0001
1000
,  // measure 21
0100
0001
0010
0000
0001
0100
1000
0010
,  // measure 22
0001
1000
0010
0100
0001
1000
0001
0010
,  // measure 23
0100
0001
0100
0010
0001
0100
0001
0100
,  // measure 24
0010
0001
1000
0001
0100
0010
0001
0100
,  // measure 25
1000
0100
0010
0001
1000
0001
0100
0010
,  // measure 26
0001
1000
0001
0100
0001
0100
0001
0100
,  // measure 27
0010
0001
1000
0001
0100
0010
0001
0100
,  // measure 28
0001
0100
0010
0001
1000
0001
0100
0010
,  // measure 29
0001
0100
0001
0100
0010
0001
1000
0001
,  // measure 30
0100
0010
0001
0100
0001
0100
0010
0001
,  // measure 31
1000
0000
0001
0000
0100
0000
0010
0000
0001
0000
0100
0000
1000
0010
1000
0010
,  // measure 32
1000
0010
0001
1000
0001
0100
0010
0001
,  // measure 33
0010
0100
0001
0100
0010
0001
0100
1000
,  // measure 34
0100
0010
0001
0100
0001
0100
0010
0001
,  // measure 35
0100
0010
0001
1000
0001
0100
0010
0001
,  // measure 36
0100
0001
0100
0010
0001
1000
0001
0100
,  // measure 37
0010
0001
0100
0001
0100
0010
0001
1000
,  // measure 38
0001
0100
0010
0001
0100
0001
0100
0010
,  // measure 39
0001
1000
0001
0100
0010
0001
0100
0001
,  // measure 40
0100
0010
0001
1000
0001
0100
0010
0001
,  // measure 41
0100
0001
0100
0010
0001
0100
0001
0100
,  // measure 42
0010
0001
1000
0001
0100
0010
0001
0100
,  // measure 43
0001
0100
0010
0001
1000
0001
0100
0010
,  // measure 44
0001
0100
0010
0001
1000
0001
0100
0010
,  // measure 45
0001
0100
0001
0100
0010
0001
0100
0010
,  // measure 46
0001
1000
0001
0100
0010
0001
0100
0001
,  // measure 47
0100
0010
0001
1000
0001
0100
0010
0001
,  // measure 48
0100
0001
0100
0010
0001
1000
0100
0001
,  // measure 49
1000
0001
0100
0010
0100
0001
1000
0010
,  // measure 50
0100
0001
1000
0000
0100
0001
0010
0000
,  // measure 51
0001
0100
1000
0000
0001
1000
0100
0000
,  // measure 52
0010
0001
0100
0000
0001
1000
0100
0010
,  // measure 53
0100
0010
0001
0010
0001
1000
0100
0000
,  // measure 54
0001
0100
0010
0000
0001
0100
0010
0000
,  // measure 55
0001
1000
0100
0000
0010
0001
0100
0000
,  // measure 56
0001
1000
0100
0000
0010
0001
0100
0100
,  // measure 57
0010
0001
0100
0010
0001
0100
1000
0000
,  // measure 58
0010
0001
0100
0000
0001
0010
0100
0000
,  // measure 59
1000
0100
0001
0000
0001
0100
0010
0000
,  // measure 60
0001
0100
1000
0000
0001
0100
0010
0001
,  // measure 61
1000
0001
0100
0010
0001
0100
0010
0100
,  // measure 62
0010
0001
0100
0010
0001
1000
0001
0100
,  // measure 63
0010
0000
0001
0000
0100
0000
0001
0000
0100
0000
0010
0000
1000
0001
1000
0001
,  // measure 64
1000
0010
0100
0001
0100
0010
0001
1000
,  // measure 65
0001
0100
0001
0100
0010
0001
0100
0001
,  // measure 66
0100
0010
0001
1000
0001
0100
0010
0001
,  // measure 67
0100
0001
0100
0010
0001
1000
0001
0100
,  // measure 68
0010
0001
0100
0001
0100
0010
0001
1000
,  // measure 69
0001
0100
0010
0001
1000
0001
0100
0010
,  // measure 70
0001
0100
0001
0100
0010
0001
1000
0001
,  // measure 71
0100
0000
0010
0000
0000
0000
0001
0000
0000
0000
1000
0000
0100
0010
0100
0010
,  // measure 72
0100
0100
0010
0001
0100
0001
0100
0010
,  // measure 73
0001
1000
0001
0100
0010
0001
1000
0100
,  // measure 74
0010
0001
0100
0010
0001
0100
0010
0001
,  // measure 75
1000
0001
0100
0010
0001
0100
1000
0001
,  // measure 76
0100
0001
0100
0001
0010
0100
0001
1000
,  // measure 77
0001
0100
0010
0100
0001
0100
0010
0001
,  // measure 78
1000
0001
0100
0010
1000
0100
0001
0100
,  // measure 79
1000
0010
0001
0100
0010
0001
1000
0001
,  // measure 80
0100
0010
0001
0100
0001
0100
0010
0001
,  // measure 81
1000
0001
0100
0010
0001
0100
1000
0010
,  // measure 82
0100
0010
0001
1000
0001
0100
0010
0001
,  // measure 83
0100
0001
0100
0010
0001
1000
0001
0100
,  // measure 84
0010
0001
0100
0001
0100
0010
0001
1000
,  // measure 85
0001
0100
0010
0001
0100
0001
0100
0010
,  // measure 86
0001
1000
0001
0100
0010
0001
0100
0001
,  // measure 87
0100
0010
0001
1000
0001
0100
0010
0001
,  // measure 88
1000
0100
0000
0001
0000
0100
0000
0010
,  // measure 89
0000
0001
0000
0100
0000
0010
0000
0001
,  // measure 90
0000
0100
0000
1000
0000
0001
0000
0100
,  // measure 91
0000
0010
0000
0001
0000
0100
0000
0000
,  // measure 92
0000
0000
0000
0000
0000
0000
0100
0001
,  // measure 93
0010
0000
0100
0000
0001
1000
0000
0200
,  // measure 94
0000
0000
0000
0000
,  // measure 95
0000
0000
0000
0000
,  // measure 96
0000
0000
0300
0100
,  // measure 97
0010
0000
0000
0100
0001
1000
0000
0100
,  // measure 98
0000
0010
0000
0100
0000
0001
0000
1000
,  // measure 99
0000
0100
0000
0001
0000
0010
0000
0010
,  // measure 100
0000
0001
0000
0100
0000
0010
0100
0001
,  // measure 101
1000
0100
0001
0010
0000
0100
0000
0001
,  // measure 102
0000
0010
0000
0100
0000
1000
0000
0010
,  // measure 103
0000
0001
0000
1000
0000
0100
0000
0100
,  // measure 104
0000
0010
0000
0001
0000
0100
0000
0001
,  // measure 105
0010
0100
0001
1000
0010
0100
0001
1000
,  // measure 106
0001
0010
0000
0100
0000
0001
0000
0100
,  // measure 107
0000
0010
0000
0001
0000
1000
0000
0100
,  // measure 108
0001
0100
0010
0100
0010
0001
1000
0001
,  // measure 109
0100
0010
0001
0100
0001
0100
0010
0001
,  // measure 110
1000
0001
0100
0010
0001
0100
0001
0100
,  // measure 111
0010
0001
1000
0001
0100
0010
0001
0100
,  // measure 112
1000
0100
0010
0001
0100
0001
0100
0010
,  // measure 113
0001
1000
0001
0100
0010
1000
0001
0100
,  // measure 114
0010
0010
0001
0100
0001
0100
0010
0001
,  // measure 115
1000
0000
0001
0000
0100
0000
0010
0000
0001
0000
0100
0000
1000
0100
1000
0100
,  // measure 116
1000
0100
0010
0001
0100
0001
0100
0010
,  // measure 117
0001
1000
0100
0100
0010
0001
0100
0001
,  // measure 118
0100
0010
0001
1000
0001
0100
0010
0001
,  // measure 119
0100
0001
0100
0010
0001
1000
0001
0100
,  // measure 120
0010
0100
0001
0100
0010
0001
1000
0001
,  // measure 121
0100
0010
0001
0100
0001
0100
0010
0001
,  // measure 122
1000
0001
0100
0010
0001
0100
0001
0100
,  // measure 123
0010
0001
1000
0001
0100
0010
0001
0100
,  // measure 124
1000
0001
0100
0010
0001
0100
1000
0100
,  // measure 125
0001
0100
0010
0001
0100
0001
0100
0010
,  // measure 126
0001
0100
0001
0100
0010
0001
1000
0001
,  // measure 127
0100
0010
0001
0100
0001
0100
0010
0001
,  // measure 128
1000
0001
0100
0010
0100
0001
0100
0010
,  // measure 129
0001
1000
0001
0100
0010
0001
1000
0001
,  // measure 130
0100
0010
0001
1000
0001
0100
0010
0001
,  // measure 131
1000
0001
0100
0010
0001
0100
0001
0100
,  // measure 132
0010
0001
1000
0001
0100
0010
0001
0100
,  // measure 133
0010
0001
0100
0010
0001
1000
0001
0100
,  // measure 134
0010
0001
0100
0001
0100
0010
0001
1000
,  // measure 135
0001
0100
0010
0001
1000
0001
0100
0010
,  // measure 136
0001
0100
0001
0100
0010
0001
1000
0001
,  // measure 137
0100
0010
0001
1000
0001
0100
0010
0100
,  // measure 138
0001
0100
0010
0001
1000
0001
0100
0010
,  // measure 139
0001
0100
0010
0001
1000
0001
0100
0010
,  // measure 140
2002
0000
0000
0000
,  // measure 141
0000
0000
0000
0000
,  // measure 142
0000
0000
0000
0000
0000
0000
3003
0000
0000
0200
0000
2000
,  // measure 143
0000
0000
0000
0000
,  // measure 144
0000
0000
0000
3300
;
