#TITLE:primidona;
#SUBTITLE:;
#ARTIST:Micheal Medrano;
#TITLETRANSLIT:;
#SUBTITLETRANSLIT:;
#ARTISTTRANSLIT:;
#GENRE:;
#CREDIT:;
#BANNER:;
#BACKGROUND:;
#LYRICSPATH:;
#CDTITLE:;
#MUSIC:PRIMADONNA - OFFICIAL MUSIC VIDEO.ogg;
#OFFSET:0.000000;
#SAMPLESTART:100.059883;
#SAMPLELENGTH:12.000000;
#SELECTABLE:YES;
#BPMS:0.000000=137.000000
;
#STOPS:0.000000=0.100000
;
#BGCHANGES:0.000=PRIMADONNA - OFFICIAL MUSIC VIDEO.mp4=1.000=0=0=1=====,
99999=-nosongbg-=1.000=0=0=0 // don't automatically add -songbackground-
;
#KEYSOUNDS:;
#ATTACKS:;

//---------------dance-single - ----------------
#NOTES:
     dance-single:
     :
     Hard:
     13:
     0.543954,0.681313,0.006824,0.013648,0.235421,558.000000,557.000000,1.000000,2.000000,0.000000,0.000000,0.543954,0.681313,0.006824,0.013648,0.235421,558.000000,557.000000,1.000000,2.000000,0.000000,0.000000:
// measure 0
0000
0000
0000
0000
,  // measure 1
0000
0000
0000
0000
,  // measure 2
0000
0000
0000
0000
,  // measure 3
0000
0000
0000
0000
,  // measure 4
0010
0000
0000
0001
0000
0000
0100
0000
0001
0000
0100
0000
1000
0000
0001
0000
,  // measure 5
0100
0000
0000
0010
0000
0000
1000
0000
0001
0000
0100
0000
1000
0000
0001
0000
,  // measure 6
0100
0000
0000
0010
0000
0000
0001
0000
1000
0000
0001
0000
0100
0000
0010
0000
,  // measure 7
0001
0000
0000
0100
0000
0000
0010
0000
0001
0000
1000
0000
0001
0000
0100
0000
,  // measure 8
1000
0000
0001
0100
0010
0000
0001
0100
,  // measure 9
0010
0000
0001
0100
0001
0100
1000
0010
,  // measure 10
0100
0001
0100
0010
0001
1000
0001
0100
,  // measure 11
1000
0000
0001
0100
0010
0001
1000
0001
,  // measure 12
0100
1000
0010
0001
0100
0010
0001
1000
,  // measure 13
0001
0100
0010
0000
0001
1000
0100
0000
,  // measure 14
0010
0001
1000
0001
0100
0010
0001
1000
,  // measure 15
0001
0100
1000
0000
1000
0001
0100
0000
,  // measure 16
0010
0000
0000
0001
0000
0000
1000
0000
0100
0000
0010
0000
0001
1000
0001
0100
,  // measure 17
1000
0000
0000
0010
0000
0000
0001
0000
1000
0000
0001
0000
0100
0000
0010
0000
,  // measure 18
0001
0000
0000
1000
0000
0000
0010
0000
0001
0000
0100
0000
1000
0000
0001
0000
,  // measure 19
0100
0000
0000
0010
0000
0000
0001
0000
1000
0000
0001
0000
0100
0000
0010
0000
,  // measure 20
0001
0000
0000
0100
0000
0000
0010
0000
0001
0000
1000
0000
0001
0000
0100
0000
,  // measure 21
1000
0000
0000
0001
0000
0000
0010
0000
0001
0000
1000
0000
0001
0000
0100
0000
,  // measure 22
1000
0000
0000
0010
0001
1000
0001
0100
,  // measure 23
1000
0100
0000
0010
0001
1000
0001
0100
,  // measure 24
1000
0000
0000
0001
0000
0000
0010
0000
0001
0000
1000
0000
0001
0000
0100
0000
,  // measure 25
1000
0000
0000
0001
0000
0000
0010
0000
0100
0000
0001
0000
1000
0000
0001
0000
,  // measure 26
0010
0000
0000
0001
0000
0000
1000
0000
0001
0000
1000
0000
0001
0000
0100
0000
,  // measure 27
1000
0000
0000
0001
0000
0000
0010
0000
1000
0000
0001
0000
0100
0000
0010
0000
,  // measure 28
1000
0000
0000
0001
0000
0000
0010
0000
0001
0000
1000
0000
0001
0000
0100
0000
,  // measure 29
0010
0000
0000
0001
0000
0000
0001
0000
1000
0000
0001
0000
0100
0000
0001
0000
,  // measure 30
1000
0000
0000
0100
0000
0000
0001
0000
0010
0000
0100
0000
0001
0000
1000
0000
,  // measure 31
0001
0000
0000
0100
0000
0000
0001
0000
1000
0000
0100
0000
0001
0000
0010
0000
,  // measure 32
1000
0000
0000
0001
0000
0000
0010
0000
0100
0000
0001
0000
1000
0000
0001
0000
,  // measure 33
0010
0000
0000
0001
0000
0000
0100
0000
0000
0000
0100
0000
0010
0001
0100
0000
,  // measure 34
1000
0000
0000
0010
0000
0000
0001
0000
0000
0000
0010
0000
0001
0010
0100
0001
,  // measure 35
1000
0000
0100
0000
0001
0000
1000
0000
0001
0000
0010
0000
0001
0100
0001
0100
,  // measure 36
1000
0000
0000
0100
0000
0000
0001
0000
0000
0000
0010
0000
0001
0000
0100
0000
,  // measure 37
1000
0000
0000
0010
0000
0000
0001
0000
0000
0000
1000
0000
0001
0000
0100
0000
,  // measure 38
0010
0000
0000
0001
0000
0000
1000
0000
0000
0000
0100
0000
0010
0000
0001
0000
,  // measure 39
0100
0000
0010
0000
0001
1000
0001
0100
1000
0000
0010
0000
0001
0100
0001
0100
,  // measure 40
1000
0001
0100
0010
0001
1000
0001
0100
,  // measure 41
1000
0000
0000
0001
0000
0000
0010
0000
0001
0000
1000
0000
0001
0000
0100
0000
,  // measure 42
1000
0000
0000
0001
0000
0000
0010
0000
0100
0000
0001
0000
1000
0000
0100
0000
,  // measure 43
0001
0000
0000
0100
0000
0000
0001
0000
1000
0000
0100
0000
0001
0000
0010
0000
,  // measure 44
0010
0000
0000
0001
0000
0000
0100
0000
1000
0000
0001
0000
0010
0000
0100
0000
,  // measure 45
0001
0000
0000
0100
0000
0000
0010
0000
0001
0000
1000
0000
0001
0000
0100
0000
,  // measure 46
1000
0000
0000
1000
0001
0100
0001
1000
,  // measure 47
0100
0000
0010
0000
0000
0000
0010
0000
0100
0000
0001
0000
0100
0010
0001
0000
,  // measure 48
0100
0000
0000
0010
0100
0000
0001
0000
0000
0000
1000
0000
0100
0000
0000
0000
,  // measure 49
1000
0000
0100
0000
0001
0000
0100
0000
0001
0000
0010
0000
0100
0000
0001
1000
,  // measure 50
0100
0000
0000
0001
0000
0000
0010
0000
0000
0000
0010
0000
0001
0000
0100
0000
,  // measure 51
1000
0000
0001
0000
0100
0010
0001
1000
,  // measure 52
0100
0020
0000
0000
,  // measure 53
0030
0000
0100
0000
0001
0000
1000
0000
0010
0000
0100
0000
1000
0100
0001
0000
,  // measure 54
0020
0000
0000
0030
0000
0100
0001
1000
,  // measure 55
0001
0100
0001
1000
0001
0010
0100
0001
1000
0001
0010
0100
0001
1000
0001
0010
,  // measure 56
0100
0001
0100
0010
0001
1000
0001
0100
,  // measure 57
1000
0100
0010
0001
1000
0001
0100
0010
,  // measure 58
0001
1000
0001
0100
0010
0001
1000
0001
,  // measure 59
0100
0010
0001
0010
1000
0100
0001
0001
,  // measure 60
1000
0001
1000
0001
0100
0010
0001
1000
,  // measure 61
0001
0100
0010
0001
1000
0001
1000
0001
,  // measure 62
0100
0010
0001
1000
0001
0100
0010
0001
,  // measure 63
0100
0001
0100
0010
0001
1000
0001
0100
,  // measure 64
1001
0001
0100
0010
0001
1000
0001
0100
,  // measure 65
1000
0000
0010
0001
0100
0000
0010
0000
0001
0000
1000
0000
0001
0000
0100
0000
,  // measure 66
0010
0000
0001
0100
1000
0000
0100
0000
0010
0000
0001
0000
1000
0000
0001
0000
,  // measure 67
0100
0010
0001
1000
0001
0100
0010
0001
,  // measure 68
0100
0001
0100
0010
0001
1000
0001
0100
,  // measure 69
0010
0000
0001
0100
1000
0000
0001
0000
1000
0000
0001
0000
0010
0000
0100
0000
,  // measure 70
0100
0000
0010
0100
0001
0000
1000
0000
0001
0000
0100
0000
0010
0000
0001
0000
,  // measure 71
0100
0010
0100
0001
1000
0001
0100
0010
,  // measure 72
1000
0000
0000
0001
0000
0000
0010
0000
0000
0000
0001
0000
1000
0000
0100
0000
,  // measure 73
0010
0000
0000
0001
0000
0000
0100
0000
0000
0000
0010
0000
0001
0100
1000
0000
,  // measure 74
0001
0000
0000
0100
0000
0000
0010
0000
0000
0000
0001
0000
0100
0000
1000
0000
,  // measure 75
0010
0000
0000
0001
0000
0000
0100
0000
0000
0000
0010
0000
0001
0100
1000
0000
,  // measure 76
0001
0000
0000
0100
0000
0000
0010
0000
0000
0000
0001
0000
0100
0000
1000
0000
,  // measure 77
0010
0000
0000
0001
0000
0000
0100
0000
0000
0000
0010
0000
0001
1000
0100
0000
,  // measure 78
0010
0000
0000
0001
0000
0000
0100
0000
0000
0000
1000
0000
0001
0000
0100
0000
,  // measure 79
0010
0000
0000
0001
0000
0000
0100
0000
0000
0000
0010
0000
0001
0100
1000
0000
;
