#VERSION:0.83;
#TITLE:prema;
#SUBTITLE:;
#ARTIST:Fuji Kaze;
#TITLETRANSLIT:;
#SUBTITLETRANSLIT:;
#ARTISTTRANSLIT:;
#GENRE:;
#ORIGIN:;
#CREDIT:;
#BANNER:;
#BACKGROUND:;
#PREVIEWVID:;
#JACKET:;
#CDIMAGE:;
#DISCIMAGE:;
#LYRICSPATH:;
#CDTITLE:;
#MUSIC:Prema.mp3;
#OFFSET:0.000000;
#SAMPLESTART:100.059883;
#SAMPLELENGTH:12.000000;
#SELECTABLE:YES;
#BPMS:0.000=101.000;
#STOPS:0.000=0.300;
#DELAYS:;
#WARPS:;
#TIMESIGNATURES:0.000=4=4;
#TICKCOUNTS:0.000=4;
#COMBOS:0.000=1;
#SPEEDS:0.000=1.000=0.000=0;
#SCROLLS:0.000=1.000;
#FAKES:;
#LABELS:0.000=Song Start;
#BGCHANGES:;
#KEYSOUNDS:;
#ATTACKS:
;

//---------------dance-single - ----------------
#NOTEDATA:;
#CHARTNAME:;
#STEPSTYPE:dance-single;
#DESCRIPTION:;
#CHARTSTYLE:;
#DIFFICULTY:Hard;
#METER:11;
#RADARVALUES:0.321116,0.683651,0.060855,0.182564,0.243418,591.000000,575.000000,16.000000,48.000000,0.000000,0.000000,0.000000,0.000000,0.000000,0.321116,0.683651,0.060855,0.182564,0.243418,591.000000,575.000000,16.000000,48.000000,0.000000,0.000000,0.000000,0.000000,0.000000;
#CREDIT:;
#NOTES:
// measure 0
0000
0000
0000
0000
,  // measure 1
0000
0000
0000
0000
,  // measure 2
0000
0000
0000
0000
,  // measure 3
0000
0000
0000
0000
,  // measure 4
0000
0000
0000
0000
,  // measure 5
0100
0000
0000
0000
0000
0000
0000
0001
0010
0000
0001
0000
0100
0000
1000
0000
,  // measure 6
0000
0000
0000
0000
0010
0100
0001
1000
,  // measure 7
1000
0000
0001
0000
0100
0000
0010
0100
0001
0000
1000
0000
0100
0000
0001
0000
,  // measure 8
0100
0000
0001
0000
1000
0000
0100
0000
0001
0010
0001
0010
0001
0010
0001
0010
,  // measure 9
0002
0000
0020
0033
,  // measure 10
0100
0000
0001
1000
0000
0000
0010
0000
0001
0000
1000
0000
0001
0000
0100
0000
,  // measure 11
0020
0000
0030
0000
0100
0001
1000
0001
,  // measure 12
0200
0000
0000
0000
,  // measure 13
0300
0200
0020
0330
,  // measure 14
0001
0000
1000
0100
0000
0000
0001
0000
1000
0000
0001
0000
0100
0000
0010
0000
,  // measure 15
0002
0000
0000
0000
0003
0000
0000
0000
0100
0000
0001
0000
0100
0000
0000
1000
,  // measure 16
0000
0002
0000
0000
0000
0000
0000
0003
,  // measure 17
0110
0000
0000
0000
0100
0000
0001
1000
0000
0000
0000
0000
0000
0000
0000
0000
,  // measure 18
0100
0000
1000
0001
0000
0000
0010
0000
0100
0000
0001
0000
0100
0000
1000
0000
,  // measure 19
0000
0000
0000
0000
0100
0000
0001
1000
0000
0000
0000
0000
0000
0000
0000
0000
,  // measure 20
0100
0000
0000
0010
0000
0000
0100
0000
0010
0000
0001
0000
0100
0000
1000
0000
,  // measure 21
0000
0000
0000
0000
0010
0000
0100
0002
0000
0000
0000
0000
0003
0000
0000
0000
,  // measure 22
0100
0000
0001
1000
0000
0000
0010
0000
0001
0000
1000
0000
0001
0000
0100
0000
,  // measure 23
0010
0000
0100
0001
0000
0000
0010
0000
0100
0000
0001
0000
0100
0000
2000
0000
,  // measure 24
0000
0000
0000
0000
3000
0001
0010
0000
,  // measure 25
0110
0000
0000
0000
0010
0000
0001
0100
0000
0000
0000
0000
0000
0000
0000
0000
,  // measure 26
0010
0000
0000
0001
0000
0000
0100
0000
0010
0000
0001
0000
0100
0000
1000
0000
,  // measure 27
0000
0000
0000
0000
0100
0000
0010
0001
0000
0000
0000
0000
0000
0000
0000
0000
,  // measure 28
1000
0000
0100
0001
0000
0010
0000
0000
0010
0000
0001
0000
0100
0000
1000
0000
,  // measure 29
0000
0000
0000
0000
1000
0000
0100
0002
0000
0000
0000
0000
0003
0000
0000
0000
,  // measure 30
0010
0000
0100
0010
0000
0000
0001
0000
0100
0000
0001
0000
1000
0000
0100
0000
,  // measure 31
0010
0000
0100
0001
0100
0000
0010
0000
0001
0000
0100
0000
1000
0000
0020
0000
,  // measure 32
0000
0000
0000
0000
0030
0000
0000
0001
1000
0100
0000
0010
0100
0001
1000
0000
,  // measure 33
1001
0000
0001
0000
0000
0000
0000
0000
1000
0000
0000
0001
0000
0000
0010
0000
,  // measure 34
0100
0000
0010
0000
0001
0000
1000
0100
,  // measure 35
0000
0000
0001
0000
0000
0000
0000
0000
0010
0000
0000
0001
0000
0000
0100
0000
,  // measure 36
0010
0000
0001
0000
0010
0000
0010
0100
,  // measure 37
1001
0000
0000
0000
0000
0000
0000
0000
1000
0000
0000
0001
0000
0000
0010
0000
,  // measure 38
1000
0000
0000
0000
0001
0000
0000
0000
0100
0000
0000
0000
0001
0000
0000
0020
,  // measure 39
0000
0000
0000
0000
0000
0000
0030
0001
,  // measure 40
0000
0100
0010
0001
2000
0000
3100
0000
,  // measure 41
0200
0000
0020
0330
,  // measure 42
0001
0000
1000
0100
0000
0000
0001
0000
0010
0000
0100
0000
0001
0000
0010
0000
,  // measure 43
0200
0000
0300
0000
0001
1000
0100
0001
,  // measure 44
0020
0000
0000
0000
,  // measure 45
0030
0200
0020
0330
,  // measure 46
0010
0000
1000
0001
0000
0000
0010
0000
0100
0000
0001
0000
0100
0000
1000
0000
,  // measure 47
0200
0000
0000
0000
0000
0000
0300
0000
0001
0000
0100
0000
0010
0000
0000
0001
,  // measure 48
0000
2002
0000
0000
0000
0000
0000
3003
,  // measure 49
1001
0200
0020
0330
,  // measure 50
0100
0020
0002
0000
,  // measure 51
0000
0000
0033
0000
0001
1000
0100
0020
,  // measure 52
0000
0000
0000
0000
,  // measure 53
0030
0200
0002
0000
,  // measure 54
0303
0000
0200
0000
0020
0000
0330
0001
,  // measure 55
1000
0000
0000
0000
0010
0100
0001
2000
,  // measure 56
0000
0000
0000
0000
3000
1000
0100
0000
,  // measure 57
1001
0000
0000
0000
0010
0000
0100
0001
0000
0000
0000
0000
0000
0000
0000
0000
,  // measure 58
0001
0000
0000
0100
0000
0000
0010
0000
0100
0000
0001
0000
0100
0000
1000
0000
,  // measure 59
0000
0000
0000
0000
0001
0000
1000
0100
0000
0000
0000
0000
0000
0000
0000
0000
,  // measure 60
0100
0000
0000
0010
0000
0000
0001
0000
0100
0000
0001
0000
0100
0000
1000
0000
,  // measure 61
0000
0000
0000
0000
0100
0000
0001
2000
0000
0000
0000
0000
0000
3000
0000
0000
,  // measure 62
0010
0000
0001
1000
0000
0000
0010
0000
0100
0000
0001
0000
0100
0000
1000
0000
,  // measure 63
0100
0000
0001
0010
0000
0000
0001
0000
1000
0000
0001
0000
0100
0000
2000
0000
,  // measure 64
0000
0000
0000
0000
3000
0100
0001
0000
,  // measure 65
1001
0000
0000
0000
0000
0000
0000
0000
1000
0000
0000
0001
0000
0000
0100
0000
,  // measure 66
0001
0000
0100
0000
0010
0000
0001
1000
,  // measure 67
0000
0000
0100
0000
0000
0000
0000
0000
0010
0000
0000
0100
0000
0000
0001
0000
,  // measure 68
0000
0000
0000
0010
0000
0000
0001
0000
0100
0000
0000
0000
0011
0000
0010
0000
,  // measure 69
1001
0000
0001
0000
0000
0000
0000
0000
0010
0000
0000
0001
0000
0000
1000
0000
,  // measure 70
0001
0000
0100
0000
0010
0000
0001
2000
,  // measure 71
0000
0000
0000
0200
0000
0000
3300
0100
,  // measure 72
0000
0001
0100
0010
0002
0000
1003
0000
,  // measure 73
0100
0000
0000
0000
0010
0000
0000
0000
0100
0000
0001
1000
0100
0000
0000
0000
,  // measure 74
0001
0000
0000
0000
0100
0000
0000
0000
0010
0000
0000
0000
0100
0001
1000
0001
,  // measure 75
0010
0000
0000
0000
0010
0000
0000
0000
0100
0000
0001
0020
0000
0000
0030
0000
,  // measure 76
0001
0000
0000
0000
0100
0000
0000
0000
0010
0000
0000
0000
1000
0001
1000
0001
,  // measure 77
0010
0000
0000
0000
0001
0000
0000
0100
0000
0000
0010
0000
0000
0100
0000
0000
,  // measure 78
0010
0000
0000
0000
0010
0000
0000
0001
0000
0000
0000
1000
0000
0000
0100
0000
,  // measure 79
0001
0000
0000
0010
0100
0000
0000
0001
0000
0000
1000
0000
0000
0100
0000
0000
,  // measure 80
0000
0000
0000
0000
0000
0000
0100
0010
0001
1000
0001
0100
0001
0100
1000
0000
,  // measure 81
1001
0000
0000
0000
0000
0000
0000
0000
1000
0000
0000
0001
0000
0000
0010
0000
,  // measure 82
0100
0000
0001
0000
0010
0000
0001
0100
,  // measure 83
0000
0000
1000
0000
0000
0000
0000
0000
0100
0000
0000
0001
0000
0000
0010
0000
,  // measure 84
0000
0000
1001
0000
0000
0110
0000
0000
0101
0000
0000
0000
0010
0000
0100
0000
,  // measure 85
0101
0000
1000
0000
0000
0000
0000
0000
0100
0000
0000
0001
0000
0010
0000
0000
,  // measure 86
0100
0000
0010
0000
0001
0000
0100
0020
,  // measure 87
0000
0000
0000
0200
0000
0000
0330
0100
,  // measure 88
0000
1000
0100
0001
0010
0000
0001
0000
,  // measure 89
0200
0000
0020
0330
,  // measure 90
0100
0000
0001
0010
0000
0000
0010
0000
0001
0000
1000
0000
0001
0000
0100
0000
,  // measure 91
2000
0000
3000
0000
0100
0001
0100
1000
,  // measure 92
0200
0000
0000
0000
,  // measure 93
0300
0020
0200
0330
,  // measure 94
0100
0000
0001
0010
0000
0000
0001
0000
0100
0000
0001
0000
0100
0000
1000
0000
,  // measure 95
0001
0000
0000
0000
0000
0000
0000
0000
0100
0000
0001
0000
0000
1000
0000
0100
,  // measure 96
0000
0002
0000
0000
0000
0000
0003
0000
,  // measure 97
1001
0010
0100
0001
0010
1000
0001
0100
,  // measure 98
1000
0000
0100
0001
0100
0010
1000
0001
0100
0000
0001
0010
0000
0100
0001
0000
,  // measure 99
1000
0000
0100
0000
0001
0010
0000
0100
0000
0000
0100
0010
0001
0100
0000
0001
,  // measure 100
0000
1000
0100
0001
0010
0100
0001
0000
1000
0100
0000
0001
0000
0010
0100
0000
,  // measure 101
0001
1000
0100
0001
0010
0100
0010
0001
0100
0010
0001
0100
0001
0100
0010
0001
,  // measure 102
1000
0001
0100
0010
0001
0100
0001
0100
0010
0001
1000
0001
0100
0010
0001
0100
,  // measure 103
0001
0100
0010
0001
1000
0001
0100
0010
0001
1000
0001
0100
0010
0001
0100
0001
,  // measure 104
0100
0010
0001
1000
0001
0100
0010
0001
1000
0001
0100
0010
0001
0100
0001
0100
,  // measure 105
1000
0000
0000
0000
0000
0000
0100
1000
0001
0000
0010
0000
0100
0000
0001
0000
,  // measure 106
0000
0000
0100
0001
0000
1000
0100
0000
0010
0000
0100
0000
0001
0000
0100
0000
,  // measure 107
1000
0000
0000
0000
0001
0000
0000
0010
0100
0000
0100
0000
1000
0000
0001
0000
,  // measure 108
0100
0000
0001
1000
0000
0100
0001
0000
0100
0000
0001
0000
0010
0100
0001
0100
;
