#TITLE:preformer;
#SUBTITLE:;
#ARTIST:4s4ki;
#TITLETRANSLIT:;
#SUBTITLETRANSLIT:;
#ARTISTTRANSLIT:;
#GENRE:;
#CREDIT:;
#BANNER:;
#BACKGROUND:;
#LYRICSPATH:;
#CDTITLE:;
#MUSIC:preformer.mp3;
#OFFSET:0.000000;
#SAMPLESTART:0.059886;
#SAMPLELENGTH:12.000000;
#SELECTABLE:YES;
#BPMS:0.000000=102.500000
,84.000000=205.000000
,212.000000=102.500000
,232.000000=205.000000
,264.000000=102.500000
,288.000000=205.000000
,432.000000=102.500000
;
#STOPS:0.000000=0.200000
;
#BGCHANGES:;
#KEYSOUNDS:;
#ATTACKS:;

//---------------dance-single - ----------------
#NOTES:
     dance-single:
     :
     Hard:
     15:
     0.983454,1.139957,0.005770,0.086557,1.206029,1193.000000,1192.000000,1.000000,15.000000,0.000000,0.000000,0.983454,1.139957,0.005770,0.086557,1.206029,1193.000000,1192.000000,1.000000,15.000000,0.000000,0.000000:
// measure 0
0000
0000
0000
0000
,  // measure 1
1000
0000
0001
0000
0100
0000
0001
0010
0000
0100
0001
0000
1000
0100
0001
0010
,  // measure 2
0100
0000
0001
0000
0010
0000
0100
0001
0000
1000
0100
0000
0001
0010
0100
0001
,  // measure 3
1000
0000
0100
0000
0001
0000
0100
0010
0000
0100
0010
0000
0010
0001
0100
0001
,  // measure 4
1000
0000
0001
0000
0100
0000
0010
0001
0000
0100
0010
0000
0100
0010
0001
0100
,  // measure 5
1000
0000
0001
0000
0100
0000
0010
0000
0001
0000
1000
0000
0001
0000
0000
0000
1000
0001
0100
0010
0100
0001
1000
0000
0000
0000
0100
0000
0010
0000
0000
0001
,  // measure 6
0010
0100
0001
1000
0100
0001
0010
0100
0001
0000
0000
0000
1000
0100
0001
0010
,  // measure 7
0000
0000
0100
0000
0010
0000
0100
0001
0000
0000
0000
0000
0100
0010
0001
0100
,  // measure 8
1000
0000
0010
0001
0000
0010
0100
0000
1000
0100
0001
0100
0001
1000
0001
0010
,  // measure 9
0100
0000
0100
0010
0000
0001
0000
0100
0001
0000
1000
0100
0000
0001
0000
0010
,  // measure 10
0100
0000
0010
0001
0000
0010
0000
0100
1000
0000
0000
0000
0100
0010
0001
0100
,  // measure 11
0000
0000
1000
0000
0001
0100
0001
0100
0000
0000
0010
0000
0001
0100
0001
0100
,  // measure 12
1000
0000
0010
0100
0001
0010
0100
0001
1000
0010
0100
0000
0010
0000
0001
0000
,  // measure 13
1000
0000
0100
0000
0001
0000
0010
0000
0001
0000
0100
0000
1000
0001
1000
0000
,  // measure 14
0100
0000
0010
0000
0001
0000
1000
0000
0001
0000
0100
0000
0010
1000
0001
0000
,  // measure 15
0001
1000
0001
0100
0010
0001
1000
0010
,  // measure 16
0100
0001
0100
0001
2000
0000
3100
0000
,  // measure 17
0020
0000
0000
0000
0030
0100
0001
0100
,  // measure 18
0020
0000
0000
0000
0000
0000
0000
0030
,  // measure 19
0000
0200
0000
0002
0000
0000
0000
0303
,  // measure 20
0000
2000
0000
0000
0000
3000
0000
1000
,  // measure 21
1000
0000
0100
0000
0001
0010
0100
0001
1000
0001
0100
0010
0100
0000
0001
0000
,  // measure 22
0100
0000
0001
0000
0100
0001
0010
0100
0001
0010
0100
0001
1000
0000
0001
0000
,  // measure 23
0100
0000
0010
0000
0001
0100
0010
0001
1000
0001
0100
0001
0100
0000
1000
0000
,  // measure 24
0001
0000
0010
0000
0100
0010
0001
1000
0001
0100
0010
0001
0100
0000
1000
0000
,  // measure 25
0010
0000
0001
0000
0100
0010
0001
1000
0001
0100
0010
0001
0100
0000
1000
0000
,  // measure 26
0100
0000
0010
0000
0100
0010
0001
1000
0001
0100
0010
0001
0100
0000
1000
0000
,  // measure 27
0001
0000
0100
0000
0010
0001
1000
0001
0100
0010
0001
0100
1000
0000
0001
0000
,  // measure 28
0100
0000
0010
0000
0100
0001
0010
0100
0010
0001
1000
0001
0100
0000
0010
0000
,  // measure 29
0001
0100
0010
0100
0001
0100
0010
0001
1000
0001
0100
0010
0001
0100
1000
0100
,  // measure 30
0001
0000
0010
0000
0001
0100
0010
0001
1000
0100
0001
0010
0100
0000
0010
0000
,  // measure 31
0001
0000
0100
0000
0010
0001
1000
0001
0100
0010
0001
0100
1000
0000
0001
0000
,  // measure 32
0100
0000
0010
0000
0100
0010
0001
1000
0001
0100
0001
0010
0100
0000
1000
0000
,  // measure 33
0001
0000
0100
0000
0010
0100
0001
0100
0010
0001
1000
0001
0100
0000
0010
0000
,  // measure 34
0001
0000
0100
0000
0010
0001
1000
0001
0100
0010
0001
0100
1000
0000
0001
0000
,  // measure 35
0100
0000
0010
0000
0001
1000
0001
0100
0010
0001
1000
0100
0010
0000
0001
0000
,  // measure 36
0100
0000
0001
0000
0100
0010
0001
0100
1000
0001
0100
0010
0001
0000
0100
0000
,  // measure 37
1000
0000
0010
0000
0100
0001
0100
0001
1000
0001
0010
0100
0001
0000
0010
0000
,  // measure 38
0010
0000
0001
0000
0100
0010
0001
1000
0001
0100
0001
0010
0100
0000
1000
0000
,  // measure 39
0001
0000
0100
0000
0010
0001
0100
0010
0001
1000
0001
0100
0010
0000
0001
0000
,  // measure 40
0100
0000
0010
0000
0001
1000
0001
0100
0010
0001
0100
1000
0001
0000
0100
0000
,  // measure 41
0010
0000
0001
0000
0100
0010
0001
1000
0001
0100
0010
0001
0100
0000
1000
0000
,  // measure 42
0001
0000
0100
0000
0010
0001
0100
0010
0001
0100
1000
0001
0100
0000
0010
0000
,  // measure 43
1000
0000
0100
0000
0001
0010
0100
0001
1000
0100
0001
0010
0100
0000
0001
0000
,  // measure 44
0100
0000
0010
0000
0001
0100
0010
0001
1000
0001
0100
0010
0001
0000
0100
0000
,  // measure 45
0100
0010
0100
0001
1000
0001
0010
0100
0001
1000
0001
0010
0100
0001
1000
0001
,  // measure 46
0010
0000
0001
0000
0100
0010
0001
1000
0001
0100
0010
0001
0100
0000
1000
0000
,  // measure 47
0010
0000
0001
0000
0100
0010
0001
1000
0001
0100
0010
0001
0100
0000
1000
0000
,  // measure 48
0010
0000
0001
0000
0100
0010
0001
1000
0001
0100
0010
0001
0100
0000
1000
0000
,  // measure 49
0100
0000
0001
0000
0010
0100
0010
0001
0100
0001
1000
0001
0010
0000
0100
0000
,  // measure 50
0001
0000
0010
0000
0001
1000
0001
0100
0010
0001
1000
0100
0001
0000
0100
0000
,  // measure 51
0010
0000
0001
0000
0100
0010
0001
1000
0001
0100
0010
0001
1000
0000
0100
0000
,  // measure 52
0010
0001
1000
0001
0100
0010
0001
0100
1000
0001
1000
0001
1000
0001
1000
0001
,  // measure 53
2002
0000
0000
3003
,  // measure 54
1000
0100
0001
0010
0000
0100
0001
0010
1000
0000
0100
0001
0000
0010
0100
0001
,  // measure 55
1000
0000
0010
0100
0000
0001
0000
1000
0100
0000
0000
0000
0100
0010
0001
0100
,  // measure 56
1000
0000
0010
0000
0100
0000
0001
0000
1000
0000
0000
0001
1000
0000
0100
0000
,  // measure 57
0010
0000
0100
0000
0010
0000
0100
0000
0010
0000
0100
0000
0010
0000
0100
0000
0010
0100
0010
0100
0010
0100
0010
0100
0010
0100
0010
0100
0010
0100
0010
0100
,  // measure 58
0010
0000
0000
0000
1000
0100
0001
0010
0100
0001
1000
0001
0010
0000
0000
0000
,  // measure 59
0010
0000
0000
0000
0100
0010
0001
1000
0001
0100
0001
0100
1000
0000
0000
0000
,  // measure 60
0100
0000
0000
0000
0010
0001
1000
0001
0100
0010
0001
0100
1000
0000
0001
0000
,  // measure 61
2000
0000
0000
3000
,  // measure 62
1000
0001
0100
0010
0100
0010
0001
0100
,  // measure 63
0001
1000
0010
0001
0100
0010
0001
1000
,  // measure 64
0001
0100
0010
0001
1000
0001
0100
0010
,  // measure 65
0001
0000
1000
0000
0001
0000
0100
0000
1000
0001
1000
0001
1000
0001
1000
0001
,  // measure 66
2000
0000
0000
0000
3000
0000
0100
0001
,  // measure 67
0010
0100
0001
1000
0001
0010
0100
0001
,  // measure 68
0000
0100
0010
0001
1000
0001
0100
0010
,  // measure 69
0001
0100
1000
0001
0200
0000
0300
0000
,  // measure 70
0001
1000
0001
0100
0010
0001
0100
1000
,  // measure 71
0000
0000
0000
0000
0001
0000
0000
0000
1000
0000
0000
0000
0001
0000
0000
0000
0100
0000
0000
0000
0010
0000
0000
0000
1000
0001
1000
0001
1000
0000
0000
0000
,  // measure 72
1000
0001
1000
0001
1000
0001
1000
0001
,  // measure 73
1000
0100
0010
0001
1000
0001
0100
0010
,  // measure 74
1000
0001
1000
0001
1000
0001
1000
0001
1000
0001
1000
0001
1000
0001
1000
0001
,  // measure 75
2000
0000
3000
0010
,  // measure 76
0200
0000
0300
0002
0000
0003
0020
0000
,  // measure 77
0000
0000
0000
0130
,  // measure 78
0001
0100
0010
0001
0100
0001
1000
0001
0010
0100
0001
1000
0001
0010
0100
0001
,  // measure 79
0010
0001
0100
0010
0001
0100
0001
0100
0010
0001
1000
0001
0100
0010
0001
0100
,  // measure 80
1000
0000
0001
0000
0100
0010
0001
1000
0001
0100
0010
0001
0100
0000
1000
0000
,  // measure 81
0100
0000
0010
0000
0100
0010
0001
1000
0001
0100
0010
0001
0100
0000
1000
0000
,  // measure 82
0010
0000
0001
0000
0100
0010
0001
1000
0001
0100
0010
0001
0100
0000
1000
0000
,  // measure 83
0010
0000
0001
0000
0100
0010
0001
1000
0001
0100
0010
0001
0100
0000
1000
0000
,  // measure 84
0010
0001
0100
0010
0001
0100
0001
0100
0010
0001
1000
0001
0100
0010
0001
0100
,  // measure 85
1000
0000
0100
0000
0010
0001
0100
0010
0001
1000
0001
0100
0010
0000
0001
0000
,  // measure 86
0100
0000
0010
0000
0001
0100
0001
0100
0010
0001
1000
0100
0010
0000
0001
0000
,  // measure 87
0100
0000
0010
0000
0001
0100
0010
0001
1000
0001
0010
0100
0001
0000
0100
0000
,  // measure 88
1000
0000
0010
0000
0001
0100
0010
0001
1000
0001
0100
0010
0001
0000
0100
0000
,  // measure 89
1000
0000
0010
0000
0001
0100
0001
0100
0010
0001
0100
1000
0001
0000
0100
0000
,  // measure 90
0010
0000
0001
0000
0100
0010
0001
1000
0001
0100
0010
0001
0100
0000
0010
0000
,  // measure 91
1000
0001
0010
0100
0010
0100
0001
1000
0001
0010
0100
0001
1000
0001
0010
0100
,  // measure 92
0001
0000
0001
0000
0100
0010
0001
1000
0001
0100
0010
0001
0100
0000
1000
0000
,  // measure 93
0010
0000
0001
0000
0100
0010
0001
1000
0001
0100
0010
0001
0100
0000
1000
0000
,  // measure 94
0010
0000
0001
0000
0100
0010
0001
1000
0001
0100
0010
0001
0100
0000
1000
0000
,  // measure 95
0010
0000
0001
0000
0100
0010
0001
1000
0001
0100
0010
0001
0100
0000
1000
0000
,  // measure 96
0100
0000
0010
0000
0001
0100
0010
1000
0001
0100
0010
0001
0100
0000
1000
0000
,  // measure 97
0010
0000
0001
0000
0100
0010
0001
1000
0001
0100
0010
0001
0100
0000
1000
0000
,  // measure 98
0010
0000
0100
0000
0001
1000
0100
0001
0010
0100
0001
1000
0001
0000
0010
0000
,  // measure 99
0100
0000
1000
0000
0100
0001
0010
0100
0001
1000
0001
0010
0100
0000
0001
0000
,  // measure 100
0010
0001
0100
0010
0001
0100
0001
0100
0010
0001
1000
0001
0100
0010
0001
1000
,  // measure 101
0100
0000
0010
0000
0001
0100
0010
0001
1000
0001
0100
0010
0001
0000
0100
0000
,  // measure 102
1000
0000
0001
0000
0100
0010
0001
1000
0001
0100
0010
0001
0100
0000
1000
0000
,  // measure 103
0100
0000
0010
0000
0001
0100
0010
0001
1000
0001
0100
0001
1000
0000
0100
0000
,  // measure 104
0100
0000
0010
0000
0001
0100
0010
0001
1000
0001
0100
0010
0001
0000
0100
0000
,  // measure 105
0010
0000
0001
0000
0100
0010
0001
1000
0001
0100
0010
0001
0100
0000
1000
0000
,  // measure 106
0001
0100
0010
0001
0100
0010
0001
1000
0001
0100
0010
0001
1000
0001
0100
0010
,  // measure 107
0001
1000
0001
0100
0010
0001
1000
0001
0100
0010
0001
1000
0001
0100
0001
0010
,  // measure 108
1000
0010
0001
0100
0001
0100
0001
0100
0010
0001
0100
0001
0100
0010
0001
1000
,  // measure 109
0001
0100
0010
0001
1000
0001
0100
0010
0001
0000
0100
0000
1000
0000
0000
0000
;
