#TITLE:poster boy;
#SUBTITLE:;
#ARTIST:Unknown artist;
#TITLETRANSLIT:;
#SUBTITLETRANSLIT:;
#ARTISTTRANSLIT:;
#GENRE:;
#CREDIT:;
#BANNER:;
#BACKGROUND:;
#LYRICSPATH:;
#CDTITLE:;
#MUSIC:2hollis - poster boy (official audio).mp3;
#OFFSET:0.000000;
#SAMPLESTART:100.059883;
#SAMPLELENGTH:12.000000;
#SELECTABLE:YES;
#BPMS:0.000000=111.000000
;
#STOPS:0.000000=0.150000
;
#BGCHANGES:;
#KEYSOUNDS:;
#ATTACKS:;

//---------------dance-single - ----------------
#NOTES:
     dance-single:
     :
     Hard:
     14:
     0.741347,0.807625,0.000000,0.000000,0.985909,629.000000,629.000000,0.000000,0.000000,0.000000,0.000000,0.741347,0.807625,0.000000,0.000000,0.985909,629.000000,629.000000,0.000000,0.000000,0.000000,0.000000:
// measure 0
0000
0000
0000
0000
,  // measure 1
0000
0000
0000
0000
,  // measure 2
0000
0000
0000
0000
,  // measure 3
0000
0000
0000
0000
,  // measure 4
0001
0100
0010
0001
0100
0001
0100
0010
0001
1000
0001
0100
0010
0001
0100
0001
,  // measure 5
0100
0010
0001
1000
0001
0100
0010
0001
1000
0001
0100
0010
0001
0100
1000
0000
,  // measure 6
0001
0100
0010
0001
0100
0010
0001
1000
0001
0100
0010
0001
1000
0001
0100
0010
,  // measure 7
1000
0000
0100
0000
0001
0000
0010
0100
0001
0000
0001
0000
0100
0000
0010
0000
1000
0100
0001
0000
0010
0000
0100
0001
1000
0000
0001
0000
0100
0000
0000
0000
,  // measure 8
0010
0100
0001
1000
0001
0010
0100
0001
1000
0001
0010
0100
0001
1000
0001
0010
,  // measure 9
0100
0001
0100
0010
0001
0100
0010
0001
1000
0001
0100
0010
0001
0100
1000
0000
,  // measure 10
0001
0100
0010
0001
0100
0010
0001
1000
0001
0100
0010
0001
1000
0001
0100
0001
,  // measure 11
0100
0010
0001
1000
0001
0100
0010
0001
1000
0001
0100
0010
0001
0100
1000
0001
,  // measure 12
0100
0010
0001
0100
0001
0100
0010
0001
1000
0001
0100
0010
0001
0100
1000
0000
,  // measure 13
0001
0100
0010
0001
0100
0001
0100
0001
0100
0010
0001
1000
0001
0100
0001
0010
,  // measure 14
0100
0001
0100
0010
0001
1000
0001
0100
0010
0001
0100
0010
0001
1000
0001
0100
,  // measure 15
0010
0001
1000
0001
0100
0010
0001
0100
1000
0000
0000
0001
0100
0001
0100
0001
,  // measure 16
0100
0000
0010
0100
0010
0100
0010
0100
0001
0000
1000
0000
0100
0000
0000
0000
,  // measure 17
0010
0001
0100
0010
0001
0100
1000
0000
,  // measure 18
0000
0000
1000
0000
0000
0010
0100
0001
1000
0000
0001
0000
0100
0000
0000
0000
,  // measure 19
0010
0001
0100
0010
0001
0100
1000
0000
,  // measure 20
0000
0000
0100
0000
0000
0001
0010
0000
0100
0000
0010
0000
0100
0000
0000
0000
,  // measure 21
1000
0100
0000
0001
0000
0010
0100
0000
0001
1000
0000
0000
0100
0000
0001
0010
,  // measure 22
0100
0001
1000
0100
0001
0010
0100
0001
1000
0100
0001
0010
0100
0010
0001
0100
,  // measure 23
0010
0001
0010
0001
0010
0000
0000
0000
0001
0100
0001
0100
0001
0000
0000
0000
1000
0000
0000
0000
0100
0000
0000
0000
0001
0000
0000
0000
0010
0000
0000
0000
,  // measure 24
0010
0001
0100
0010
0001
0100
1000
0100
,  // measure 25
0010
0001
1000
0001
0100
0010
0001
0100
,  // measure 26
1000
0001
0100
0010
0001
0100
0001
0100
,  // measure 27
0010
0000
0001
0000
1000
0000
0001
0000
0100
0000
0010
0000
1000
0001
1000
0001
,  // measure 28
1000
0001
1000
0000
0100
0000
0001
0000
0010
0000
0100
0000
0001
0000
0010
0000
,  // measure 29
0100
0000
0010
0000
0001
0000
1000
0000
0100
0000
0010
0000
0001
1000
0001
1000
,  // measure 30
0001
0010
0100
0010
0001
0100
0001
0100
,  // measure 31
0010
0000
0001
0000
1000
0000
0001
0000
0100
0000
0010
0000
1000
0001
1000
0001
,  // measure 32
1000
0010
0001
0100
0010
0001
0100
0010
,  // measure 33
1000
0001
1000
0001
0010
0001
0100
0010
0100
0001
1000
0001
0010
0100
0001
1000
,  // measure 34
0001
0100
0010
0001
0100
0001
0100
0010
,  // measure 35
0001
1000
0001
0100
0010
0001
0100
1000
,  // measure 36
0001
0100
0010
0001
1000
0001
0100
0010
,  // measure 37
0001
0100
0010
0001
0100
0001
0100
0010
0001
1000
0001
0100
0010
0001
0100
1000
,  // measure 38
0100
0010
0001
1000
0001
0100
0010
0001
,  // measure 39
0100
0000
0000
0000
0001
0000
0000
0000
0100
0000
0000
0000
0001
0000
0000
0000
0100
0000
0001
0000
0100
0000
0001
0000
0100
0001
0100
0001
0100
0001
0100
0001
,  // measure 40
0100
0010
0000
0100
0000
0001
0010
0000
0001
0000
1000
0000
0100
0000
0000
0000
,  // measure 41
0001
0000
0100
0000
0010
0000
1000
0100
0001
0000
0100
0000
0001
0000
0000
0000
,  // measure 42
0100
0000
0001
0000
0000
0010
0100
0000
0001
0000
1000
0000
0100
0000
0000
0000
,  // measure 43
0100
0000
0010
0000
0001
0000
0100
0010
0001
0000
0100
0000
1000
0000
0100
0000
,  // measure 44
0001
0000
0010
0100
0000
0001
1000
0000
0001
0000
0100
0000
1000
0000
0000
0000
,  // measure 45
0001
0000
0000
0010
0000
0100
0001
0000
0010
1000
0000
0100
0000
0000
0001
0000
,  // measure 46
0000
0010
0001
0000
0100
0000
0010
0000
1000
0001
1000
0001
1000
0001
1000
0001
,  // measure 47
1000
0010
0001
0100
0010
0001
1000
0001
0100
0001
0100
0010
0100
0001
0100
0001
,  // measure 48
0100
0100
0010
0001
0100
0001
0100
0010
0001
1000
0001
0100
0010
0001
0100
1000
,  // measure 49
0001
0100
0010
0001
0100
0010
0001
0100
0001
0100
0010
0001
1000
0001
0100
0010
,  // measure 50
0001
0100
0001
0100
0010
0001
0100
1000
0001
0100
0001
0100
0010
0001
0100
0001
,  // measure 51
0100
0010
0001
1000
0001
0100
0010
0001
0100
0001
0100
0010
0001
1000
0001
0100
,  // measure 52
0010
0001
1000
0001
0100
0010
0001
0100
0001
0100
0010
0001
1000
0001
0100
0010
,  // measure 53
0001
1000
0001
0100
0010
0001
0100
0001
0100
0010
0001
1000
0001
0100
0010
0001
,  // measure 54
0100
0001
0100
0010
0001
1000
0001
0100
0010
0001
0100
0001
0100
0010
0001
1000
,  // measure 55
0001
0100
0010
0001
0100
0001
0100
0010
0001
1000
0001
0100
0010
0001
0100
1000
;
