#TITLE:pluto is not a planet it's a restruant;
#SUBTITLE:;
#ARTIST:Geli Haha;
#TITLETRANSLIT:;
#SUBTITLETRANSLIT:;
#ARTISTTRANSLIT:;
#GENRE:;
#CREDIT:;
#BANNER:;
#BACKGROUND:;
#LYRICSPATH:;
#CDTITLE:;
#MUSIC:Pluto is not a planet it's a restaurant.ogg;
#OFFSET:0.000000;
#SAMPLESTART:100.059883;
#SAMPLELENGTH:12.000000;
#SELECTABLE:YES;
#BPMS:0.000000=124.999992
;
#STOPS:0.000000=0.100000
;
#BGCHANGES:;
#KEYSOUNDS:;
#ATTACKS:;

//---------------dance-single - ----------------
#NOTES:
     dance-single:
     :
     Hard:
     12:
     0.528709,0.525424,0.000000,0.011059,0.234075,1004.000000,1004.000000,0.000000,3.000000,0.000000,0.000000,0.528709,0.525424,0.000000,0.011059,0.234075,1004.000000,1004.000000,0.000000,3.000000,0.000000,0.000000:
// measure 0
0000
0000
0000
0000
,  // measure 1
0000
0000
0000
0000
,  // measure 2
0000
0000
0000
0000
,  // measure 3
0000
0000
0000
0000
,  // measure 4
0000
0000
0000
0000
,  // measure 5
0000
0000
0000
0000
0000
0000
0000
0000
0000
0000
0000
0000
0000
0000
0010
0100
,  // measure 6
1000
0000
0100
0000
0001
0000
0010
0000
0100
0000
0001
0000
1000
0000
0001
0010
,  // measure 7
0100
0000
0001
0000
0010
0000
0100
0000
0001
0000
1000
0000
0001
0000
0010
0100
,  // measure 8
0001
0000
0010
0000
0001
0000
1000
0000
0001
0000
0100
0000
0010
0000
0100
0001
,  // measure 9
1000
0000
0001
0000
1000
0000
0001
0000
0100
0000
0010
0000
0001
0000
0100
0010
,  // measure 10
0001
0000
1000
0000
0001
0000
0100
0000
0010
0000
0100
0000
0001
0000
0010
0001
,  // measure 11
1000
0000
1000
0000
0001
0000
0100
0000
0010
0000
0100
0000
0001
0000
0010
0001
,  // measure 12
1000
0000
0100
0000
0010
0000
0001
0000
0100
0000
1000
0000
0001
0000
0010
0100
,  // measure 13
0001
0000
1000
0000
0001
0000
0100
0000
0001
0000
0010
0000
0100
0000
0001
0100
,  // measure 14
1000
0000
0010
0000
0001
0000
1000
0000
0001
0000
0100
0000
0010
0000
0001
0100
,  // measure 15
1000
0000
0010
0000
0001
0000
1000
0000
0001
0000
0100
0000
0010
0000
0001
0100
,  // measure 16
1000
0000
0010
0000
0001
0000
1000
0000
0001
0000
0100
0000
0010
0000
0001
0100
,  // measure 17
1000
0000
0010
0000
0001
0000
1000
0000
0001
0000
0010
0000
0100
0000
0001
0100
,  // measure 18
1000
0000
0100
0001
0100
0000
0001
0000
1000
0010
0100
0000
0001
0000
0010
0001
,  // measure 19
0100
0000
0010
0000
0010
0000
0100
0000
0001
0000
1000
0000
0001
0000
0100
0001
,  // measure 20
0010
0000
0100
0000
0001
0000
1000
0000
0001
0000
0100
0000
0010
0000
0001
0100
,  // measure 21
1000
0000
0010
0100
0001
0000
1000
0010
0001
0000
0100
0000
0010
0000
0001
0100
,  // measure 22
1000
0000
0010
0000
0001
0000
1000
0000
0001
0000
0100
0000
0010
0000
0001
0100
,  // measure 23
1000
0000
1000
0000
0001
0000
0100
0000
0010
0000
0100
0000
1000
0000
0010
0001
,  // measure 24
0100
0000
0010
0000
0001
0000
0100
0000
1000
0000
0001
0000
0100
0000
0010
0001
,  // measure 25
0100
0000
0010
0000
0001
0000
1000
0000
0001
0000
0100
0000
0010
0000
0001
0100
,  // measure 26
1000
0000
0010
0000
0001
0000
1000
0000
0001
0000
0100
0000
0010
0000
0001
0100
,  // measure 27
1000
0000
0010
0000
0001
0000
1000
0000
0001
0000
0010
0000
0100
0000
0001
0100
,  // measure 28
1000
0000
0010
0000
0001
0000
1000
0000
0001
0000
0100
0000
0010
0000
0001
0100
,  // measure 29
1000
0000
0010
0000
0001
0000
1000
0000
0001
0000
0100
0000
0010
0000
0001
0100
,  // measure 30
1000
0000
0100
0010
0001
0000
0100
0000
0010
0000
0100
0001
0010
0000
0001
0100
,  // measure 31
1000
0000
0010
0000
0001
0000
1000
0000
0001
0000
0100
0000
0010
0000
0001
0100
,  // measure 32
1000
0000
0010
0000
0001
0000
0100
0000
0010
0000
0001
0000
1000
0000
0001
0010
,  // measure 33
0100
0000
0010
0000
0001
0000
1000
0000
0001
0000
0100
0000
0010
0000
0001
0100
,  // measure 34
1000
0000
0010
0000
0001
0000
1000
0000
0001
0000
0100
0000
0010
0000
0001
0100
,  // measure 35
1000
0000
0010
0000
0001
0000
1000
0000
0001
0000
0100
0000
0010
0000
1000
0001
,  // measure 36
0010
0000
0010
0000
0001
0000
1000
0000
0001
0000
0100
0000
0010
0000
0001
0100
,  // measure 37
1000
0000
0010
0000
0001
0000
1000
0000
0001
0000
0100
0000
0010
0000
0010
0100
,  // measure 38
0001
0000
0100
0000
0010
0000
0001
0000
1000
0000
0001
0000
0100
0000
0010
0001
,  // measure 39
1000
0000
0010
0000
0001
0000
1000
0000
0001
0000
0100
0000
0010
0000
0001
0100
,  // measure 40
1000
0000
0010
0000
0001
0000
1000
0000
0001
0000
0100
0000
0010
0000
0001
0010
,  // measure 41
0100
0000
0010
0000
0001
0000
1000
0000
0001
0000
0100
0000
0010
0000
0001
0100
,  // measure 42
1000
0000
0010
0000
0001
0000
1000
0000
0001
0000
0100
0000
0010
0000
0001
0100
,  // measure 43
1000
0000
0010
0000
0001
0000
1000
0000
0001
0000
0100
0000
0010
0000
0001
0100
,  // measure 44
1000
0000
0001
0000
0100
0000
0010
0000
0001
0000
0100
0000
0010
0000
0001
0100
,  // measure 45
1000
0000
0001
0000
0100
0000
0010
0000
0100
0000
0001
0000
0010
0000
0001
0100
,  // measure 46
1000
0000
0010
0000
0001
0000
1000
0000
0001
0000
0100
0000
0010
0000
0001
0100
,  // measure 47
1000
0000
0010
0000
0001
0000
1000
0000
0001
0000
0100
0000
0010
0000
0001
0100
,  // measure 48
1000
0000
0010
0000
0001
0000
0100
0000
0010
0000
0001
0000
0100
0000
0010
0001
,  // measure 49
0100
0000
0010
0000
0001
0000
0100
0000
0001
0000
0010
0000
0100
0000
0001
0100
,  // measure 50
1000
0000
0001
0000
0100
0000
0010
0000
0001
0000
0100
0000
1000
0000
0001
0100
,  // measure 51
0010
0000
0001
0000
0100
0000
0010
0000
0001
0000
0100
0000
0010
0000
0001
0100
,  // measure 52
1000
0000
0010
0100
0001
0000
1000
0000
0100
0000
0001
0000
0010
0000
0100
0001
,  // measure 53
0010
0000
0010
0000
0100
0000
0010
0000
0001
0000
0100
0000
0001
0000
0100
0010
,  // measure 54
1000
0000
0010
0000
0001
0000
0100
0000
0010
0000
0100
0000
0001
0000
0010
0001
,  // measure 55
0100
0000
0010
0000
0001
0000
1000
0000
0001
0000
0100
0000
0010
0000
0001
0100
,  // measure 56
1000
0000
0010
0000
0001
0000
1000
0000
0001
0000
0100
0000
0010
0000
0001
0100
,  // measure 57
1000
0000
0010
0000
0001
0000
1000
0000
0001
0000
0100
0000
0010
0000
0001
0100
,  // measure 58
1000
0000
0010
0000
0001
0000
1000
0000
0001
0000
0010
0000
0100
0000
0001
0100
,  // measure 59
1000
0000
0010
0000
0001
0000
1000
0000
0001
0000
0100
0000
0010
0000
0001
0100
,  // measure 60
1000
0000
0010
0000
0001
0000
1000
0000
0001
0000
0100
0000
0010
0000
0001
0100
,  // measure 61
1000
0000
0100
0000
0001
0000
1000
0000
0001
0000
0100
0000
0010
0000
0001
0100
,  // measure 62
1000
0000
0100
0000
0001
0000
0010
0000
0001
0000
0010
0000
0100
0000
0001
0010
,  // measure 63
0100
0000
0010
0000
0001
0000
1000
0000
0001
0000
0100
0000
0010
0000
0001
1000
,  // measure 64
0100
0000
0010
0000
0001
0000
1000
0000
0001
0000
0100
0000
0010
0000
0001
0100
,  // measure 65
1000
0000
0010
0000
0001
0000
1000
0000
0001
0000
0100
0000
0010
0000
0001
0100
,  // measure 66
1000
0000
0010
0000
0001
0000
1000
0000
0001
0000
0100
0000
0010
0000
0100
0010
,  // measure 67
0100
0000
0010
0000
0001
0000
1000
0000
0001
0000
0100
0000
0010
0000
0001
0100
,  // measure 68
1000
0000
0001
0000
0100
0000
0010
0000
0001
0000
0100
0000
0010
0000
0001
0100
,  // measure 69
1000
0000
0100
0000
0010
0000
0001
0000
1000
0000
0001
0000
0100
0000
0010
0100
,  // measure 70
1000
0000
0100
0000
0010
0000
0001
0000
0100
0000
1000
0000
0001
0000
0100
0010
,  // measure 71
0001
0000
1000
0000
0001
0000
0100
0000
0010
0000
0001
0000
0100
0000
1000
0010
,  // measure 72
0100
0000
0010
0000
0001
0000
1000
0000
0001
0000
0100
0000
0010
0000
0100
0010
,  // measure 73
0001
0000
1000
0000
0001
0000
0100
0000
0010
0000
0001
0000
0100
0000
1000
0100
,  // measure 74
0010
0000
0100
0000
0010
0000
0001
0000
0100
0000
0001
0000
1000
0000
0100
0010
,  // measure 75
0100
0000
0010
0000
0001
0000
1000
0000
0001
0000
0100
0000
0010
0000
0100
0010
,  // measure 76
0001
0000
1000
0000
0001
0000
0100
0000
0010
0000
0100
0000
0001
0000
0010
0001
,  // measure 77
0100
0000
0010
0000
0001
0000
1000
0000
0001
0000
0010
0000
0100
0000
1000
0100
,  // measure 78
0001
0000
0000
0000
0000
0000
0100
0000
0000
0000
0010
0000
0000
0000
1000
0001
,  // measure 79
0100
0000
0000
0000
0000
0000
0100
0000
0000
0000
0010
0000
0000
0000
0001
0100
,  // measure 80
1000
0000
0000
0000
0000
0000
0001
0000
0000
0000
0100
0000
0000
0000
0010
0001
,  // measure 81
0100
0000
0000
0000
0000
0000
0100
0000
0000
0000
0010
0000
0000
0000
0001
0100
,  // measure 82
1000
0000
0000
0000
0000
0000
0100
0000
0000
0000
0010
0000
0000
0000
0001
0100
,  // measure 83
1000
0000
0000
0000
0000
0000
0100
0000
0000
0000
0010
0000
0000
0000
0001
0100
,  // measure 84
1000
0000
0000
0000
0000
0000
0001
0000
0000
0000
0100
0000
0000
0000
0010
0001
,  // measure 85
0100
0000
0000
0000
0000
0000
0100
0000
0000
0000
0010
0000
0000
0000
0001
0100
,  // measure 86
1000
0000
0000
0000
0000
0000
0100
0000
0000
0000
0010
0000
0000
0000
0001
0100
,  // measure 87
1000
0000
0000
0000
0000
0000
0001
0000
0000
0000
0100
0000
0000
0000
0010
0100
,  // measure 88
1000
0000
0000
0000
0000
0000
0100
0000
0000
0000
0010
0000
0000
0000
0001
1000
,  // measure 89
0100
0000
0000
0000
0000
0000
0010
0000
0000
0000
0001
0000
0000
0000
0100
0010
,  // measure 90
1000
0000
0000
0000
0000
0000
0001
0000
0000
0000
0100
0000
0000
0000
0010
0100
,  // measure 91
1000
0000
0000
0000
0000
0000
0100
0000
0000
0000
0010
0000
0000
0000
0100
0010
,  // measure 92
1000
0000
0000
0000
0000
0000
0100
0000
0000
0000
0010
0000
0000
0000
0001
0100
,  // measure 93
1000
0000
0010
0000
0001
0000
1000
0000
0001
0000
0100
0000
0010
0000
0001
0100
,  // measure 94
1000
0000
0010
0000
0001
0000
1000
0000
0001
0000
0100
0000
0010
0000
0001
0010
,  // measure 95
0100
0000
0010
0000
0001
0000
1000
0000
0001
0000
0100
0000
0010
0000
0001
0100
,  // measure 96
1000
0000
0010
0000
0001
0000
1000
0000
0001
0000
0100
0000
0010
0000
0001
0100
,  // measure 97
1000
0000
0010
0000
0001
0000
0100
0000
0001
0000
0100
0000
0010
0000
0001
1000
,  // measure 98
0100
0000
0010
0000
0001
0000
1000
0000
0001
0000
0100
0000
0010
0000
0001
0010
,  // measure 99
0100
0000
0010
0000
0001
0000
1000
0000
0001
0000
0100
0000
0010
0000
0100
0010
,  // measure 100
0100
0000
0001
0000
0100
0000
0010
0000
0001
0000
0100
0000
1000
0000
0100
0010
,  // measure 101
0001
0000
0100
0000
0010
0000
0001
0000
0100
0000
0001
0000
0100
0000
0001
0010
,  // measure 102
1000
0000
0001
0000
0100
0000
0010
0000
0100
0000
0001
0000
0010
0000
1000
0001
,  // measure 103
0100
0000
0010
0000
0001
0000
1000
0000
0001
0000
0100
0000
0010
0000
0100
0010
,  // measure 104
0001
0000
1000
0000
0001
0000
0100
0000
0010
0000
0100
0000
0010
0000
0100
0010
,  // measure 105
0001
0000
1000
0000
0001
0000
0100
0000
0010
0000
0001
0000
0100
0000
1000
0010
,  // measure 106
0001
0000
0100
0000
0010
0000
0001
0000
1000
0000
0001
0000
0100
0000
0010
0001
,  // measure 107
0100
0000
0010
0000
0001
0000
1000
0000
0001
0000
0100
0000
0010
0000
0100
0010
,  // measure 108
0100
0000
0001
0000
0100
0000
0010
0000
0001
0000
0100
0000
1000
0000
0100
0010
,  // measure 109
0001
0000
0100
0000
0001
0000
0100
0000
0010
0000
0001
0000
0100
0000
1000
0010
,  // measure 110
0100
0000
0010
0000
0001
0000
1000
0000
0001
0000
0100
0000
0010
0000
0100
0010
,  // measure 111
0001
0000
1000
0000
0001
0000
0100
0000
0010
0000
0001
0000
0100
0000
0010
0001
,  // measure 112
0100
0000
0010
0000
0001
0000
1000
0000
0001
0000
0100
0000
0010
0000
0001
0100
,  // measure 113
0010
0000
0001
0000
1000
0000
0001
0000
0100
0000
0010
0000
0001
0000
0010
0100
,  // measure 114
0001
0000
1000
0000
0001
0000
0100
0000
0010
0000
0001
0000
0100
0000
0010
0001
,  // measure 115
0100
0000
0010
0000
0001
0000
1000
0000
0001
0000
0100
0000
0010
0000
0001
0100
,  // measure 116
0010
0000
0000
0000
0100
0000
0010
0000
0000
0000
0001
0000
0010
0000
0100
0010
,  // measure 117
0001
0000
0000
0000
0010
0000
0001
0000
0000
0000
0010
0000
0100
0000
0001
0100
,  // measure 118
1000
0000
0000
0000
0100
0000
0001
0000
0000
0000
0010
0000
0001
0000
0100
0001
,  // measure 119
0010
0000
0000
0000
1000
0000
0100
0000
0000
0000
0001
0000
0010
0000
0100
0001
,  // measure 120
0010
0000
0000
0000
0001
0000
0100
0000
0000
0000
0010
0000
0001
0000
0100
0001
,  // measure 121
0010
0000
0000
0000
1000
0000
0100
0000
0000
0000
0001
0000
0010
0000
0001
0010
,  // measure 122
0100
0000
0000
0000
0000
0000
0001
0000
0000
0000
0010
0000
0100
0000
0001
0010
,  // measure 123
0100
0000
0000
0000
0001
0000
0010
0000
0000
0000
0010
0000
0100
0000
0001
0100
,  // measure 124
1000
0000
0000
0000
0001
0000
0010
0000
0000
0000
0100
0000
0001
0000
1000
0100
,  // measure 125
0002
0000
0000
0000
,  // measure 126
0000
0000
0000
0000
,  // measure 127
0000
0000
0000
0000
,  // measure 128
0000
0000
0000
0000
,  // measure 129
0000
0000
0000
0000
,  // measure 130
0000
0000
0000
0003
,  // measure 131
0020
0000
0000
0000
0000
0200
0000
0000
,  // measure 132
0000
0000
0000
0000
,  // measure 133
0000
0000
0000
0000
,  // measure 134
0000
0000
0000
0000
,  // measure 135
0000
0000
0000
0330
;
