#TITLE:please please please;
#SUBTITLE:;
#ARTIST:Unknown artist;
#TITLETRANSLIT:;
#SUBTITLETRANSLIT:;
#ARTISTTRANSLIT:;
#GENRE:;
#CREDIT:;
#BANNER:;
#BACKGROUND:;
#LYRICSPATH:;
#CDTITLE:;
#MUSIC:Sabrina Carpenter - Please Please Please (Lyric Video).mp3;
#OFFSET:0.000000;
#SAMPLESTART:100.059883;
#SAMPLELENGTH:12.000000;
#SELECTABLE:YES;
#BPMS:0.000000=107.000000
;
#STOPS:0.000000=0.150000
;
#BGCHANGES:;
#KEYSOUNDS:;
#ATTACKS:;

//---------------dance-single - ----------------
#NOTES:
     dance-single:
     :
     Hard:
     11:
     0.304625,0.720880,0.026722,0.144296,0.387462,399.000000,394.000000,5.000000,27.000000,0.000000,0.000000,0.304625,0.720880,0.026722,0.144296,0.387462,399.000000,394.000000,5.000000,27.000000,0.000000,0.000000:
// measure 0
0000
0000
0000
0000
,  // measure 1
0000
0000
0000
0000
,  // measure 2
1000
0000
0000
0001
0000
0000
0100
0000
0010
0000
0000
0000
0100
0001
0000
0000
,  // measure 3
0001
1000
0100
0000
0000
0000
0001
0000
0010
0000
0000
0100
0001
0000
1000
0000
,  // measure 4
0010
0100
0001
1000
0010
0000
0100
0000
0001
1000
0100
0001
0010
0000
0100
0000
,  // measure 5
0100
0010
0001
1000
0100
0000
0010
0000
0010
0100
0001
1000
0100
0000
0001
0000
,  // measure 6
0100
0010
0001
0100
0001
0100
0010
0001
0100
0001
0100
0010
0001
1000
0100
0010
,  // measure 7
0001
0100
0010
0001
0100
0001
0100
0010
0001
0100
1000
0001
0100
0010
0001
0100
,  // measure 8
1000
0001
0000
0010
0100
0000
0001
0000
1000
0000
0100
0000
0000
0000
0000
0010
,  // measure 9
0000
0001
0000
1000
0100
0000
0001
0000
0010
0000
0000
0000
0000
0000
0000
0010
,  // measure 10
0100
0001
0000
0010
0100
0000
1000
0000
0100
0000
0000
0001
0000
0000
1000
0100
,  // measure 11
0010
0001
0000
0001
1000
0000
0100
0000
0010
0000
0000
0000
0010
0000
0000
1000
,  // measure 12
0000
0100
0000
0001
0010
0100
0000
0001
1000
0000
0000
0000
0000
0000
0001
0100
,  // measure 13
0000
0010
0100
0000
0001
0000
0010
0000
1000
0000
0000
0000
0001
0000
0200
0000
,  // measure 14
0000
0000
0000
0020
0000
0000
0000
0000
,  // measure 15
0000
0000
0000
0000
0000
0000
0000
0000
0000
0000
0000
0000
0330
0000
0000
1000
,  // measure 16
0000
0100
0000
0001
1000
0000
0100
0000
0001
0000
0000
0010
0000
0000
0010
0001
,  // measure 17
0000
0100
0000
0010
0100
0000
0010
0000
1000
0000
0000
0000
0100
0000
0000
0001
,  // measure 18
1000
0000
0100
0000
0001
0000
0010
0000
0100
0000
0000
0001
0000
0000
0000
1000
,  // measure 19
0000
0100
0001
0000
0010
0000
0100
0000
0001
0000
0000
0000
0010
0000
0000
0001
,  // measure 20
0010
0100
0000
0010
0001
0000
0100
0010
0000
0100
0000
0000
0000
0000
1000
0100
,  // measure 21
0000
0001
0000
0010
0100
0000
0010
0000
0100
0000
0000
0000
0100
0000
0020
0000
,  // measure 22
0000
0000
0000
0002
0000
0000
0033
0000
,  // measure 23
0000
0000
0010
0001
0100
0000
0001
0000
1000
0000
0100
0000
0000
0000
0000
0000
,  // measure 24
0002
0000
0000
0003
0200
0000
0000
0300
,  // measure 25
0020
0000
0030
0000
0000
0000
0010
0000
0100
0000
0000
0010
0000
0000
0002
0000
,  // measure 26
0000
0000
0000
0003
,  // measure 27
0001
0000
0000
0100
0000
0000
0010
0000
0001
0000
0010
0000
0001
0000
0100
0000
,  // measure 28
2000
3000
0200
0300
,  // measure 29
2000
0000
0000
0000
3000
0000
0010
0000
0001
0000
0000
0100
0000
0000
1000
0000
,  // measure 30
0010
0000
0000
0001
0000
0000
0100
0000
0010
0000
0000
0001
0000
0000
1000
0000
,  // measure 31
0100
0000
0000
0010
0000
0000
0001
0000
0100
0000
0000
0000
0000
0000
0000
0000
,  // measure 32
0001
0000
0000
0100
0000
0000
1000
0000
0100
0000
0000
0010
0000
0000
0100
0000
,  // measure 33
0010
0000
0000
0001
0000
0000
0100
0000
0010
0000
0000
0100
0000
0000
1000
0000
,  // measure 34
0001
0000
0000
0100
0000
0000
0010
0000
0001
0000
0000
0100
0000
0000
0010
0000
,  // measure 35
0001
0000
0000
0100
0000
0000
0010
0000
0001
0000
0000
1000
0000
0000
0200
0000
,  // measure 36
0000
0000
0000
0000
,  // measure 37
0000
0000
0010
0010
,  // measure 38
0020
0000
0000
0000
,  // measure 39
0000
0000
0000
0000
0000
0000
0000
0000
0000
0000
0000
0000
0330
0000
0000
1000
,  // measure 40
0000
0100
0000
0001
0010
0000
0001
0000
0010
0100
0000
0001
0000
0000
0000
0100
,  // measure 41
0000
0001
0010
0000
0100
0000
0001
0000
1000
0000
0000
0000
0100
0000
0000
0001
,  // measure 42
0000
1000
0100
0000
0001
0000
0010
0000
0100
0000
0000
0001
0000
0000
1000
0100
,  // measure 43
0001
0010
0100
0000
0010
0100
0001
0000
0000
1000
0100
0000
0001
0000
0000
0100
,  // measure 44
0010
1000
0000
0001
0000
0010
0000
0100
0000
0001
0000
0000
0000
0000
1000
0100
,  // measure 45
0000
0000
0000
0100
0000
0000
0000
0000
0000
0010
0000
0000
0000
0000
0000
0001
0000
0000
0000
0000
0000
0100
0000
0000
0000
0000
0000
0010
0000
0000
0000
0000
0000
0001
0000
0000
0010
0000
0000
0000
0100
0000
0000
0000
0001
0000
0000
0000
,  // measure 46
1000
0000
0000
0000
0100
0000
0000
0000
0000
0000
0000
0000
0000
0000
0000
0000
0000
0000
0100
0000
0000
0001
0000
0000
0000
0000
0000
0010
0000
0000
0000
0000
0000
0000
0000
0000
0000
0000
0000
0000
0000
0000
0000
0000
0000
0001
0000
0000
,  // measure 47
0000
0010
0000
0000
0000
0100
0000
0001
0000
0000
0000
0000
0000
0000
0000
0000
,  // measure 48
2000
3000
0200
0300
,  // measure 49
0002
0000
0000
0000
0003
0000
0010
0000
0100
0000
0000
0001
0000
0000
2000
0000
,  // measure 50
0000
0000
0000
3000
,  // measure 51
0010
0000
0000
0001
0000
0000
0100
0000
0010
0000
0100
0000
0001
0000
0010
0000
,  // measure 52
0002
0003
0200
0300
,  // measure 53
0020
0000
0000
0000
0030
0000
0000
0000
0010
0000
0000
0001
0000
0000
0100
0000
,  // measure 54
0100
0000
0000
0010
0000
0000
0100
0000
1000
0000
0000
0001
0000
0000
0100
0000
,  // measure 55
0010
0000
0000
0001
0000
0000
0100
0000
1000
0000
0000
0000
0000
0000
0000
0000
,  // measure 56
0010
0000
0000
0001
0000
0000
0100
0000
1000
0000
0000
0100
0000
0000
0010
0000
,  // measure 57
0100
0000
0000
0010
0000
0000
0100
0000
1000
0000
0000
0001
0000
0000
0100
0000
,  // measure 58
0010
0000
0000
0001
0000
0000
0100
0000
1000
0000
0000
0100
0000
0000
0010
0000
,  // measure 59
0001
0000
0000
0100
0000
0000
0001
0000
0100
0000
0000
0010
0000
0000
0002
0000
,  // measure 60
0000
0000
0000
0000
,  // measure 61
0000
0000
1000
1000
,  // measure 62
2000
0000
0000
0000
,  // measure 63
0000
0000
0000
0000
,  // measure 64
0000
0000
0000
0000
3003
0000
0100
0000
0010
0000
0000
0001
0000
0000
0100
0000
,  // measure 65
1000
0000
0000
0100
0000
0000
0010
0000
0001
0000
0000
0100
0000
0000
0010
0000
,  // measure 66
0000
0000
0000
0000
1000
0100
0000
0001
0010
0000
0000
0010
0000
0100
0000
0000
,  // measure 67
0000
0002
0000
0000
0000
0000
0000
0000
0000
0000
0000
0000
0000
0000
0000
0000
,  // measure 68
0000
0000
0003
0000
0000
0000
0100
0000
0001
0000
0000
1000
0000
0000
0100
0000
,  // measure 69
0010
0000
0000
0100
0000
0000
0010
0000
0001
0000
0000
1000
0000
0000
0100
0000
,  // measure 70
0000
0000
0000
0100
0000
0000
0010
0000
0001
0000
0000
1000
0000
0000
0100
0000
,  // measure 71
0100
0000
0000
0010
0000
0000
0002
0000
0000
0000
0000
0000
0000
0000
0000
0000
,  // measure 72
0000
0000
0000
0003
0010
0000
0010
0000
,  // measure 73
0020
0030
0100
0100
,  // measure 74
0100
0110
0010
0110
,  // measure 75
0100
0110
0010
0110
,  // measure 76
0220
0000
0000
0000
,  // measure 77
0000
0000
0000
0000
,  // measure 78
0000
0000
0000
0000
,  // measure 79
0000
0000
0000
0000
,  // measure 80
0000
0000
0000
0000
,  // measure 81
0000
0000
0000
0330
;
