#TITLE:pbs;
#SUBTITLE:;
#ARTIST:CapzLock;
#TITLETRANSLIT:;
#SUBTITLETRANSLIT:;
#ARTISTTRANSLIT:;
#GENRE:;
#CREDIT:;
#BANNER:;
#BACKGROUND:;
#LYRICSPATH:;
#CDTITLE:;
#MUSIC:CapzLock - pbs (Official Music Video).ogg;
#OFFSET:0.000000;
#SAMPLESTART:100.059883;
#SAMPLELENGTH:12.000000;
#SELECTABLE:YES;
#BPMS:0.000000=164.000000
;
#STOPS:0.000000=0.100000
;
#BGCHANGES:0.000=CapzLock - pbs (Official Music Video).mp4=1.000=0=0=1=====,
99999=-nosongbg-=1.000=0=0=0 // don't automatically add -songbackground-
;
#KEYSOUNDS:;
#ATTACKS:;

//---------------dance-single - ----------------
#NOTES:
     dance-single:
     :
     Hard:
     11:
     0.466104,0.459622,0.042706,0.017082,0.004271,382.000000,377.000000,5.000000,2.000000,0.000000,0.000000,0.466104,0.459622,0.042706,0.017082,0.004271,382.000000,377.000000,5.000000,2.000000,0.000000,0.000000:
// measure 0
0000
0000
0000
0000
,  // measure 1
0000
0000
0000
0000
,  // measure 2
0000
0000
0000
0000
0000
0000
0000
0010
,  // measure 3
0100
0010
0001
0100
0001
0100
1000
0000
,  // measure 4
0000
0000
0000
0000
0000
0000
0100
0010
,  // measure 5
0001
1000
0001
0100
0001
0100
1000
0000
,  // measure 6
0000
0000
0000
0000
1000
0001
0100
0000
,  // measure 7
0000
0010
0001
0100
0001
0100
1000
0001
,  // measure 8
1001
0000
0000
0000
0010
0001
1000
0001
,  // measure 9
0100
0010
0001
1000
0001
0100
1000
0000
,  // measure 10
0000
0000
0000
0000
0000
0000
0100
0010
,  // measure 11
0001
1000
0001
0100
0001
0100
1000
0000
,  // measure 12
0000
0000
0000
0000
0010
0001
1000
0001
,  // measure 13
0100
0010
0001
1000
0001
0100
1000
0000
,  // measure 14
0000
0000
0000
0000
0000
0000
0100
0010
,  // measure 15
0001
1000
0001
0100
0001
0100
1000
0000
,  // measure 16
0000
0000
0000
0000
0100
0010
0001
1000
,  // measure 17
0001
0100
0001
0100
0001
0100
1000
0000
,  // measure 18
0000
0000
0000
0000
0010
0001
0100
0010
,  // measure 19
0001
1000
0001
0100
0001
0100
1000
0000
,  // measure 20
0000
0000
0000
0000
1000
0001
0100
0010
,  // measure 21
0001
0100
0001
0100
0001
0100
1000
0000
,  // measure 22
0000
0000
0000
0000
0000
0001
0100
0010
,  // measure 23
0001
1000
0001
0100
0001
0100
1000
0000
,  // measure 24
1001
0000
0000
0000
1000
0001
0100
0010
,  // measure 25
0001
1000
0001
0100
0001
0100
1000
0000
,  // measure 26
0100
0001
1000
0001
0000
0010
0100
0001
,  // measure 27
1000
0001
0100
0010
0001
0000
1000
0000
,  // measure 28
0000
0010
0001
0100
0010
0001
1000
0100
,  // measure 29
0000
0010
0001
1000
0001
0100
1000
0000
,  // measure 30
0010
0001
1000
0100
0000
0001
0000
1000
,  // measure 31
0000
0010
0001
0100
0001
0100
1000
0000
,  // measure 32
1001
0000
0000
0000
0000
0000
0000
0000
0001
0000
0000
1000
0000
0000
0100
0000
,  // measure 33
0000
0001
0100
0010
0001
0000
1000
0000
,  // measure 34
0000
0000
0000
0000
0100
0001
0100
1000
,  // measure 35
0010
0100
0001
1000
0001
0000
0100
0000
,  // measure 36
0000
0000
0000
0000
0010
0001
0100
1000
,  // measure 37
0000
0100
0010
1000
0001
0000
1000
0000
,  // measure 38
0000
0000
0000
0001
0100
0001
0100
1000
,  // measure 39
0001
0100
0001
0100
1000
0000
0100
0000
,  // measure 40
0020
0000
0000
0030
,  // measure 41
0001
0100
0010
0001
1000
0001
0100
0000
,  // measure 42
2000
0000
0000
3000
,  // measure 43
0100
0010
0001
1000
0001
0100
1000
0000
,  // measure 44
0000
0000
0000
0000
0000
0001
0100
0001
,  // measure 45
0010
0100
0001
1000
0001
0010
0100
0000
,  // measure 46
0000
0000
0000
0000
0010
0001
1000
0001
,  // measure 47
0100
0010
0001
1000
0001
0100
1000
0000
,  // measure 48
0000
0000
0100
0000
0001
1000
0100
0001
,  // measure 49
1000
0001
0010
0100
0001
1000
0100
0000
,  // measure 50
0000
0000
0100
0000
0001
1000
0100
0001
,  // measure 51
0100
0001
0100
0001
1000
0001
0010
0000
,  // measure 52
0000
0000
0000
0000
0010
0001
1000
0001
,  // measure 53
0100
0010
0001
1000
0001
0100
1000
0001
,  // measure 54
0010
0000
0100
0000
0000
0001
0100
1000
,  // measure 55
0001
0100
0001
0100
0001
0100
1000
0000
,  // measure 56
1001
0000
0000
0000
0010
0100
0001
1000
,  // measure 57
0001
0010
0100
0001
1000
0001
0010
0000
,  // measure 58
0000
0000
0000
0000
0010
0001
0100
0010
,  // measure 59
0001
1000
0001
0100
0001
0100
1000
0000
,  // measure 60
0000
0000
0000
0000
0010
0001
1000
0001
,  // measure 61
0100
0010
0001
1000
0001
0100
1000
0000
,  // measure 62
0000
0000
0000
0000
0000
0001
0100
1000
,  // measure 63
0010
0000
0100
0001
1000
0001
0010
0000
,  // measure 64
0101
0000
0000
0000
0001
1000
0100
0001
,  // measure 65
0100
0010
0001
0100
0001
0100
1000
0000
,  // measure 66
0100
0001
1000
0001
0000
0010
0100
0001
,  // measure 67
0100
0001
0100
0001
1000
0000
0100
0000
,  // measure 68
0000
0001
0100
0001
0100
0001
0100
1000
,  // measure 69
0000
0010
0100
0001
1000
0000
0100
0000
,  // measure 70
0100
0001
1000
0001
0000
0010
0000
0100
,  // measure 71
0000
0001
0010
0100
0001
1000
0001
0000
;
