#TITLE:noises;
#SUBTITLE:;
#ARTIST:PinkPantheress & JT;
#TITLETRANSLIT:;
#SUBTITLETRANSLIT:;
#ARTISTTRANSLIT:;
#GENRE:;
#CREDIT:;
#BANNER:;
#BACKGROUND:;
#LYRICSPATH:;
#CDTITLE:;
#MUSIC:PinkPantheress - Noises JT (Official Audio).ogg;
#OFFSET:0.000000;
#SAMPLESTART:100.059883;
#SAMPLELENGTH:12.000000;
#SELECTABLE:YES;
#BPMS:0.000000=84.000000
,16.000000=168.500000
,140.000000=168.000000
,272.000000=84.000000
;
#STOPS:0.000000=0.900000
;
#BGCHANGES:;
#KEYSOUNDS:;
#ATTACKS:;

//---------------dance-single - ----------------
#NOTES:
     dance-single:
     :
     Hard:
     11:
     0.486908,0.545381,0.000000,0.000000,0.019543,436.000000,436.000000,0.000000,0.000000,0.000000,0.000000,0.486908,0.545381,0.000000,0.000000,0.019543,436.000000,436.000000,0.000000,0.000000,0.000000,0.000000:
// measure 0
0000
0000
0000
0000
,  // measure 1
0000
0000
0000
0000
,  // measure 2
0000
0000
0000
0000
,  // measure 3
0000
0000
0000
0000
,  // measure 4
0100
0001
1000
0001
0010
0100
0001
1000
,  // measure 5
0001
0010
0100
0001
1000
0100
0001
0100
,  // measure 6
0001
1000
0100
0010
0001
1000
0001
0100
,  // measure 7
0010
0001
1000
0001
0100
0010
0100
0010
,  // measure 8
0001
0100
0010
0001
1000
0001
0100
0010
,  // measure 9
0001
1000
0001
0100
0010
0001
1000
0001
,  // measure 10
0100
0010
0001
1000
0001
0100
0010
0001
,  // measure 11
1000
0001
0100
0010
0001
1000
0001
0100
,  // measure 12
0010
0001
1000
0001
0100
0010
0001
1000
,  // measure 13
0001
0100
0010
0001
1000
0001
0100
0010
,  // measure 14
0001
0100
0001
0100
0010
0001
1000
0001
,  // measure 15
0100
0010
0001
1000
0001
0100
0010
0001
,  // measure 16
1000
0001
0100
0010
0001
1000
0001
0100
,  // measure 17
0010
0001
1000
0001
0100
0010
0001
1000
,  // measure 18
0001
0100
0010
0001
1000
0001
0100
0010
,  // measure 19
0001
1000
0001
0100
0010
0001
1000
0001
,  // measure 20
0100
0010
0001
1000
0001
0100
1000
0001
,  // measure 21
0000
0000
0000
0000
,  // measure 22
0010
0100
0001
1000
0001
0010
0100
0001
,  // measure 23
0000
0000
0000
0000
,  // measure 24
1000
0100
0001
0100
0001
1000
0001
0010
,  // measure 25
0000
0000
0000
0000
,  // measure 26
0100
0001
1000
0001
0010
0100
0001
1000
,  // measure 27
0000
0000
0000
0000
0000
1000
0100
0000
,  // measure 28
0100
0010
0001
1000
0001
0100
1000
0000
,  // measure 29
0100
0001
1000
0100
0001
0010
0100
1000
,  // measure 30
0000
0001
1000
0001
0100
0001
0100
1000
,  // measure 31
0010
0000
0001
1000
0001
0100
1000
0010
,  // measure 32
0000
0000
0001
0100
1000
0000
0100
0000
,  // measure 33
0010
0000
0001
1000
0001
0100
1000
0001
,  // measure 34
0000
0001
0100
0010
0001
1000
0001
0100
,  // measure 35
1000
0100
0000
0000
0001
0010
0100
0001
,  // measure 36
0010
0100
0010
0001
1000
0001
0100
0010
,  // measure 37
0001
0100
0001
0100
0010
0001
1000
0001
,  // measure 38
0100
0010
0001
1000
0001
0100
0010
0001
,  // measure 39
1000
0001
0100
0010
0001
1000
0001
0100
,  // measure 40
0010
0001
1000
0001
0100
0010
0001
1000
,  // measure 41
0001
0100
0010
0001
1000
0001
0100
0010
,  // measure 42
0001
1000
0001
0100
0010
0001
1000
0001
,  // measure 43
0100
0010
0001
1000
0001
0100
0010
0001
,  // measure 44
1000
0001
0100
0010
0001
1000
0001
0100
,  // measure 45
0010
1000
0001
0100
0001
0000
0010
0100
,  // measure 46
0100
0000
0010
0000
0001
0010
1000
0100
0001
0000
0100
0000
0001
0000
0100
0000
,  // measure 47
0001
0000
1000
0000
0001
0000
0100
0000
1000
0000
0000
0000
0001
0000
0010
0100
,  // measure 48
0001
0100
0010
0001
0100
0001
0100
0010
,  // measure 49
0001
1000
0001
0100
1000
0000
0010
0100
,  // measure 50
0001
0100
0001
0000
0100
0000
0100
0010
,  // measure 51
0001
1000
0001
0100
1000
0000
0000
0000
,  // measure 52
0010
0001
0100
0010
0001
1000
0100
0010
,  // measure 53
0100
0001
1000
0001
0010
0100
0001
1000
,  // measure 54
0001
0010
0010
0001
0100
0010
0001
1000
,  // measure 55
0001
0100
0010
0001
1000
0001
0100
0010
,  // measure 56
0001
0100
0001
0100
0010
0001
1000
0001
,  // measure 57
0100
0010
0001
0100
0001
0100
0010
0001
,  // measure 58
1000
0001
0100
0010
0001
1000
0001
0100
,  // measure 59
0010
0001
1000
0001
0100
0010
0001
1000
,  // measure 60
0001
0100
0010
0001
1000
0001
0100
1000
,  // measure 61
0000
0000
0000
0000
,  // measure 62
0001
0100
0010
0001
0100
0001
0100
1000
,  // measure 63
0000
0000
0000
0000
,  // measure 64
0001
0100
0010
0001
1000
0001
0100
1000
,  // measure 65
0000
0000
0000
0000
,  // measure 66
0001
0100
0010
0001
0100
0001
0100
1000
,  // measure 67
0000
0000
0000
0000
,  // measure 68
0000
0000
0000
0000
,  // measure 69
0000
0000
0000
0000
,  // measure 70
0000
0000
0000
0000
,  // measure 71
0000
0000
0000
0000
,  // measure 72
0000
0000
0000
0000
,  // measure 73
0000
0000
0000
0000
0000
0100
0000
0001
0000
0000
0000
0000
0000
0000
0000
0000
;
