#TITLE:no lies detected;
#SUBTITLE:(blind);
#ARTIST:Oxymorons;
#TITLETRANSLIT:;
#SUBTITLETRANSLIT:;
#ARTISTTRANSLIT:;
#GENRE:;
#CREDIT:;
#BANNER:;
#BACKGROUND:;
#LYRICSPATH:;
#CDTITLE:;
#MUSIC:No Lies Detected [Blind].ogg;
#OFFSET:0.000000;
#SAMPLESTART:100.059883;
#SAMPLELENGTH:12.000000;
#SELECTABLE:YES;
#BPMS:0.000000=140.000000
;
#STOPS:0.000000=0.100000
;
#BGCHANGES:;
#KEYSOUNDS:;
#ATTACKS:;

//---------------dance-single - ----------------
#NOTES:
     dance-single:
     :
     Hard:
     14:
     0.598292,0.741817,0.300408,0.041233,0.385818,711.000000,660.000000,51.000000,7.000000,0.000000,0.000000,0.598292,0.741817,0.300408,0.041233,0.385818,711.000000,660.000000,51.000000,7.000000,0.000000,0.000000:
// measure 0
0000
0000
0000
0000
,  // measure 1
0000
0000
0000
0000
,  // measure 2
1000
0010
0100
0000
0001
0100
0010
0000
,  // measure 3
0100
0001
0010
0000
0100
0001
1000
0000
,  // measure 4
0100
0001
0010
0000
0100
0001
1000
0000
,  // measure 5
0100
0000
0001
0000
0010
0000
0000
0000
0100
0000
0001
0000
1000
0001
1000
0001
,  // measure 6
0010
0000
0100
0000
0001
0000
1000
0000
0000
0000
0000
0000
0100
0001
1000
0001
,  // measure 7
0010
0100
0001
1000
0100
0000
0100
0000
0010
0000
1000
0100
0001
0000
0000
0000
,  // measure 8
0101
0000
0000
0000
1000
0000
0010
0100
0001
0000
0000
0000
1000
0100
0001
0000
,  // measure 9
0010
0000
0000
0000
0001
0000
0100
0000
0010
0000
1000
0100
0001
0100
0010
0001
,  // measure 10
1000
0000
0000
0000
0100
0000
0001
0000
1000
0000
0000
0000
0001
0000
0100
0001
,  // measure 11
0010
0000
0000
0000
0100
0000
0001
1000
0100
0000
0010
0100
0001
0000
1000
0100
,  // measure 12
0001
0000
0100
0010
0001
1000
0001
0100
,  // measure 13
1000
0000
0010
0000
1000
0100
0001
0000
0010
0000
0001
0000
0100
0000
0010
0000
,  // measure 14
2002
0000
0000
0000
0000
3003
0000
0001
,  // measure 15
0010
0000
0100
0001
0000
1000
0000
0000
0100
0000
0010
0000
0010
0100
0001
0000
,  // measure 16
0020
0000
0000
0030
,  // measure 17
0100
0000
0001
1000
0000
0100
0001
0100
0001
0000
0010
0100
0000
0001
1000
0000
,  // measure 18
0200
0000
0000
0000
0000
0000
0000
0000
0000
0000
0000
0000
0300
0000
0000
0001
,  // measure 19
1000
0000
0100
0001
0000
0010
0100
0000
0001
0000
1000
0100
0000
0001
0010
0100
,  // measure 20
0002
0000
0000
0003
,  // measure 21
0100
0000
0001
1000
0000
0100
0001
0000
1000
0000
0100
0001
0000
0010
0100
0000
,  // measure 22
1001
0000
1001
0000
,  // measure 23
1001
0000
1001
0000
,  // measure 24
1001
0000
1001
0000
,  // measure 25
1001
0000
0000
0000
0000
0000
0000
0000
1000
0001
1000
0001
1000
0001
1000
0001
,  // measure 26
1000
0000
0100
0000
,  // measure 27
0010
0000
0000
0000
0001
0001
0001
0000
,  // measure 28
0110
0000
0110
0000
,  // measure 29
0110
0000
0000
0000
0000
0000
0000
0000
1000
0000
1000
0000
0100
0001
0100
0000
,  // measure 30
0010
0100
0001
0000
1000
0100
0001
0000
0001
0010
0100
0000
0001
0100
0010
0000
,  // measure 31
0001
0100
1000
0000
0001
0100
0010
0000
0001
0100
0010
0000
1000
0100
0001
1000
,  // measure 32
0001
0000
0010
0000
0100
0000
0001
0000
2000
0000
0000
3000
0001
0010
0100
0001
,  // measure 33
0010
0000
0000
0000
0001
0000
0100
0000
0010
0000
1000
0100
0001
0000
0000
0000
,  // measure 34
0010
0000
0000
0000
0100
0000
0001
1000
0100
0000
0000
0000
0010
0000
0001
0100
,  // measure 35
1000
0000
0010
0100
0001
0000
0100
0000
0010
0000
0100
1000
0001
0000
0010
0000
,  // measure 36
1001
0000
0000
0000
1000
0100
0000
0001
0000
0010
0000
0000
0010
1000
0000
0100
,  // measure 37
0000
0000
0000
0000
0001
0010
0000
0100
0000
0001
0000
0000
0010
0100
0000
0001
,  // measure 38
0000
1000
0000
0000
0100
0010
0000
0010
0000
0100
0000
0010
0100
0010
0000
0001
,  // measure 39
0000
0001
0000
0001
0100
0010
0000
0001
0000
0010
0000
0000
1000
0100
0000
0001
,  // measure 40
1000
0010
0000
0010
0001
0100
0000
0010
0000
0100
0000
0001
1000
0100
0000
0001
,  // measure 41
0000
1000
0000
0100
0001
1000
0000
0100
0000
0000
0000
0100
0010
0001
0000
1000
,  // measure 42
0100
0001
0000
0010
0100
0001
0000
1000
0100
0001
0000
0010
0100
0001
0000
1000
,  // measure 43
0100
0001
0000
0010
0100
0001
0000
0100
1000
0001
0000
0000
0110
0000
0000
0000
,  // measure 44
0110
0000
0000
0000
,  // measure 45
1000
0000
0100
0001
0000
0010
0100
0000
0001
0000
0010
0100
0000
0001
1000
0000
,  // measure 46
0110
0000
0000
0000
,  // measure 47
1000
0000
0000
0100
0000
0000
0001
0000
0010
0000
0100
0001
0000
1000
0100
0000
,  // measure 48
1001
0000
1001
0000
,  // measure 49
1001
0000
0000
0000
1001
1001
1001
0000
,  // measure 50
0110
0000
0110
0000
,  // measure 51
0110
0000
0000
0000
0000
0000
0000
0000
1000
0000
0001
0000
0010
0001
0100
0000
,  // measure 52
1001
0000
1001
0000
,  // measure 53
1001
0000
0000
0000
1001
1001
1001
0000
,  // measure 54
0101
0000
0101
0000
,  // measure 55
0110
0000
0000
0000
0000
0000
0000
0000
0100
0000
0100
0000
0001
1000
0100
0000
,  // measure 56
0100
0010
0001
0000
0100
0001
1000
0000
0100
0001
0010
0000
0100
0001
1000
0000
,  // measure 57
0001
1000
0001
0100
0010
0001
1000
0001
,  // measure 58
0100
0010
0001
1000
0001
0100
1000
0001
,  // measure 59
0100
0010
0001
1000
0001
0100
0010
0001
,  // measure 60
1000
0001
0100
0010
0001
1000
0001
0100
,  // measure 61
0010
0001
1000
0001
0100
0010
0001
1000
,  // measure 62
0001
0100
0010
0001
1000
0001
0100
0010
,  // measure 63
1001
0001
0010
0100
0001
1000
0001
0010
,  // measure 64
0100
0010
0001
1000
0001
0100
0010
0001
,  // measure 65
1000
0001
0100
0010
0001
1000
0001
0100
,  // measure 66
0010
0000
0001
0000
1000
0000
0001
0000
0100
0000
0010
0000
1000
0001
0010
0000
,  // measure 67
0001
1000
0001
0100
0010
0001
1000
0001
,  // measure 68
0100
0010
0001
1000
0001
0100
0011
0000
,  // measure 69
1000
0001
0100
0010
0001
1000
0001
0100
,  // measure 70
0010
0000
0001
0000
1000
0000
0001
0000
0100
0000
0010
0000
1000
0001
0010
0000
,  // measure 71
0100
1000
0001
0100
0010
0001
1000
0001
,  // measure 72
0100
0010
0001
1000
0001
0100
0010
0001
,  // measure 73
1000
0000
0001
0000
0100
0000
0010
0000
0010
0001
0100
0000
1000
0000
0001
0000
,  // measure 74
0100
0010
0001
0100
0001
0100
1000
0001
,  // measure 75
0200
0000
0000
0300
,  // measure 76
0100
0001
0000
1000
0100
0000
0010
0100
,  // measure 77
0000
0100
0001
0000
1000
0100
0001
0010
,  // measure 78
0100
0001
1000
0001
0010
0100
0001
1000
,  // measure 79
0001
0010
0100
0001
0010
0001
0100
0010
,  // measure 80
0001
1000
0001
0100
0010
0001
1000
0001
,  // measure 81
0100
0010
0001
1000
0001
0100
0010
0001
,  // measure 82
1000
0001
0100
0010
0001
1000
0001
0100
,  // measure 83
0010
0001
1000
0001
0100
0010
0001
1000
,  // measure 84
0001
0100
0010
0001
1000
0001
0100
0010
,  // measure 85
0001
0100
0001
0100
1000
0001
0010
0100
,  // measure 86
0101
0100
1000
0000
0001
0100
0010
0000
,  // measure 87
0001
0100
0010
0000
1000
0001
0100
0000
,  // measure 88
1001
0000
1001
0000
,  // measure 89
0101
0000
0000
0000
0000
0000
0000
0000
1000
0000
1000
0000
1000
0001
0010
0000
,  // measure 90
0110
0001
1000
0100
0011
0100
0010
0001
,  // measure 91
1000
0000
0001
0000
0100
0000
0010
0000
1000
0000
0100
0000
0001
0010
0100
0000
,  // measure 92
0101
0000
0110
0000
,  // measure 93
1100
0000
0000
0000
0110
0110
0110
0000
,  // measure 94
1001
0001
0010
0100
0101
0010
0100
0001
,  // measure 95
1001
0000
0010
0000
0100
0000
0001
0000
1000
0000
0001
0000
0010
0100
0001
0000
,  // measure 96
0001
0100
0010
0000
0001
0100
0010
0000
0001
0100
0010
0000
0001
1000
0100
0000
;
