#TITLE:night dancer;
#SUBTITLE:;
#ARTIST:Sakanaction;
#TITLETRANSLIT:;
#SUBTITLETRANSLIT:;
#ARTISTTRANSLIT:;
#GENRE:;
#CREDIT:;
#BANNER:;
#BACKGROUND:;
#LYRICSPATH:;
#CDTITLE:;
#MUSIC:night dancer.mp3;
#OFFSET:0.000000;
#SAMPLESTART:268.837006;
#SAMPLELENGTH:12.000000;
#SELECTABLE:YES;
#BPMS:0.000000=134.000000
;
#STOPS:0.000000=11.150000
;
#BGCHANGES:0.000=night dancer.mp4=1.000=0=0=1=====,
99999=-nosongbg-=1.000=0=0=0 // don't automatically add -songbackground-
;
#KEYSOUNDS:;
#ATTACKS:;

//---------------dance-single - ----------------
#NOTES:
     dance-single:
     :
     Hard:
     9:
     0.331042,0.577977,0.126801,0.351874,0.025360,731.000000,691.000000,40.000000,111.000000,0.000000,0.000000,0.331042,0.577977,0.126801,0.351874,0.025360,731.000000,691.000000,40.000000,111.000000,0.000000,0.000000:
// measure 0
0000
0000
0000
0000
,  // measure 1
0000
0000
0000
0000
,  // measure 2
0000
0000
0000
0000
,  // measure 3
0000
0000
0000
0000
,  // measure 4
0001
1000
0001
0010
0100
0001
1000
0001
,  // measure 5
0010
0100
0001
1000
0001
0010
0100
0001
,  // measure 6
1000
0001
0010
0100
0001
1000
0001
0010
,  // measure 7
0100
0100
0010
0001
1000
0100
0001
0100
,  // measure 8
0001
0000
0100
0001
0010
0100
0001
0000
,  // measure 9
0000
0100
0010
0001
0100
1000
0100
0000
,  // measure 10
0000
0020
0000
0000
0000
0030
0000
0100
,  // measure 11
0000
0100
0010
0001
0100
0000
1000
0000
,  // measure 12
0100
0000
0010
0001
0100
0010
1000
0000
,  // measure 13
0000
0001
0100
0010
0100
0001
0010
0000
,  // measure 14
0000
0200
0000
0000
0000
0300
0000
0010
,  // measure 15
0000
0001
1000
0100
0010
0000
0100
0000
,  // measure 16
1000
0100
0010
0001
,  // measure 17
0001
0010
0100
2000
,  // measure 18
0000
0200
0000
0000
0000
0300
3000
0010
,  // measure 19
0000
0001
0100
0001
1000
0000
0100
0000
,  // measure 20
0001
1000
0001
0100
,  // measure 21
0010
0001
0100
0020
,  // measure 22
0000
0200
0000
0000
0000
0300
0030
0100
,  // measure 23
0000
0010
0001
0100
1000
0000
0010
0000
,  // measure 24
1001
0000
0100
0010
0001
0100
1000
0000
,  // measure 25
0000
0001
0100
0010
0001
0100
1000
0000
,  // measure 26
0000
0200
0000
0000
0000
0300
0000
0001
,  // measure 27
0000
0010
0001
0100
1000
0000
0100
0000
,  // measure 28
0010
0000
0100
0010
0001
0100
1000
0000
,  // measure 29
0000
0001
0100
0010
0001
0100
1000
0000
,  // measure 30
0000
0200
0000
0000
0000
0300
0000
0100
,  // measure 31
0000
0010
0001
0100
1000
0000
0010
0000
,  // measure 32
0001
0100
1000
0010
,  // measure 33
0100
0001
0100
0020
,  // measure 34
0000
0200
0000
0000
0000
0300
0030
1000
,  // measure 35
0000
0010
0001
0100
1000
0000
0100
0000
,  // measure 36
0010
0001
0100
1000
,  // measure 37
0100
0010
0001
0200
,  // measure 38
0000
0000
0000
0000
,  // measure 39
0000
0000
0000
0300
,  // measure 40
0020
0000
0200
0000
0330
0000
0001
0010
,  // measure 41
2002
0000
0000
3003
,  // measure 42
0020
0000
0200
0000
0330
0000
0010
0001
,  // measure 43
2002
0000
0000
3003
,  // measure 44
0020
0000
0002
0000
0000
0033
0100
0001
,  // measure 45
2002
3003
0200
0002
,  // measure 46
0000
0000
0000
0000
,  // measure 47
0000
0000
0000
0303
,  // measure 48
0020
0000
0200
0000
0330
0000
1000
0001
,  // measure 49
2002
0000
0000
3003
,  // measure 50
0020
0000
0200
0000
0330
0000
0100
0001
,  // measure 51
2002
0000
0000
3003
,  // measure 52
0002
0000
2000
0000
3003
0000
0010
0100
,  // measure 53
0202
0000
0303
0010
0200
0000
0002
0000
,  // measure 54
0000
0000
0000
0000
,  // measure 55
0000
0000
0000
0303
,  // measure 56
0001
1000
0100
0001
0010
0100
0001
1000
,  // measure 57
0100
0001
0010
0100
0001
1000
0001
0010
,  // measure 58
0100
0001
1000
0001
0010
0100
0001
1000
,  // measure 59
0001
0010
0100
0001
0010
0001
0100
0001
,  // measure 60
0100
0010
0010
0001
0100
0010
0001
0100
,  // measure 61
0001
0100
0010
0001
1000
0001
0100
0010
,  // measure 62
0001
1000
0001
0100
0010
0001
1000
0001
,  // measure 63
0100
0010
0001
1000
0001
0100
0010
0001
,  // measure 64
0100
0000
0010
0001
1000
0001
0100
0000
,  // measure 65
0000
0010
0001
1000
0001
0100
0010
0000
,  // measure 66
0000
0200
0000
0000
0000
0300
0000
0001
,  // measure 67
0000
0010
0001
0100
0001
0000
0100
0000
,  // measure 68
0001
0000
0100
0010
0001
0100
1000
0000
,  // measure 69
0000
0001
0100
0010
0001
0100
1000
0000
,  // measure 70
0000
0200
0000
0000
0000
0300
0000
0010
,  // measure 71
0000
0100
0001
1000
0100
0000
0001
0000
,  // measure 72
0100
0010
0001
1000
,  // measure 73
0001
0100
0010
0200
,  // measure 74
0000
0020
0000
0000
0000
0000
0330
0001
,  // measure 75
0000
1000
0100
0001
0010
0000
0100
0000
,  // measure 76
0001
0100
0010
0001
,  // measure 77
1000
0001
0100
0020
,  // measure 78
0000
0000
0000
0000
,  // measure 79
0000
0000
0000
0030
,  // measure 80
2000
0000
0200
0000
3300
0000
0001
0010
,  // measure 81
2002
0000
0000
3003
,  // measure 82
0200
0000
0002
0000
0303
0000
0010
0100
,  // measure 83
0202
0000
0000
0303
,  // measure 84
2000
0000
0200
0000
3300
0000
0100
0001
,  // measure 85
0202
0303
2000
0200
,  // measure 86
0000
0000
0000
0000
,  // measure 87
0000
0000
0000
3300
,  // measure 88
0200
0000
0020
0000
0330
0000
0001
0010
,  // measure 89
0202
0000
0000
0303
,  // measure 90
2000
0000
0200
0000
3300
0000
0010
0100
,  // measure 91
0202
0000
0000
0303
,  // measure 92
0020
0000
0200
0000
0330
0000
0001
1000
,  // measure 93
2002
0000
3003
0010
0200
0000
0020
0000
,  // measure 94
0000
0000
0000
0000
,  // measure 95
0000
0000
0000
0000
0000
0000
0000
0000
0330
0000
0000
0000
0000
0000
0001
1000
,  // measure 96
0001
0010
0000
0100
0000
1000
0000
0001
,  // measure 97
0000
0000
0100
0000
0000
0000
0010
0000
0001
0000
0100
0000
0010
0000
1000
0001
,  // measure 98
1000
0010
0100
0001
0000
0100
0000
1000
,  // measure 99
0000
0000
0001
0000
0000
0000
0100
0000
0010
0000
0010
0000
0100
0000
1000
0001
,  // measure 100
1000
0100
0001
1000
0000
0010
0000
0100
,  // measure 101
0000
0000
0010
0000
0000
0000
0100
0000
0010
0000
0001
0000
0100
0000
1000
0001
,  // measure 102
1000
0200
0000
0000
,  // measure 103
0000
0000
0000
0000
0020
0000
0000
0000
0000
0000
0000
0000
0330
0000
0001
1000
,  // measure 104
0001
0010
0100
0001
0000
0100
0000
0010
,  // measure 105
0000
0000
0001
0000
0000
0000
0100
0000
0001
0000
0010
0000
0001
0000
1000
0001
,  // measure 106
1000
0100
0001
0010
0000
0100
0000
0001
,  // measure 107
0000
0000
1000
0000
0000
0000
0100
0000
0010
0000
0001
0000
1000
0000
0001
0010
,  // measure 108
0001
0010
0100
0001
0000
1000
0000
0100
,  // measure 109
0000
0000
0001
0000
0000
0000
0010
0000
0100
0000
0001
0000
1000
0000
0001
1000
,  // measure 110
0001
0200
0000
0000
,  // measure 111
0000
0000
0020
0000
0000
0000
0000
0330
,  // measure 112
0100
0010
0001
1000
0001
0100
0010
0001
,  // measure 113
0100
0001
0100
0010
0001
1000
0001
0100
,  // measure 114
0010
0001
1000
0001
0100
0010
0001
0100
,  // measure 115
0001
0100
0010
0001
1000
0001
0100
0010
,  // measure 116
0001
0100
0001
0100
0010
0001
1000
0001
,  // measure 117
0100
0010
0001
0100
0001
0100
0010
0001
,  // measure 118
1000
0001
0100
0010
0001
0100
0001
0100
,  // measure 119
0010
0001
1000
0001
0100
0010
0001
0100
,  // measure 120
2000
0000
0200
0000
3300
0000
0100
0001
,  // measure 121
0220
0000
0000
0330
,  // measure 122
0002
0000
2000
0000
3003
0000
0010
0100
,  // measure 123
0202
0000
0000
0303
,  // measure 124
0020
0000
0200
0000
0330
0000
0001
1000
,  // measure 125
2002
3003
0020
0200
,  // measure 126
0000
0000
0000
0000
,  // measure 127
0000
0000
0000
0330
,  // measure 128
2000
0000
0002
0000
3003
0000
0010
0100
,  // measure 129
0202
0000
0000
0303
,  // measure 130
0020
0000
0200
0000
0330
0000
0100
0001
,  // measure 131
2002
0000
0000
3003
,  // measure 132
0020
0000
0200
0000
0330
0000
0001
1000
,  // measure 133
0202
0000
0303
0010
0200
0000
0002
0000
,  // measure 134
0000
0000
0000
0000
,  // measure 135
0000
0000
0000
0000
0000
0000
0000
0000
0303
0000
0000
0000
0000
0000
0001
1000
,  // measure 136
0001
0100
0000
0101
0000
1100
0000
0110
,  // measure 137
0000
0000
0101
0000
0000
0000
0010
0000
0100
0000
0001
0000
1000
0000
0001
0100
,  // measure 138
0010
0010
0001
1000
0000
0110
0000
0011
,  // measure 139
0000
0000
0011
0000
0000
0000
0100
0000
0001
0000
0010
0000
0100
0000
1000
0001
,  // measure 140
1000
0100
0001
0010
0000
0101
0000
1100
,  // measure 141
0000
0000
0101
0000
0000
0000
0010
0000
0100
0000
0001
0000
1000
0000
0001
0010
,  // measure 142
0001
0020
0000
0000
,  // measure 143
0000
0000
0000
0000
0200
0000
0000
0000
0000
0000
0000
0000
0330
0000
0001
1000
,  // measure 144
0001
0010
0100
0001
0000
1001
0000
0110
,  // measure 145
0000
0000
0101
0000
0000
0000
1000
0000
0100
0000
0001
0000
0010
0000
0100
0001
,  // measure 146
0100
0010
0001
1000
0000
0101
0000
1100
,  // measure 147
0000
0000
0101
0000
0000
0000
0010
0000
0100
0000
0001
0000
1000
0000
0001
0010
,  // measure 148
0001
0020
0000
0000
,  // measure 149
0000
0000
0000
0000
0200
0000
0000
0000
0000
0000
0330
0000
0010
0000
0100
0001
,  // measure 150
0100
0001
1000
0100
0000
0001
0010
0200
,  // measure 151
0000
0000
0000
0300
,  // measure 152
0001
1000
0001
0010
0100
0001
0100
0001
,  // measure 153
1000
0001
0010
0100
0001
1000
0001
0010
,  // measure 154
0100
0001
1000
0001
0010
0100
0010
0001
,  // measure 155
0100
0001
0100
0010
0001
1000
0001
0100
,  // measure 156
0010
0001
1000
0001
0100
0010
0001
1000
,  // measure 157
0001
0100
0010
0001
1000
0001
0100
0010
,  // measure 158
0001
1000
0001
0100
0010
0001
1000
0001
,  // measure 159
0100
0010
1000
0001
1001
1001
1001
1001
,  // measure 160
2002
0000
0000
0000
,  // measure 161
0000
0000
0000
0000
,  // measure 162
0000
0000
0000
0000
,  // measure 163
0000
0000
0000
0000
,  // measure 164
0000
0000
0000
0000
,  // measure 165
0000
0000
0000
3003
;
