#TITLE:nice;
#SUBTITLE:;
#ARTIST:2hollis;
#TITLETRANSLIT:;
#SUBTITLETRANSLIT:;
#ARTISTTRANSLIT:;
#GENRE:;
#CREDIT:;
#BANNER:;
#BACKGROUND:;
#LYRICSPATH:;
#CDTITLE:;
#MUSIC:2hollis - nice (Official Audio).mp3;
#OFFSET:0.000000;
#SAMPLESTART:100.059883;
#SAMPLELENGTH:12.000000;
#SELECTABLE:YES;
#BPMS:0.000000=128.000000
;
#STOPS:24.000000=3.800000
;
#BGCHANGES:;
#KEYSOUNDS:;
#ATTACKS:;

//---------------dance-single - ----------------
#NOTES:
     dance-single:
     :
     Hard:
     14:
     0.617734,0.850070,0.321341,0.006986,0.628711,619.000000,573.000000,46.000000,1.000000,0.000000,0.000000,0.617734,0.850070,0.321341,0.006986,0.628711,619.000000,573.000000,46.000000,1.000000,0.000000,0.000000:
0000
0000
0000
0000
,
0000
0000
0000
0000
,
0000
0000
0000
0000
,
0000
0000
0000
0000
,
0000
0000
0000
0000
,
0000
0000
0000
0000
,
0000
0000
0000
0000
0100
0001
0010
0000
0100
0000
0000
0010
0001
0000
0000
0000
,
0010
0000
0001
0000
1000
0000
0001
0000
0100
0000
0010
0000
1000
0001
0010
0000
,
0100
0000
0000
0000
1000
0100
0001
0000
0010
0000
0000
0100
0001
0000
0000
0000
,
0001
0000
0100
0000
0010
0000
1000
0100
0001
0010
0100
0001
1000
0000
0100
0000
,
0110
0000
0000
0100
0001
0010
0100
0000
0001
0000
1000
0000
0100
0000
0000
0000
,
0000
0000
0000
0000
0000
0000
0000
0001
1000
0000
0100
0000
0001
0010
0100
0001
,
1000
0000
0000
0100
0001
0010
0100
0000
1000
0000
0010
0000
0100
0000
0000
0000
,
0000
0000
1001
0000
0100
0000
0010
0100
0000
0000
0001
0000
1000
0100
0001
0000
,
1001
0000
0000
0000
0100
0000
0000
0010
0001
0000
0100
0000
0010
0100
0001
0100
,
1000
0000
0000
0000
0001
0000
0010
0100
0000
0000
0001
0000
0010
0100
0001
1000
,
0100
0000
1001
0000
0000
0000
1000
0001
0010
0000
0100
0000
0001
1000
0100
0001
,
0010
0000
0000
0000
1000
0000
0001
0010
0000
0000
0010
0000
0100
1000
0001
0010
,
0100
0000
0000
0000
0100
0000
0010
0001
0100
0000
0001
0000
1000
0100
0001
0010
,
0100
0000
0000
0000
0001
0000
0100
0010
0001
0000
1000
0000
0001
0100
0001
0100
,
0001
0000
1001
0000
0010
0000
0100
0001
0000
0000
1000
0000
0100
0001
0100
0001
,
0100
0000
0000
0000
0001
0000
0010
0100
0000
0000
0001
0000
1000
0100
0001
0100
,
0010
0000
0000
0000
0000
0000
0000
0000
0000
0000
0010
0000
0001
0100
1000
0000
,
0010
0000
0000
0000
0000
0000
0000
0000
0000
0000
0010
0000
0001
0100
1000
0000
,
0000
0000
1001
0000
0000
0000
0000
0000
0000
0000
0010
0000
0100
0001
1000
0000
,
0000
0000
0000
0000
0000
0000
0000
0000
0000
0000
0010
0000
0001
0100
1000
0000
,
1001
1001
1001
1001
,
1001
1001
1001
1001
,
0200
0000
0000
0000
,
0000
0000
0000
0000
,
0000
0000
0000
0000
0300
0000
0010
1000
0001
0010
0100
0100
0010
0000
0001
0000
,
1000
0000
0001
0000
0100
0000
0010
0000
0001
0000
1000
0000
0100
0001
0000
0000
,
0000
0000
0000
0000
0000
0000
0010
0001
0100
0010
0001
0100
1000
0000
0010
0000
,
0001
1000
0001
0100
0010
0001
1000
0100
,
0110
0000
0000
0000
0000
0000
0100
0010
0001
0100
1000
0010
0100
0000
0001
0000
,
1000
0100
0010
0001
0100
0010
0001
0100
,
1000
0000
0000
0000
0000
0000
0100
0000
0001
0000
1000
0100
0001
0000
0010
0000
,
0100
0000
0010
0001
0100
0010
0001
0100
1000
0000
0001
0000
0100
0000
0010
0000
,
1001
0000
0000
0000
0100
0001
1000
0000
0100
0000
0000
0001
0010
0000
0000
0000
,
0001
0000
0100
0000
0010
0000
0001
0000
0100
0000
0010
0000
1000
0001
1000
0000
,
0010
0000
0000
0000
0010
0100
0010
0000
0010
0000
0000
0100
0001
0000
0000
0000
,
0001
0000
0100
0000
0010
0000
1000
0100
0001
0010
0100
0001
1000
0000
0010
0000
,
0001
0000
0000
0010
0100
0001
1000
0000
0100
0000
0001
0000
0100
0000
0000
0000
,
1001
0000
0000
0000
0000
0000
0010
0000
0001
1000
0001
0100
0001
0010
0100
0001
,
1000
0010
0001
0100
0001
0100
0010
0001
1000
0001
0100
0010
0001
1000
0001
0100
,
0010
0001
1000
0001
0100
0010
0001
0100
1000
0000
0100
0000
0010
0001
0100
0000
,
0110
0000
0000
0000
1000
0000
0100
0001
0000
0000
0010
0000
0001
0100
1000
0010
,
0100
0000
0000
0000
0001
0000
0100
1000
0000
0000
0100
0000
0001
0010
0100
0001
,
1000
0000
1001
0000
0100
0000
0010
0100
0000
0000
0001
0000
0010
0100
0001
1000
,
0001
0000
0010
0100
0000
0001
1000
0000
0000
0000
0100
0000
0001
1000
0100
0001
,
0010
0000
0000
0000
0010
0000
0100
0001
0000
0000
1000
0000
0100
0001
0100
0001
,
0010
0000
0000
0000
0100
0000
0001
0100
0000
0000
0001
0000
1000
0100
0001
0010
,
0100
0000
1001
0000
0000
0000
0100
0001
0000
0000
0010
0000
0100
0001
1000
0001
,
0010
0000
0100
0001
0000
1000
0100
0000
0000
0000
0010
0000
0100
0010
0001
0000
,
1000
0100
0001
0100
0001
0000
1000
0100
0001
0000
0010
0100
0001
0010
0100
0010
,
0001
0100
0010
0001
0100
0000
1000
0100
0001
0100
0010
0001
1000
0010
0100
0001
,
0100
0010
0001
1000
0100
0001
0010
0000
0100
0001
1000
0001
0010
0100
0001
1000
,
1000
0010
0001
0100
0010
0001
1000
0100
0001
0100
0010
0001
0100
0010
0001
1000
,
0100
0000
0010
0100
0001
0000
1000
0100
0000
0001
0000
1000
0100
0000
0001
0010
,
0100
0010
0001
0100
0010
0001
1000
0100
0001
0010
0100
0010
0001
1000
0100
0001
,
0100
0010
0001
0100
1000
0010
0100
0001
1000
0000
0100
0001
0010
0100
0001
0000
,
1000
0000
1001
0000
0010
0100
0001
0100
0001
1000
0001
0010
0100
0001
0010
0000
,
1001
0000
0000
0000
0000
0000
0100
0010
0100
0000
0000
0100
0000
0000
0100
0010
,
0000
0000
0000
0000
0000
0000
0001
0010
0010
0000
0000
0100
0000
0001
0010
0100
,
1000
0000
0000
0010
0000
0100
0001
0010
0000
0000
0001
0000
0000
0000
0100
0010
,
0001
0000
0100
0001
0000
0000
0010
0001
0000
0000
1000
0100
0000
0001
0010
0000
,
0110
0110
0110
0110
,
0110
0110
0110
0110
,
1000
0000
0000
0000
0100
0000
0000
0000
0001
0000
0010
0000
0100
0001
1000
0000
,
0100
0000
0000
0000
0010
0000
0000
0000
0001
0000
0100
0000
0010
0100
0001
0000
,
1001
1001
1001
1001
,
1001
1001
1001
1001
,
1001
1001
1001
1001
,
1001
1001
1001
1001
;

//---------------dance-single - ----------------
#NOTES:
     dance-single:
     :
     Medium:
     7:
     0.269448,0.463674,0.188613,0.153685,0.000000,270.000000,243.000000,27.000000,22.000000,0.000000,0.000000,0.269448,0.463674,0.188613,0.153685,0.000000,270.000000,243.000000,27.000000,22.000000,0.000000,0.000000:
0000
0000
0000
0000
,
0000
0000
0000
0000
,
0000
0000
0000
0000
,
0000
0000
0000
0000
,
0000
0000
0000
0000
,
0000
0000
0000
0000
,
0000
0000
0100
0010
0001
0100
1000
0000
,
0010
0001
1000
0001
0100
0010
0001
0100
,
1000
0000
0100
0010
0001
0100
1000
0000
,
0010
0001
1000
0001
0100
0010
0001
0100
,
1001
0000
0100
0010
0001
0100
1000
0000
,
0110
0000
0100
0010
,
0100
0000
0100
0010
0001
0100
1000
0000
,
0000
0000
0000
0100
,
0110
0001
1000
0100
,
0101
0010
0100
0001
,
0000
0101
1000
0000
0100
0000
0001
0000
,
0110
0001
0100
1000
,
0110
0110
0110
0110
,
0110
0001
0100
0010
,
0000
0101
0100
0000
1000
0000
0001
0000
,
0100
0010
0001
1000
,
0200
0000
0000
0300
,
0020
0000
0000
0030
,
0002
0000
0000
0003
,
2000
0000
0000
3000
,
0200
0000
0000
0300
,
0002
0000
0000
0003
,
0020
0000
0000
0030
,
2000
0000
0000
3000
,
0200
0000
0000
0000
,
0000
0000
0000
0300
,
0002
0000
0000
0000
,
0000
0000
0000
0003
,
0200
0000
0000
0000
,
0000
0000
0000
0300
,
2000
0000
0000
0000
,
0000
0000
0000
3000
,
0101
0000
0001
0010
1000
0100
0100
0000
,
0010
0001
0100
0010
0001
0100
1000
0000
,
0110
0000
0001
0010
1000
0100
0001
0000
,
0001
0100
0010
0001
1000
0001
0100
0010
,
1001
0000
0001
0100
0010
0010
1001
0000
,
0110
0000
0001
1000
,
0110
0000
0100
0010
0001
0100
0010
0100
,
0001
0100
0010
0001
1000
0001
0100
0010
,
1001
0100
0010
0001
,
0100
0010
0100
0001
,
0000
1001
0010
0000
0010
0000
0001
0000
,
1000
0001
0100
0010
,
0110
0110
0110
0110
,
0110
0100
1000
0001
,
0000
1001
0001
0000
0100
0000
0010
0000
,
0001
1000
0001
0100
,
0010
0100
0001
1000
0001
0010
0100
0001
,
1000
0001
0010
0100
0001
1000
0001
0010
,
0100
0001
1000
0001
0100
0001
0100
0001
,
1000
0001
0010
0100
0001
1000
0001
0010
,
0100
0001
1000
0001
0010
0100
0100
0010
,
0001
1000
0001
0100
0010
0100
0010
0001
,
0100
0001
0100
0010
0001
1000
0001
0100
,
0010
0001
1000
0001
0100
0010
0001
0100
,
2000
0000
0000
3000
,
0002
0000
0000
0003
,
0020
0000
0000
0030
,
0200
0000
0000
0300
,
0002
0000
0000
0003
,
0200
0000
0000
0300
,
0020
0000
0000
0030
,
0200
0000
0000
0300
,
2002
0000
0000
0000
,
0000
0000
0000
0000
,
0000
0000
0000
0000
,
0000
0000
0000
3003
;

//---------------dance-single - ----------------
#NOTES:
     dance-single:
     :
     Easy:
     4:
     0.188613,0.342298,0.195599,0.139714,0.000000,189.000000,161.000000,28.000000,20.000000,0.000000,0.000000,0.188613,0.342298,0.195599,0.139714,0.000000,189.000000,161.000000,28.000000,20.000000,0.000000,0.000000:
0000
0000
0000
0000
,
0000
0000
0000
0000
,
0000
0000
0000
0000
,
0000
0000
0000
0000
,
0000
0000
0000
0000
,
0000
0000
0000
0000
,
0000
0100
0001
1000
,
0100
0001
0010
0100
,
0001
0010
0100
0001
,
1000
0001
0010
0100
,
0001
0010
0001
1000
,
0110
0000
0100
0001
,
1000
0001
0010
0100
,
0000
0000
0000
0010
,
0110
0000
0000
1000
,
1001
0000
0000
0100
,
0000
0101
0000
0000
0000
0000
0100
0000
,
0101
0000
0000
0100
,
0101
0101
0101
0101
,
0101
0000
0000
0100
,
0000
1001
0000
0000
0000
0000
0010
0000
,
1001
0000
0000
0100
,
0020
0000
0000
0030
,
0200
0000
0000
0300
,
0002
0000
0000
0003
,
2000
0000
0000
3000
,
0200
0000
0000
0300
,
0002
0000
0000
0003
,
0020
0000
0000
0030
,
0200
0000
0000
0300
,
0002
0000
0000
0000
,
0000
0000
0000
0003
,
0020
0000
0000
0000
,
0000
0000
0000
0030
,
2000
0000
0000
0000
,
0000
0000
0000
3000
,
0002
0000
0000
0000
,
0000
0000
0000
0003
,
0110
0001
1000
0001
,
0010
0100
0100
0010
,
0110
0001
1000
0001
,
0010
0100
0001
1000
,
1001
0010
0100
0001
,
0000
0000
0010
0100
,
1001
0100
0001
0100
,
0001
0000
0000
0100
,
0101
0000
0000
1000
,
1001
0000
0000
0100
,
0000
0101
0000
0000
0000
0000
1000
0000
,
1100
0000
0000
0010
,
0110
0110
0110
0110
,
0110
0000
0000
0010
,
0000
1001
0000
0000
0000
0000
0100
0000
,
0101
0000
0000
0100
,
0010
0000
1000
0000
0001
0100
0010
0001
,
1000
0000
0100
0000
0001
0010
0100
0001
,
1000
0000
0100
0000
0001
0100
0010
0100
,
0001
0000
0010
0000
0100
0010
0001
0100
,
1000
0000
0010
0000
0100
0010
0001
0100
,
1000
0000
0010
0000
0100
0010
0001
0100
,
1000
0000
0010
0000
0100
0010
0001
0100
,
1000
0001
0010
0000
0100
0001
1000
0001
,
0020
0000
0000
0030
,
0200
0000
0000
0300
,
0002
0000
0000
0003
,
2000
0000
0000
3000
,
0002
0000
0000
0003
,
0020
0000
0000
0030
,
0200
0000
0000
0300
,
2000
0000
0000
3000
,
1001
0000
0000
0000
;

//---------------dance-single - ----------------
#NOTES:
     dance-single:
     :
     Beginner:
     2:
     0.067861,0.146699,0.090814,0.000000,0.000000,68.000000,55.000000,13.000000,0.000000,0.000000,0.000000,0.067861,0.146699,0.090814,0.000000,0.000000,68.000000,55.000000,13.000000,0.000000,0.000000,0.000000:
// measure 0
0000
0000
0000
0000
,  // measure 1
0000
0000
0000
0000
,  // measure 2
0000
0000
0000
0000
,  // measure 3
0000
0000
0000
0000
,  // measure 4
0000
0000
0000
0000
,  // measure 5
0000
0000
0000
0000
,  // measure 6
0000
0000
0000
0000
,  // measure 7
0010
0000
0000
0000
,  // measure 8
0100
0000
0000
0000
,  // measure 9
0001
0000
0000
0000
,  // measure 10
1000
0000
0000
0000
,  // measure 11
0100
0000
0000
0000
,  // measure 12
0001
0000
0000
0000
,  // measure 13
1000
0000
0000
0000
,  // measure 14
1001
0000
0000
0000
,  // measure 15
1001
0000
0000
0000
,  // measure 16
0000
0000
0000
0000
,  // measure 17
1001
0000
0000
0000
,  // measure 18
1001
0000
0000
0000
,  // measure 19
0110
0000
0000
0000
,  // measure 20
0000
0000
0000
0000
,  // measure 21
1001
0000
0000
0000
,  // measure 22
0100
0000
0000
0000
,  // measure 23
0010
0000
0000
0000
,  // measure 24
1000
0000
0000
0000
,  // measure 25
0001
0000
0000
0000
,  // measure 26
0010
0000
0000
0000
,  // measure 27
0100
0000
0000
0000
,  // measure 28
0010
0000
0000
0000
,  // measure 29
0000
0000
0000
0000
,  // measure 30
0100
0000
0000
0000
,  // measure 31
0000
0000
0000
0000
,  // measure 32
0001
0000
0000
0000
,  // measure 33
0000
0000
0000
0000
,  // measure 34
1000
0000
0000
0000
,  // measure 35
0000
0000
0000
0000
,  // measure 36
0001
0000
0000
0000
,  // measure 37
0000
0000
0000
0000
,  // measure 38
0010
0000
0000
0000
,  // measure 39
0100
0000
0000
0000
,  // measure 40
0010
0000
0000
0000
,  // measure 41
0100
0000
0000
0000
,  // measure 42
1000
0000
0000
0000
,  // measure 43
0001
0000
0000
0000
,  // measure 44
1000
0000
0000
0000
,  // measure 45
0001
0000
0000
0000
,  // measure 46
1001
0000
0000
0000
,  // measure 47
0101
0000
0000
0000
,  // measure 48
0000
0000
0000
0000
,  // measure 49
0110
0000
0000
0000
,  // measure 50
1100
0000
0000
0000
,  // measure 51
0101
0000
0000
0000
,  // measure 52
0000
0000
0000
0000
,  // measure 53
0110
0000
0000
0000
,  // measure 54
0010
0000
0000
0000
,  // measure 55
0100
0000
0000
0000
,  // measure 56
0001
0000
0000
0000
,  // measure 57
1000
0000
0000
0000
,  // measure 58
0001
0000
0000
0000
,  // measure 59
0010
0000
0000
0000
,  // measure 60
0100
0000
0000
0000
,  // measure 61
1000
0000
0000
0000
,  // measure 62
0001
0000
0000
0000
,  // measure 63
0010
0000
0000
0000
,  // measure 64
0100
0000
0000
0000
,  // measure 65
0001
0000
0000
0000
,  // measure 66
1000
0000
0000
0000
,  // measure 67
0001
0000
0000
0000
,  // measure 68
1000
0000
0000
0000
,  // measure 69
0001
0000
0000
0000
,  // measure 70
1001
0000
0000
0000
;
