#TITLE:nerve;
#SUBTITLE:;
#ARTIST:2hollis;
#TITLETRANSLIT:;
#SUBTITLETRANSLIT:;
#ARTISTTRANSLIT:;
#GENRE:;
#CREDIT:;
#BANNER:;
#BACKGROUND:;
#LYRICSPATH:;
#CDTITLE:;
#MUSIC:2hollis - nerve (official audio).ogg;
#OFFSET:0.000000;
#SAMPLESTART:100.059883;
#SAMPLELENGTH:12.000000;
#SELECTABLE:YES;
#BPMS:0.000000=134.000000
;
#STOPS:0.000000=0.075000
;
#BGCHANGES:;
#KEYSOUNDS:;
#ATTACKS:;

//---------------dance-single - ----------------
#NOTES:
     dance-single:
     :
     Hard:
     12:
     0.482181,0.640392,0.011365,0.056823,0.196038,594.000000,592.000000,2.000000,10.000000,0.000000,0.000000,0.482181,0.640392,0.011365,0.056823,0.196038,594.000000,592.000000,2.000000,10.000000,0.000000,0.000000:
// measure 0
0000
0000
0000
0000
,  // measure 1
0000
0000
0000
0000
,  // measure 2
0000
0000
0000
0000
,  // measure 3
0000
0000
0000
0000
,  // measure 4
2002
0000
0000
0000
,  // measure 5
0000
0000
0000
0000
,  // measure 6
0000
0000
0000
0000
,  // measure 7
0000
0000
0000
0000
0000
0000
0000
0000
3003
0000
1000
0001
1000
0000
0001
0000
,  // measure 8
0100
0000
0000
0000
0000
0000
0000
1000
0001
0000
0010
0100
0000
0010
0100
0000
,  // measure 9
1000
0000
0100
0001
0000
0010
0100
0000
0001
0000
1000
0000
0100
0000
0001
0000
,  // measure 10
0010
0000
0000
0000
0001
0000
0010
0100
0000
0001
1000
0000
0100
0000
0001
0000
,  // measure 11
0010
0000
0100
0001
0000
1000
0100
0000
0001
0000
0010
0000
0100
0000
0001
0000
,  // measure 12
1000
0000
0000
0000
0100
0000
0001
0010
0000
0100
0001
0000
1000
0000
0100
0000
,  // measure 13
0001
0000
0010
0100
0000
0001
1000
0000
0100
0000
0001
0000
0010
0000
0100
0000
,  // measure 14
0001
0000
0000
0000
0010
0000
0100
0001
0000
1000
0100
0000
0001
0000
0010
0000
,  // measure 15
0100
0000
0001
1000
0000
0100
0001
0000
0010
0000
0100
0000
0001
0000
1000
0000
,  // measure 16
0100
0001
1000
0100
,  // measure 17
0001
0000
0010
0100
0001
1000
0010
0100
,  // measure 18
1000
0001
0200
0000
0000
0000
0010
0000
,  // measure 19
0000
0010
0000
0310
,  // measure 20
0010
0001
1000
0000
1000
0000
0001
0000
,  // measure 21
0100
0000
0001
0010
0100
0010
0001
1000
,  // measure 22
0001
0100
2000
0000
0000
0000
0001
0000
,  // measure 23
0000
0000
0001
0000
3000
0000
0001
0100
,  // measure 24
1000
0010
0001
2000
0000
3100
0001
0001
,  // measure 25
0010
0100
0100
0020
0000
0031
0010
0100
,  // measure 26
0100
0010
0001
2000
0000
3100
0010
0001
,  // measure 27
0100
0010
0001
2000
0000
3100
0001
1000
,  // measure 28
0000
0100
0001
1000
0001
0000
0010
0000
,  // measure 29
0001
1000
0001
0100
0010
0000
0010
0000
,  // measure 30
0100
0001
0100
1000
0000
0100
0000
0000
,  // measure 31
0000
0000
0000
0000
0000
0000
0000
0000
0000
0000
0001
1000
0100
0000
0001
0000
,  // measure 32
1000
0000
0000
0000
0000
0010
0001
0100
,  // measure 33
1000
0000
0000
0000
0000
0010
0001
0100
,  // measure 34
1000
0000
0010
0000
0001
0100
0001
0100
,  // measure 35
1000
0000
0000
0000
0001
0100
0001
1000
,  // measure 36
0100
0000
0000
0000
0001
0100
0001
0100
,  // measure 37
1000
0100
0100
0001
1000
0100
0001
0010
,  // measure 38
0100
0010
0001
0100
0001
0100
0010
0001
,  // measure 39
1000
0001
0100
0010
0001
0100
0010
0001
,  // measure 40
1000
0000
0000
0000
0100
0000
0001
1000
0000
0100
0001
0000
0010
0000
0100
0000
,  // measure 41
0001
0000
1000
0100
0000
0001
0010
0000
0100
0000
0001
0000
1000
0000
0100
0000
,  // measure 42
0010
0000
0000
0000
0100
0000
0001
0010
0000
0100
0001
0000
1000
0000
0100
0000
,  // measure 43
0001
0000
0010
0100
0000
0001
1000
0000
0100
0000
0010
0000
0001
0000
0100
0000
,  // measure 44
1000
0000
0000
0000
0100
0000
0001
1000
0000
0100
0001
0000
0010
0000
0100
0000
,  // measure 45
0001
0000
1000
0001
0000
0100
0010
0000
0001
0000
0100
0000
1000
0000
0100
0000
,  // measure 46
0001
0000
0010
0000
0100
0000
0001
1000
0000
0100
0001
0000
1000
0000
0100
0000
,  // measure 47
0001
0000
0010
0100
0000
0001
1000
0000
0100
0000
0001
0000
0100
0000
0001
0000
,  // measure 48
0220
0000
0000
0000
,  // measure 49
0000
0000
0000
0000
0000
0000
0000
0000
0330
0000
0100
1000
0001
0000
0100
0000
,  // measure 50
0000
0000
1000
0000
0000
0001
0100
1000
,  // measure 51
0000
1000
0000
0001
0000
0100
0000
0010
,  // measure 52
0000
0010
0100
0000
0001
0001
0100
1000
,  // measure 53
0001
0100
0001
0100
1000
0000
0000
0000
,  // measure 54
0010
0100
0000
0000
0100
0000
0000
0000
0010
0000
0001
0000
0100
0000
1000
0000
,  // measure 55
0000
0001
0100
1000
0000
0001
1000
0100
,  // measure 56
0001
1000
0001
0100
0010
0001
1000
0001
,  // measure 57
0100
0010
0001
0100
0001
0100
0001
0100
,  // measure 58
1000
0000
0001
0000
0100
0000
0010
0000
0001
0000
1000
0010
0001
0010
0100
0000
,  // measure 59
0010
0000
0001
0000
1000
0000
0001
0000
0100
0000
0010
0100
0001
0010
1000
0000
,  // measure 60
0100
0000
1000
0000
0001
0000
0100
0000
0010
0000
0001
0100
0001
0100
1000
0000
,  // measure 61
0001
0000
0100
0000
0010
0000
0001
0000
1000
0000
0100
0001
0100
0001
0010
0000
,  // measure 62
0100
0000
1000
0000
0001
0000
0100
0000
0010
0000
0001
0100
0001
0100
1000
0000
,  // measure 63
0100
0000
0001
0000
0100
0000
0010
0000
1000
0000
0100
0001
0100
0001
1000
0000
,  // measure 64
0010
0000
1000
0000
0001
0000
0100
0000
0010
0000
0001
0100
0001
0100
1000
0000
,  // measure 65
0010
0000
0010
0001
0100
0001
1000
0000
0000
0000
0001
0000
0100
0000
0001
0000
,  // measure 66
0000
0010
0001
0100
,  // measure 67
0010
0000
1000
0001
0100
0010
0001
1000
,  // measure 68
0001
0100
1000
0000
0000
0000
0000
0000
,  // measure 69
0001
0100
0000
0000
,  // measure 70
0000
0000
0100
0010
,  // measure 71
0001
0000
0100
0001
0100
0010
0001
1000
,  // measure 72
0001
0100
1000
0000
0000
0000
0000
0100
,  // measure 73
0001
0100
0010
0000
0100
0000
0010
0001
,  // measure 74
0010
0001
0100
1000
0000
0010
0000
0001
,  // measure 75
0100
0001
0100
1000
0000
0010
0000
0001
,  // measure 76
0100
0001
0100
1000
0000
0100
0000
0001
,  // measure 77
1000
0100
0001
0010
0000
0001
0000
0000
,  // measure 78
1000
0001
0100
0010
0100
0000
0001
0000
,  // measure 79
0001
0100
0001
0100
1000
0000
0010
0000
,  // measure 80
0100
0001
0100
1000
0000
0100
0000
0010
,  // measure 81
0001
0100
1000
0000
0001
0100
0001
0100
,  // measure 82
1000
0000
0000
0000
0000
0100
0001
1000
,  // measure 83
0001
0000
0000
0000
0000
0010
0001
0100
,  // measure 84
1000
0000
0010
0000
0001
0100
0001
0100
,  // measure 85
1000
0000
0000
0000
0000
0100
0001
0100
,  // measure 86
1000
0000
0000
0000
0000
0010
0001
0100
,  // measure 87
1000
0000
0000
0000
0000
0000
0000
0001
,  // measure 88
1000
0001
0100
0010
0001
1000
0001
0100
,  // measure 89
1000
0000
0000
0000
0000
0100
0001
1000
,  // measure 90
0001
0000
0000
0000
0010
0000
0100
0001
0000
1000
0100
0000
0001
0000
0010
0000
,  // measure 91
0100
0000
0001
1000
0000
0100
0001
0000
0010
0000
0100
0000
0001
0000
1000
0000
,  // measure 92
0001
0000
0000
0000
1000
0000
0100
0001
0000
0010
0100
0000
0001
0000
1000
0000
,  // measure 93
0100
0000
0001
0010
0000
0100
0001
0000
1000
0000
0100
0000
0001
0000
0010
0000
,  // measure 94
0100
0000
0000
0000
0001
0000
1000
0100
0000
0001
0010
0000
0100
0000
0001
0000
,  // measure 95
1000
0000
0100
0001
0000
0010
0100
0000
0001
0000
1000
0000
0100
0000
0001
0000
,  // measure 96
0010
0000
0000
0000
0001
0000
1000
0100
0000
0010
0001
0000
0100
0000
0001
0000
,  // measure 97
1000
0000
0001
0010
0000
0100
0001
0000
1000
0000
0100
0000
0001
0000
0010
0000
,  // measure 98
0100
0000
0000
0000
;
