#TITLE:nasty dancer;
#SUBTITLE:;
#ARTIST:Unknown artist;
#TITLETRANSLIT:;
#SUBTITLETRANSLIT:;
#ARTISTTRANSLIT:;
#GENRE:;
#CREDIT:;
#BANNER:;
#BACKGROUND:;
#LYRICSPATH:;
#CDTITLE:;
#MUSIC:Nasty Dancer.mp3;
#OFFSET:0.000000;
#SAMPLESTART:100.059883;
#SAMPLELENGTH:12.000000;
#SELECTABLE:YES;
#BPMS:0.000000=136.500000
,188.000000=135.500000
,248.000000=136.500000
,408.000000=135.500000
,484.000000=136.500000
;
#STOPS:0.000000=0.600000
;
#BGCHANGES:;
#KEYSOUNDS:;
#ATTACKS:;

//---------------dance-single - ----------------
#NOTES:
     dance-single:
     :
     Hard:
     13:
     0.532171,0.715809,0.000000,0.027191,0.337948,959.000000,959.000000,0.000000,7.000000,0.000000,0.000000,0.532171,0.715809,0.000000,0.027191,0.337948,959.000000,959.000000,0.000000,7.000000,0.000000,0.000000:
// measure 0
0000
0000
0000
0000
,  // measure 1
0000
0000
0000
0000
,  // measure 2
0000
0000
0000
0000
,  // measure 3
0000
0000
0000
0000
,  // measure 4
0100
0010
0001
0100
0001
0100
0010
0001
,  // measure 5
1000
0001
0100
0010
0001
1000
0001
0100
,  // measure 6
0010
0001
1000
0001
0100
0010
0001
0100
,  // measure 7
1000
0000
0100
0001
0001
0000
0010
0000
0100
0001
0000
0100
0001
0000
1000
0000
,  // measure 8
0001
0000
0000
0010
0000
0100
0000
0001
0000
0000
1000
0000
0000
0000
0100
0000
,  // measure 9
0001
0000
0000
0010
0000
0000
0100
0000
0001
0000
0000
1000
0000
0000
0000
0000
,  // measure 10
0010
0000
0000
0100
0000
0000
0001
0000
0000
1000
0000
0000
0100
0000
0001
0000
,  // measure 11
0010
0001
0100
0010
0001
0100
1000
0100
,  // measure 12
0000
0000
0001
0000
0000
0010
0000
0001
0000
0010
0000
0000
0000
0000
0000
0000
,  // measure 13
0010
0000
0000
0001
0000
0000
0100
0000
1000
0000
0000
0001
0000
0000
0010
0000
,  // measure 14
0010
0000
0000
0001
0000
0000
0100
0000
0010
0000
0000
0001
0000
0000
1000
0000
,  // measure 15
0001
0100
0010
0001
1000
0001
0100
0010
,  // measure 16
0100
0000
0000
0001
1000
0000
0100
0000
0000
0010
0100
0001
1000
0000
0100
0000
,  // measure 17
0010
0000
0001
0000
0100
0000
0010
0000
0100
0001
1000
0000
0100
0000
0010
0000
,  // measure 18
0100
0000
0001
0000
1000
0000
0001
0000
0010
0000
0000
0100
0000
0000
0001
0010
,  // measure 19
0100
0000
0001
0000
0010
0000
0100
1000
0001
0000
0010
0000
0100
0000
0100
0000
,  // measure 20
0010
0001
0100
0010
0001
1000
0010
0000
,  // measure 21
1000
0000
0100
0000
0001
0000
0000
0100
0001
0000
1000
0000
0100
0000
0000
0001
,  // measure 22
1000
0100
0001
0000
0010
0000
0100
0001
0010
0100
0001
0000
1000
0010
0100
0000
,  // measure 23
0001
0000
0010
0000
0100
0000
0010
0001
1000
0100
0001
0010
0100
0000
0001
0000
,  // measure 24
0000
0010
0000
0100
0001
0000
1000
0000
0010
0000
0001
0000
0100
0000
0000
0001
,  // measure 25
0010
0001
0010
0000
0100
0000
0001
1000
0100
0000
0010
0100
0001
0000
0010
0000
,  // measure 26
0000
0000
0100
0000
0001
0000
1000
0000
0000
0000
0100
0000
0001
0000
0000
0100
,  // measure 27
0010
0000
0001
0000
0100
0000
0010
0000
0001
0000
1000
0000
0100
0000
0000
0001
,  // measure 28
1000
0000
0100
0000
0001
0000
0010
0100
0000
0000
0001
0000
0100
0000
1000
0000
,  // measure 29
0100
0001
1000
0100
0001
0000
0010
0000
0001
0000
0100
0000
0010
0000
1000
0100
,  // measure 30
0001
0000
0010
0100
0001
0000
1000
0000
0100
0000
0100
0000
0010
0000
0000
1000
,  // measure 31
0100
0001
0100
0010
0001
0100
1000
0000
,  // measure 32
0000
0000
0010
0000
0000
0000
0100
0000
0001
1000
0100
0000
0001
0000
1000
0100
,  // measure 33
0000
0010
0100
0000
0010
0000
0100
0001
0000
0010
0100
0001
1000
0000
0100
0000
,  // measure 34
0000
0000
0001
1000
0100
0001
0010
0100
0001
1000
0100
0001
0010
0000
0100
0000
,  // measure 35
0000
0100
0001
0010
0100
0010
0001
1000
0100
0000
0000
0010
0000
0000
0100
0000
,  // measure 36
0000
0100
1000
0000
0100
0001
0100
0001
,  // measure 37
0000
1000
0100
0000
0010
0000
0100
0001
,  // measure 38
0000
0010
0100
0001
1000
0001
0000
0000
,  // measure 39
0100
0010
0001
0100
0010
0001
1000
0100
,  // measure 40
0000
0000
0000
0010
0000
0000
0100
0000
0001
0000
0000
1000
0000
0000
0000
0000
,  // measure 41
0001
0000
0000
0100
0000
0000
1000
0000
0100
0000
0000
0010
0000
0000
0000
0000
,  // measure 42
0001
0000
0000
0100
0000
0000
0010
0000
0001
0000
0000
1000
0000
0000
0100
0000
,  // measure 43
0100
0010
0001
0100
0010
0001
0100
1000
,  // measure 44
0000
0000
0001
0000
0000
0100
0000
0000
0000
0001
0000
0010
0000
0000
0000
0000
,  // measure 45
1000
0000
0000
0001
0000
0000
0010
0000
0100
0000
0000
0001
0000
0000
1000
0000
,  // measure 46
0001
0000
0000
0100
0000
0000
0010
0000
0001
0000
0000
0100
0000
0000
1000
0000
,  // measure 47
0100
0010
0001
0100
0010
0001
0100
1000
,  // measure 48
0001
0000
0000
0010
0000
0100
0000
0001
0000
0000
0010
0000
0000
0000
0000
0000
,  // measure 49
0100
0000
0000
0001
0000
0000
1000
0000
0100
0000
0000
0001
0000
0000
0000
0000
,  // measure 50
1000
0000
0000
0001
0000
0000
0010
0000
0100
0000
0000
0001
0000
0000
1000
0000
,  // measure 51
0100
0001
0010
0100
0001
1000
0001
0010
,  // measure 52
0100
0000
0000
0001
0000
0010
0000
0000
0100
0000
0001
0000
0000
0000
0000
0000
,  // measure 53
0010
0000
0000
0100
0000
0000
0010
0000
0001
0000
0000
1000
0000
0000
0100
0000
,  // measure 54
0010
0000
0000
0001
0000
0000
0100
0000
0010
0000
0000
0001
0000
0000
0100
0000
,  // measure 55
0000
0000
0000
0000
0000
0000
0010
0000
0100
0000
0000
0000
0010
0000
0100
0001
,  // measure 56
0000
1000
0000
0100
0001
0000
0000
0010
0100
0000
0010
0001
0000
0100
0001
0000
,  // measure 57
0000
0100
0000
0001
0000
1000
0000
0100
,  // measure 58
0010
0000
0001
0000
0100
0000
0000
0001
1000
0000
0100
0000
0001
0000
0000
0000
,  // measure 59
0010
0000
0001
0000
0100
0000
0010
0000
0001
0000
0100
0000
1000
0000
0100
0001
,  // measure 60
0010
0000
0000
0100
0000
0000
0010
0100
0001
0000
0000
1000
0000
0000
0100
0000
,  // measure 61
0000
0000
0010
0000
0100
0000
0001
0000
1000
0000
0000
0000
0000
0000
0100
0001
,  // measure 62
1000
0000
0100
0000
0001
0000
0010
0001
0000
0000
0000
0000
0010
0000
0001
0000
,  // measure 63
0100
0000
0010
0000
0001
0000
0100
0000
1000
0000
0000
0000
0000
0000
0100
0001
,  // measure 64
0100
0000
0010
0100
0001
0000
0010
0100
0001
0000
1000
0100
0001
0000
0000
0000
,  // measure 65
0010
0100
0000
0001
0000
0000
0100
0001
0010
0100
0001
0000
1000
0000
0000
0000
,  // measure 66
0000
0000
0001
0000
1000
0000
0001
0000
0100
0000
0000
0010
0000
0000
0001
1000
,  // measure 67
0100
0000
0001
0000
0010
0000
0001
0000
0100
0000
1000
0000
0001
0000
0000
0010
,  // measure 68
0000
0000
0010
0000
0001
0000
0100
0000
1000
0000
0000
0000
0000
0000
1000
0001
,  // measure 69
0010
0100
0010
0001
0100
1000
0100
0000
,  // measure 70
0000
0000
0100
0001
1000
0000
0100
0001
0010
0010
0001
0100
1000
0000
0000
0000
,  // measure 71
0000
0100
0010
0000
1000
0001
0100
0010
0100
0000
0100
0000
0001
0000
0010
0000
,  // measure 72
0000
0000
1000
0100
0001
0010
1000
0100
0001
0000
0010
0000
0100
0000
0000
0000
,  // measure 73
0001
1000
0001
0100
0010
0000
0000
0100
0010
0000
0001
0000
1000
0000
0000
0000
,  // measure 74
0000
0100
0000
0001
1000
0100
0000
0010
,  // measure 75
0000
0000
1000
0100
0001
0010
0100
0001
1000
0100
0010
0000
0001
0000
0010
0000
,  // measure 76
0100
0010
0001
1000
0100
0001
0010
0100
0001
0010
1000
0000
0100
0000
0001
0000
,  // measure 77
0000
0010
0000
0100
0000
0000
0001
0000
0010
0000
0100
0001
0000
0000
0000
0000
,  // measure 78
1000
0100
0001
0010
0100
0010
0001
0100
0001
1000
0000
0100
0001
0000
0010
0001
,  // measure 79
0100
0010
0001
1000
0001
0100
0010
0001
0100
0000
0100
0000
0000
0000
0001
0000
,  // measure 80
0000
0000
0100
0000
0000
0000
0001
0000
0010
0000
0000
0000
0000
0000
1000
0001
,  // measure 81
0010
0000
0100
0000
0000
0000
0010
0000
0001
0000
0000
0000
0000
0000
0000
0100
,  // measure 82
0010
0100
0000
0001
1000
0000
0000
0100
,  // measure 83
0002
0000
0000
0000
0000
0000
0000
0000
0000
0000
0003
0000
0100
0000
0001
0010
,  // measure 84
0000
0000
0100
0000
0000
0000
0001
0000
0010
0000
0000
0000
1000
0000
0100
0001
,  // measure 85
0000
0000
0010
0000
0000
0000
0100
0000
0001
0000
0000
0000
1000
0000
0100
0001
,  // measure 86
0000
0100
0000
0100
0010
0000
0000
0010
,  // measure 87
0002
0000
0000
0000
0003
0000
0100
1000
,  // measure 88
0100
0000
0000
0001
0000
0010
0000
0000
0100
0000
0000
0001
0000
0000
0000
0000
,  // measure 89
1000
0000
0000
0001
0000
0000
0010
0000
0100
0000
0000
0001
0000
0000
0000
0000
,  // measure 90
0010
0000
0000
0001
0000
0000
0100
0000
0010
0000
0000
0001
0000
0000
1000
0000
,  // measure 91
0100
0010
0001
0100
0010
0001
0100
1000
,  // measure 92
0010
0000
0000
0100
0000
0001
0000
0010
0000
0000
0100
0000
0000
0000
0000
0000
,  // measure 93
0001
0000
0000
0100
0000
0000
1000
0000
0100
0000
0000
0010
0000
0000
0001
0000
,  // measure 94
0010
0000
0000
0100
0000
0000
0001
0000
1000
0000
0000
0100
0000
0000
0001
0000
,  // measure 95
0010
0100
0001
1000
0001
0010
0100
0001
,  // measure 96
0000
0000
0100
0000
0000
0000
0001
0000
0010
0000
0000
0000
1000
0000
0001
0100
,  // measure 97
0000
0000
0010
0000
0000
0000
0100
0000
0001
0000
0000
0000
1000
0000
0100
0001
,  // measure 98
0000
0010
0000
0100
0010
0000
0000
0001
,  // measure 99
2000
0000
0000
0000
0000
0000
0000
0000
3000
0000
0000
0000
0100
0000
0010
0001
,  // measure 100
0000
0000
0100
0000
0000
0000
0010
0000
0001
0000
0000
0000
1000
0000
0100
0001
,  // measure 101
0000
0000
0010
0000
0000
0000
0100
0000
0001
0000
0000
0000
0100
0000
0001
0010
,  // measure 102
0000
0001
0000
0100
0010
0000
0000
0100
,  // measure 103
0002
0000
0000
0000
0000
0000
0000
0003
,  // measure 104
0000
0020
0000
0000
0000
0000
0030
0000
,  // measure 105
0000
0010
0000
0100
0002
0000
0000
0003
,  // measure 106
0000
0100
0000
0001
2000
0000
0000
0000
,  // measure 107
0000
3000
0010
0000
1000
0100
0001
0000
,  // measure 108
0001
0100
0010
0001
1000
0001
0100
0000
,  // measure 109
0010
0001
0100
0010
0001
0100
1000
0000
,  // measure 110
0010
0001
0100
0010
0001
0100
1000
0000
,  // measure 111
0010
0001
0100
0010
0001
0100
1000
0000
,  // measure 112
0010
0001
0100
0010
0001
0100
1000
0000
,  // measure 113
0010
0001
0100
0010
0001
0100
1000
0000
,  // measure 114
0010
0001
0100
0010
0001
0100
1000
0000
,  // measure 115
0010
0001
0100
0010
0001
0100
1000
0000
,  // measure 116
0100
0001
0100
0001
0001
0100
0010
0000
,  // measure 117
0010
0001
0100
0010
0001
0100
1000
0000
,  // measure 118
0001
0100
0001
0100
0010
0001
1000
0000
,  // measure 119
0010
0001
0100
0010
0001
0100
1000
0000
,  // measure 120
0010
0001
0100
0010
0001
0100
1000
0000
,  // measure 121
0001
1000
0001
0100
0010
0001
0100
0000
,  // measure 122
0100
0010
0001
0100
0010
0001
0100
0000
,  // measure 123
0001
0100
0010
0001
0100
0001
0100
0000
,  // measure 124
0010
0001
0100
0010
0001
1000
0100
0100
,  // measure 125
0010
0001
0100
0010
0001
1000
0100
0100
,  // measure 126
0010
0001
0100
0010
0001
1000
0100
0000
,  // measure 127
0001
0100
0001
0100
0010
0001
1000
0000
,  // measure 128
0010
0001
0100
0010
0001
1000
0100
0000
,  // measure 129
0010
0001
0100
0010
0001
1000
0100
0000
,  // measure 130
0010
0001
0100
0010
0001
1000
0100
0000
,  // measure 131
0001
0100
0010
0001
1000
0001
0100
0000
,  // measure 132
0010
0001
0100
0010
0001
1000
0100
0000
,  // measure 133
0010
0001
0100
0010
0001
0100
1000
0000
,  // measure 134
0100
0010
0001
1000
0001
0100
0010
0000
,  // measure 135
0001
0100
0010
0001
1000
0001
0100
0100
,  // measure 136
0010
0001
0100
0010
0001
0100
1000
0000
,  // measure 137
0100
0001
1000
0001
0010
0100
0001
0000
,  // measure 138
0010
0001
0100
0010
0001
1000
0100
0000
,  // measure 139
0010
0001
1000
0001
0100
0010
0001
0100
,  // measure 140
1000
0001
0100
0010
0001
1000
0100
0000
,  // measure 141
0010
0001
0100
0010
0001
1000
0100
0000
;
