#VERSION:0.83;
#TITLE:napelon;
#SUBTITLE:;
#ARTIST:$ucisideboy$;
#TITLETRANSLIT:;
#SUBTITLETRANSLIT:;
#ARTISTTRANSLIT:;
#GENRE:;
#ORIGIN:;
#CREDIT:;
#BANNER:;
#BACKGROUND:;
#PREVIEWVID:;
#JACKET:;
#CDIMAGE:;
#DISCIMAGE:;
#LYRICSPATH:;
#CDTITLE:;
#MUSIC:$UICIDEBOY$ - Napoleon (Lyric Video) [TubeRipper.cc].ogg;
#OFFSET:0.000000;
#SAMPLESTART:100.059883;
#SAMPLELENGTH:12.000000;
#SELECTABLE:YES;
#BPMS:0.000=98.000;
#STOPS:0.000=2.200;
#DELAYS:;
#WARPS:;
#TIMESIGNATURES:0.000=4=4;
#TICKCOUNTS:0.000=4;
#COMBOS:0.000=1;
#SPEEDS:0.000=1.000=0.000=0;
#SCROLLS:0.000=1.000;
#FAKES:;
#LABELS:0.000=Song Start;
#BGCHANGES:;
#KEYSOUNDS:;
#ATTACKS:
;

//---------------dance-single - ----------------
#NOTEDATA:;
#CHARTNAME:;
#STEPSTYPE:dance-single;
#DESCRIPTION:;
#CHARTSTYLE:;
#DIFFICULTY:Hard;
#METER:14;
#RADARVALUES:0.609557,0.620958,0.000000,0.025436,0.782159,671.000000,671.000000,0.000000,4.000000,0.000000,0.000000,0.000000,0.000000,0.000000,0.609557,0.620958,0.000000,0.025436,0.782159,671.000000,671.000000,0.000000,4.000000,0.000000,0.000000,0.000000,0.000000,0.000000;
#CREDIT:;
#NOTES:
// measure 0
0000
0000
0000
0000
,  // measure 1
1000
0000
0100
0010
0001
0100
0001
0000
0000
1000
0000
0100
0001
0000
0010
0000
,  // measure 2
1000
0000
0100
0001
0010
0100
0001
0000
0000
0100
0000
0001
0010
0000
0100
0000
,  // measure 3
0001
0000
0100
0010
0001
0100
1000
0000
0000
0010
0000
0100
0001
0000
1000
0000
,  // measure 4
0100
0000
0001
0010
0100
0000
0001
0000
0000
0100
0001
0010
0100
0000
0000
0001
,  // measure 5
0010
0000
0000
0000
0010
0000
0000
1000
,  // measure 6
0100
0000
0010
0000
,  // measure 7
0100
0000
0010
0100
0001
0000
1000
0100
0001
0000
0000
0000
0000
0000
0010
0000
,  // measure 8
1000
0000
0100
0000
0000
0000
0000
0000
0100
0010
0100
0010
0100
0010
0100
0010
,  // measure 9
0100
0010
0001
0100
0001
1000
0001
0010
0100
0001
0010
0100
1000
0010
0100
0000
,  // measure 10
0001
0000
0100
0000
1000
0000
0001
0000
0100
0000
0010
0000
0100
0000
0010
0100
,  // measure 11
0001
0000
0100
0000
0010
0000
1000
0000
0001
0000
0100
0000
0010
0000
0100
0001
,  // measure 12
1000
0000
0010
0001
0100
0000
0001
0000
0100
0001
0010
0001
0001
0000
0100
0000
,  // measure 13
1000
0000
0010
0000
0100
0001
0010
0100
0001
1000
0100
0000
0010
0000
0000
0000
,  // measure 14
0100
0010
0100
0001
1000
0001
0010
0000
0100
0010
0100
0000
0001
0000
0000
0000
,  // measure 15
1000
0100
0001
0000
0010
0000
0100
0000
0001
0000
0001
0000
1000
0000
0001
0000
,  // measure 16
0100
0000
0010
0000
1000
0100
0001
0000
0010
0000
0001
0000
1000
0000
0100
0010
,  // measure 17
0001
0100
0010
1000
0000
0001
0000
0010
0100
0010
0001
0100
1000
0000
0100
0000
,  // measure 18
0010
0001
0100
1000
0000
0001
0000
0010
0100
0001
1000
0001
0010
0000
0100
0000
,  // measure 19
0100
0001
1000
0001
0100
0010
0100
1000
0001
0100
0010
0100
0010
0001
0100
0001
,  // measure 20
0100
0010
0001
1000
0001
0100
0010
0001
1000
0001
0100
0010
1000
0000
0001
0000
,  // measure 21
0010
0001
0100
0000
0010
0100
0001
0000
1000
0000
0100
0000
0001
0010
0100
0001
,  // measure 22
1000
0000
0010
0100
0001
0010
0100
0000
0001
0000
0010
0000
1000
0000
0100
0001
,  // measure 23
0010
0100
0001
1000
0001
0100
0010
0001
0100
0000
0010
0100
0001
0000
1000
0000
,  // measure 24
0100
0010
0100
0001
1000
0001
0010
0000
0100
0000
0010
0000
0001
0010
0100
0001
,  // measure 25
1000
0000
0100
0000
0010
0000
0001
0000
1000
0100
0000
0000
0010
0100
0001
1000
,  // measure 26
0001
0010
0100
0000
0001
0000
0100
0000
0010
0001
0000
0000
1000
0100
0001
0010
,  // measure 27
0100
0000
0010
0100
0001
0000
1000
0000
0100
0010
0100
0001
1000
0000
0010
0000
,  // measure 28
0100
0000
0010
0000
0100
0000
0001
0000
1000
0100
0001
0100
0001
1000
0001
0010
,  // measure 29
0100
0000
0000
0000
0100
0010
0000
0000
,  // measure 30
1000
0000
0100
0001
0010
0000
0000
0000
0010
0000
0010
0100
0001
0000
0000
0000
,  // measure 31
1000
0000
0000
0000
0000
0000
0010
0000
0100
0000
0010
0100
0001
0000
0000
0000
,  // measure 32
0010
0000
1000
0100
0001
0000
0000
0000
0100
0010
0001
0100
1000
0000
0000
0000
,  // measure 33
0100
0000
0010
0001
0100
0010
0001
0100
1000
0010
0100
0000
0001
1000
0001
1000
,  // measure 34
1000
0010
0100
0001
1000
0010
0000
0100
0001
0000
0010
0100
0001
0000
0000
0000
,  // measure 35
0001
0000
0100
0000
1000
0100
0010
0001
0100
0010
0000
0100
0001
0000
0000
0000
,  // measure 36
0100
0010
0001
0100
1000
0000
0100
0010
0100
0001
0000
0010
0100
0000
0000
0001
,  // measure 37
0100
0010
0001
0100
1000
0010
0100
0001
1000
0100
0000
0010
0100
0000
0001
0100
,  // measure 38
0010
0001
1000
0001
0100
0010
0100
0001
0010
0001
0000
0100
1000
0000
0000
0010
,  // measure 39
0100
0001
1000
0000
0100
0000
0010
0001
1000
0100
0000
0100
0010
0000
0100
0000
,  // measure 40
1000
0010
0001
0100
0001
0100
0010
0001
1000
0100
0100
0010
0001
0000
0100
1000
,  // measure 41
0100
0001
0010
0000
0001
1000
0001
0100
0010
0001
0010
0100
1000
0000
0000
0000
,  // measure 42
0100
0000
0000
0000
0010
0000
0001
0100
1000
0010
0001
0100
1000
0010
0001
0100
,  // measure 43
1000
0001
0100
0000
0000
0010
0001
0100
0001
0100
0010
0001
1000
0001
0100
0010
,  // measure 44
0001
0100
1000
0001
0000
0000
0010
0100
0001
0000
1000
0100
0001
0100
0010
0100
,  // measure 45
0001
0100
0010
0001
1000
0001
0100
0010
0001
1000
0001
0100
0010
0001
0100
1000
,  // measure 46
0010
0000
0100
0001
0000
0000
0010
0000
0001
0000
0100
0000
1000
0000
0100
0001
,  // measure 47
0010
1000
0000
0100
0001
0000
0010
0000
0100
0000
1000
0000
0001
0100
0010
0100
,  // measure 48
0010
0100
0000
0001
1000
0000
0100
0000
0010
0100
0001
1000
0100
0000
0010
0001
,  // measure 49
0100
0010
0001
0100
1000
0000
0001
0100
0010
0001
1000
0001
0100
0010
0001
0100
,  // measure 50
1000
0000
0100
0000
0001
0010
0100
0001
1000
0100
0010
0001
0100
0010
0001
0100
,  // measure 51
1000
0000
0000
0000
0100
1000
0001
0010
0100
0001
1000
0001
0010
0000
0000
0000
,  // measure 52
0000
0000
0010
0001
0100
0000
0010
0001
0100
0010
0001
0100
1000
0000
0100
0000
,  // measure 53
0001
0100
0010
0001
1000
0000
0010
0001
0100
0010
0001
0100
1000
0001
0200
0000
,  // measure 54
0000
0000
0300
0000
0000
0100
0010
0000
0100
0001
0100
0010
0001
1000
0001
0100
,  // measure 55
0010
0000
0100
0001
0010
0000
0100
0001
1000
0000
0010
0100
0001
0000
0001
0100
,  // measure 56
1000
0000
0010
0001
0100
0000
0010
0001
0100
0000
1000
0001
0100
0000
0001
0100
,  // measure 57
0010
0000
0001
0100
1000
0000
0001
0100
0010
0000
0100
0010
0001
0000
1000
0001
,  // measure 58
0100
0000
0010
0001
0100
0000
1000
0001
0100
0000
0010
0001
0100
0000
0100
0000
,  // measure 59
1000
0100
1000
0000
0001
0100
0002
0003
,  // measure 60
0010
0000
0100
0010
0001
0000
1000
0100
0001
0000
0010
0000
0100
0000
0000
0000
,  // measure 61
1000
0001
1000
0000
0001
0010
0002
0003
,  // measure 62
0010
0000
0100
0001
1000
0000
0100
0001
0010
0000
1000
0000
0200
0000
0000
0000
,  // measure 63
0310
0000
0000
0000
;
