#VERSION:0.83;
#TITLE:nsfw;
#SUBTITLE:;
#ARTIST:BBNO$;
#TITLETRANSLIT:;
#SUBTITLETRANSLIT:;
#ARTISTTRANSLIT:;
#GENRE:;
#ORIGIN:;
#CREDIT:;
#BANNER:;
#BACKGROUND:;
#PREVIEWVID:;
#JACKET:;
#CDIMAGE:;
#DISCIMAGE:;
#LYRICSPATH:;
#CDTITLE:;
#MUSIC:bbno$ - NSFW.ogg;
#OFFSET:0.000000;
#SAMPLESTART:100.059883;
#SAMPLELENGTH:12.000000;
#SELECTABLE:YES;
#BPMS:0.000=134.000;
#STOPS:0.000=0.450;
#DELAYS:;
#WARPS:;
#TIMESIGNATURES:0.000=4=4;
#TICKCOUNTS:0.000=4;
#COMBOS:0.000=1;
#SPEEDS:0.000=1.000=0.000=0;
#SCROLLS:0.000=1.000;
#FAKES:;
#LABELS:0.000=Song Start;
#BGCHANGES:;
#KEYSOUNDS:;
#ATTACKS:
;

//---------------dance-single - ----------------
#NOTEDATA:;
#CHARTNAME:;
#STEPSTYPE:dance-single;
#DESCRIPTION:;
#CHARTSTYLE:;
#DIFFICULTY:Hard;
#METER:12;
#RADARVALUES:0.625462,0.691074,0.746214,0.066037,0.148583,663.000000,550.000000,113.000000,10.000000,0.000000,0.000000,0.000000,0.000000,0.000000,0.625462,0.691074,0.746214,0.066037,0.148583,663.000000,550.000000,113.000000,10.000000,0.000000,0.000000,0.000000,0.000000,0.000000;
#CREDIT:;
#NOTES:
// measure 0
0000
0000
0000
0000
,  // measure 1
0000
0000
0000
0000
,  // measure 2
0100
0110
0010
0110
,  // measure 3
0001
0100
0010
0001
1000
0001
0100
0010
,  // measure 4
1001
0000
0100
0001
0101
0000
0010
0100
,  // measure 5
0001
0100
0100
0001
0110
0000
0001
0100
,  // measure 6
1000
0100
0001
0100
1000
0001
1000
0001
,  // measure 7
0100
0000
0010
0000
1000
0001
1000
0000
0110
0000
0000
0000
0010
0000
0110
0000
,  // measure 8
0110
0000
0001
0000
0100
0000
0010
0000
1001
0000
0000
0010
0100
0001
1000
0000
,  // measure 9
0001
0000
0100
0000
0010
0000
0001
0000
0100
0000
0000
0001
0010
0000
0010
0000
,  // measure 10
0001
0100
0001
0100
1001
0000
0010
0001
,  // measure 11
1000
0000
0001
0000
0100
0000
0010
0000
1001
0000
0000
0001
1000
0001
1000
0001
,  // measure 12
1000
0000
0100
0000
0000
0000
0000
0000
0110
0000
0000
0000
1000
0001
1000
0001
,  // measure 13
1000
0000
0010
0000
0000
0000
0000
0000
1001
0000
0000
0000
0100
0001
0100
0000
,  // measure 14
0001
0010
0100
1000
1001
0000
0001
0100
,  // measure 15
1000
0000
0001
0000
0100
0000
0010
0000
1001
0000
0000
0000
1000
0001
1000
0001
,  // measure 16
0010
0100
0001
0000
0100
0000
0010
0000
1001
0000
0001
0000
0010
0000
0100
0001
,  // measure 17
1000
0000
0100
0000
0001
0000
1000
0000
0011
0000
1000
0100
0001
0100
0001
1000
,  // measure 18
0001
0100
0110
0110
0220
0000
0000
0000
,  // measure 19
0330
0100
0010
0001
1000
0001
0100
0010
,  // measure 20
1001
0110
1001
0101
,  // measure 21
0110
1100
0110
0101
,  // measure 22
0110
1001
0101
0110
,  // measure 23
0000
1000
0100
0001
0100
0001
1000
0001
,  // measure 24
0110
0000
0110
0000
1000
0001
1001
0000
,  // measure 25
0100
0001
0101
0000
0010
0100
0110
0000
,  // measure 26
0001
0100
1001
0000
0100
0010
1001
0000
,  // measure 27
0000
0001
0100
0010
1000
0001
0220
0330
,  // measure 28
0010
0000
0100
0001
1000
0000
0100
0001
0010
0000
1000
0100
0001
0000
0010
0000
,  // measure 29
0110
0000
0100
0010
0100
0010
0100
0010
,  // measure 30
0100
0001
0100
0010
0001
0000
0100
0000
0011
0000
0000
0000
1000
0100
0001
1000
,  // measure 31
0100
0000
0001
0010
0001
0010
0001
0010
,  // measure 32
0001
1000
0010
0000
0001
0010
0100
0000
1000
0000
0000
0100
0001
1000
0100
0000
,  // measure 33
0011
0100
0010
0100
0001
0100
1000
0100
,  // measure 34
0001
0000
0100
0000
0010
0000
0100
0000
1001
0000
0100
0001
0001
0000
1000
0000
,  // measure 35
0100
0001
0100
0010
0100
0001
1000
0001
,  // measure 36
0010
0000
0001
0000
1000
0000
0001
0000
0100
0000
0010
0000
1000
0001
1000
0000
,  // measure 37
1000
0001
0100
0010
1000
1001
1001
0000
,  // measure 38
0001
0000
0100
0000
0001
0000
0100
0000
1000
0000
0100
0000
0001
0010
0100
0000
,  // measure 39
0100
0000
0010
0000
1000
0100
0001
0000
0001
0000
1001
0000
1001
0000
0000
0000
,  // measure 40
0010
0000
0001
0000
0100
0000
0001
0000
0100
0000
1000
0000
0001
0010
0100
0000
,  // measure 41
0100
0000
0010
0000
0001
0100
1000
0000
0001
0000
0011
0000
0011
0000
0000
0000
,  // measure 42
1000
0001
1000
0000
0100
0000
0001
0000
0010
0000
0001
0000
1000
0000
0001
0000
,  // measure 43
0100
0000
0010
0000
0001
0100
0001
0100
1000
0000
1001
0000
0010
0100
0001
1000
,  // measure 44
0001
0000
0010
0000
0000
0000
0000
0000
1001
0000
0000
0000
0001
0100
0001
0100
,  // measure 45
1000
0000
0001
0000
0000
0000
0000
0000
1001
0000
0000
0000
0100
0010
0100
0010
,  // measure 46
0100
0001
1000
0100
1001
0000
0000
0000
,  // measure 47
0100
0010
0001
0100
0001
0100
1000
1000
,  // measure 48
1001
0110
1001
0110
,  // measure 49
0110
0101
1100
0110
,  // measure 50
0110
0101
0110
1100
,  // measure 51
0010
0100
0001
1000
0001
0010
0100
0001
,  // measure 52
1001
0000
0110
0000
1000
0001
1001
0000
,  // measure 53
0010
0100
0110
0000
0010
0100
0110
0000
,  // measure 54
0001
1000
0110
0000
0100
0001
0101
0000
,  // measure 55
0001
0100
0010
0001
0100
0010
2002
3003
,  // measure 56
0001
1000
0001
0100
0010
0001
1000
0001
,  // measure 57
0100
0000
0010
0000
0001
0000
0100
0001
1000
0000
0010
0100
0001
0000
0100
0000
,  // measure 58
0010
0001
1000
0001
0100
0010
0001
1000
,  // measure 59
0001
0100
0010
0001
1000
0001
0100
0010
,  // measure 60
0001
1000
0001
0100
0001
0100
0001
0100
,  // measure 61
0010
0001
1000
0001
0100
0010
0001
1000
,  // measure 62
0001
0100
0010
0001
1000
0001
0100
0010
,  // measure 63
1000
0100
0001
0100
0001
1000
0001
0010
,  // measure 64
0101
0101
0110
1001
,  // measure 65
0110
1001
0110
0101
,  // measure 66
0110
1100
0110
0101
,  // measure 67
0100
0001
0100
0001
1000
0001
0010
0100
,  // measure 68
0110
0101
0110
1001
,  // measure 69
0110
1100
0101
0101
,  // measure 70
0101
0101
0110
1001
,  // measure 71
0001
0100
0010
0001
1000
0001
0100
0010
,  // measure 72
2002
3003
0101
0000
1000
0001
1001
0000
,  // measure 73
0010
0100
0110
0000
0100
0010
1001
0000
,  // measure 74
0010
0100
0101
0000
0001
1000
1001
0000
,  // measure 75
0010
0001
0100
0001
0100
0001
0100
1000
,  // measure 76
0101
0000
0110
0000
1000
0001
1001
0000
,  // measure 77
0100
0001
0101
0000
1000
0001
1001
0000
,  // measure 78
0001
0100
0101
0000
0001
1000
1001
0000
,  // measure 79
0100
0001
1000
0001
0100
0001
0100
1000
,  // measure 80
2002
0000
3003
0000
;
