#TITLE:move me;
#SUBTITLE:;
#ARTIST:Unknown artist;
#TITLETRANSLIT:;
#SUBTITLETRANSLIT:;
#ARTISTTRANSLIT:;
#GENRE:;
#CREDIT:;
#BANNER:;
#BACKGROUND:;
#LYRICSPATH:;
#CDTITLE:;
#MUSIC:half alive - Move Me (Lyrics).mp3;
#OFFSET:0.000000;
#SAMPLESTART:100.059883;
#SAMPLELENGTH:12.000000;
#SELECTABLE:YES;
#BPMS:0.000000=155.000000
,394.000000=77.500000
,424.000000=155.000000
,492.000000=77.500000
;
#STOPS:0.000000=0.500000
;
#BGCHANGES:;
#KEYSOUNDS:;
#ATTACKS:;

//---------------dance-single - ----------------
#NOTES:
     dance-single:
     :
     Hard:
     11:
     0.371177,0.615107,0.027690,0.124605,0.106145,563.000000,557.000000,6.000000,27.000000,0.000000,0.000000,0.371177,0.615107,0.027690,0.124605,0.106145,563.000000,557.000000,6.000000,27.000000,0.000000,0.000000:
// measure 0
0000
0000
0000
0000
,  // measure 1
0000
0000
0000
0000
,  // measure 2
0000
0000
0000
0000
,  // measure 3
0000
0000
0000
0000
,  // measure 4
0000
0000
0000
0000
,  // measure 5
0000
0000
0000
0000
,  // measure 6
0000
0000
0000
0000
0000
0001
0010
0100
,  // measure 7
0001
0000
0010
0000
0100
0000
0001
0100
,  // measure 8
0000
0010
0000
0100
0000
0001
0010
0000
,  // measure 9
0010
0000
0001
0000
1000
0100
0001
0100
,  // measure 10
0000
0001
0100
1000
0200
0000
0000
0000
,  // measure 11
0000
0000
0000
0020
0000
0330
0000
0010
,  // measure 12
0001
0100
0001
0000
0010
0000
0001
0000
,  // measure 13
1000
0100
0000
0100
0000
0010
0001
0100
,  // measure 14
1000
0000
0010
0000
0001
0000
0100
1000
,  // measure 15
0000
0100
0000
0010
0001
0100
1000
0000
,  // measure 16
0010
0000
0001
0000
0100
1000
0000
0100
,  // measure 17
0000
0010
0001
0100
2000
0000
0000
0000
,  // measure 18
0000
0000
0000
0200
0000
0000
0000
3300
,  // measure 19
0100
0010
0001
0000
0100
0000
0010
0000
,  // measure 20
0100
1000
0000
0100
0000
0010
0001
0100
,  // measure 21
1000
0000
0010
0000
0001
0000
0100
1000
,  // measure 22
0000
0010
0000
0001
0000
0001
0100
0000
,  // measure 23
0001
0000
0100
0000
0010
0100
0000
0100
,  // measure 24
0000
1000
0000
0001
0010
0000
0100
0000
,  // measure 25
0010
0000
0100
0001
0000
0010
0000
0001
,  // measure 26
0000
0100
0010
0000
0001
0000
0100
0000
,  // measure 27
0010
0000
0001
0000
0000
0000
0100
0000
0001
0000
0010
0000
1000
0001
1000
0000
,  // measure 28
0010
0000
0100
0000
0010
0000
1000
0001
,  // measure 29
0000
0100
0000
0001
0000
0010
0100
0000
,  // measure 30
0001
0000
1000
0000
0100
0001
0000
0010
,  // measure 31
0000
0100
0000
0001
0010
0000
0100
0000
,  // measure 32
0010
0000
0001
1000
0000
0100
0000
0001
,  // measure 33
0000
0010
0100
0000
0001
0000
1000
0000
,  // measure 34
0100
0000
0001
0010
0000
0100
0000
0001
,  // measure 35
2000
0000
0000
0000
,  // measure 36
0000
0000
0200
0000
,  // measure 37
0000
0000
0000
3300
,  // measure 38
0010
0001
0000
1000
0000
0100
0000
0000
,  // measure 39
0002
0000
0000
0000
,  // measure 40
0000
0000
0000
0000
0000
0000
0000
2000
,  // measure 41
0000
0000
0000
3003
,  // measure 42
0100
0001
0000
0010
0000
0100
0000
0010
,  // measure 43
0002
0000
0000
1000
0000
0000
0100
0000
,  // measure 44
0010
0000
0000
1000
0000
0000
0203
0000
,  // measure 45
0001
0000
0000
0001
0000
0000
0301
0000
,  // measure 46
0010
0100
0000
0001
0000
1000
0000
0200
,  // measure 47
0000
0000
0000
0000
,  // measure 48
0000
0000
0000
0310
,  // measure 49
0000
0000
0000
0000
0000
0000
0001
0100
,  // measure 50
0010
0100
0101
0000
0100
0110
0000
0000
,  // measure 51
0001
0000
0100
0000
0010
0000
0001
0010
,  // measure 52
0000
0010
0000
0001
0000
1000
0100
0000
,  // measure 53
0100
0000
0010
0000
0100
0001
0000
0100
,  // measure 54
0000
0010
0001
0100
1000
0000
0010
0000
,  // measure 55
0001
0000
0100
1000
0000
0100
0000
0010
,  // measure 56
0100
0001
0010
0000
0010
0000
0001
0000
,  // measure 57
0100
1000
0000
0010
0000
0001
0100
1000
,  // measure 58
0100
0000
0010
0000
1000
0100
0000
0001
,  // measure 59
0000
0100
0000
0010
0001
0100
1000
0000
,  // measure 60
0010
0000
0001
0000
0100
1000
0000
0100
,  // measure 61
0000
0001
0100
0010
0001
0000
0010
0000
,  // measure 62
0001
0000
0100
1000
0000
0100
0000
0010
,  // measure 63
0001
0100
1000
0000
0010
0000
0001
0000
,  // measure 64
1000
0100
0000
0100
0000
0010
0001
0100
,  // measure 65
2000
0000
0000
0000
0000
0020
0000
0000
,  // measure 66
0000
0000
0000
3030
1000
0100
0011
0000
,  // measure 67
0101
0000
1100
0000
0100
0001
0000
0010
,  // measure 68
0001
0100
0001
1000
0100
0000
0100
0000
,  // measure 69
1000
0000
0001
0010
0000
0100
0000
1000
,  // measure 70
0000
0100
0001
0000
0010
0000
0100
0000
,  // measure 71
1000
0100
0000
0010
0000
0100
0000
0001
,  // measure 72
0010
0000
0100
0000
1000
0000
0100
0001
,  // measure 73
0000
0001
0000
0100
0000
1000
0100
0000
,  // measure 74
0010
0000
0001
0000
0100
1000
0000
0100
,  // measure 75
0001
0000
0010
0000
1000
0001
1000
0000
0100
0000
0000
0000
0001
0000
0000
0000
,  // measure 76
0010
0000
0100
0001
0000
1000
0000
0100
,  // measure 77
0000
0100
1000
0000
0100
0000
0010
0000
,  // measure 78
0100
1000
0000
0010
0000
0001
0000
1000
,  // measure 79
0100
0000
0001
0000
0010
0000
0010
0100
,  // measure 80
0000
0100
0000
0010
0000
0100
0001
0000
,  // measure 81
0010
0000
0001
0000
1000
0100
0000
0010
,  // measure 82
0000
0001
0000
0100
2200
0000
0000
0000
,  // measure 83
0000
0000
0000
0000
,  // measure 84
0300
0020
0000
0000
0000
0000
0000
0000
,  // measure 85
0000
0000
3030
0000
0100
0001
0000
0100
,  // measure 86
0000
0001
0000
0000
0020
0000
0000
0000
,  // measure 87
0000
0000
0000
0000
,  // measure 88
0000
0200
0000
0000
,  // measure 89
0000
0000
0330
0000
1000
0100
0000
0010
,  // measure 90
0000
0100
0000
0020
0001
0000
0000
0000
,  // measure 91
0001
0000
0001
0000
,  // measure 92
0031
2000
0100
0000
,  // measure 93
3100
0000
0100
0001
0000
0010
0000
0100
,  // measure 94
0000
0010
0000
0100
0002
0000
0000
0000
,  // measure 95
0010
0000
0010
0000
,  // measure 96
0013
2000
0100
0100
,  // measure 97
0100
0100
0100
0100
,  // measure 98
0100
0000
3100
0000
0010
0001
0100
0010
,  // measure 99
1000
0100
0001
0000
0001
0100
1000
0000
0100
0000
0001
0000
0010
0000
0100
0000
,  // measure 100
0001
0100
1000
0000
0010
0001
0100
0000
0010
0000
0001
0000
0100
0000
0010
0000
,  // measure 101
0001
1000
0100
0000
0001
0100
0010
0000
0010
0000
0001
0000
1000
0000
0001
0000
,  // measure 102
0100
0000
0010
0000
0001
0000
0100
0000
0001
0000
0100
0000
0010
0000
0001
0100
,  // measure 103
0000
1000
0000
0100
0000
0000
0001
0010
0100
0000
0010
0000
0001
0000
0001
0010
,  // measure 104
0000
0100
0000
0001
0000
0000
0000
0000
1000
0000
0100
0000
0001
0000
0000
0010
,  // measure 105
0000
0100
0000
0001
0000
0000
1000
0000
0001
0000
0010
0000
0100
0000
0001
0010
,  // measure 106
1000
0100
0000
0001
0000
1000
0000
0200
,  // measure 107
0010
0000
0001
0000
0010
0000
0001
0010
,  // measure 108
0000
0001
0000
0001
0300
0000
0002
1000
,  // measure 109
0100
0010
0100
0013
,  // measure 110
0100
0001
0000
1000
0000
0100
0000
0002
,  // measure 111
0100
0000
0010
0000
0100
0000
0010
0013
,  // measure 112
0000
0100
0000
1000
0000
0000
0002
0010
,  // measure 113
0000
0100
0000
0010
0000
0100
0003
0010
,  // measure 114
1000
0001
1000
0001
1000
0001
1000
0001
1000
0001
1000
0001
1000
0001
1000
0001
,  // measure 115
1000
0100
0001
0010
,  // measure 116
0100
0001
1000
0001
,  // measure 117
1000
0001
0100
0010
,  // measure 118
0001
0100
0001
0100
,  // measure 119
0010
0001
1000
0001
,  // measure 120
0100
0000
0010
0000
0100
0001
0100
0001
,  // measure 121
1000
0001
0010
0100
0001
1000
0001
0010
,  // measure 122
0100
0010
0100
0010
0100
0010
0100
0010
0100
0000
0000
0000
0000
0000
0000
0000
,  // measure 123
1000
0000
0100
0000
0001
0000
0010
0100
0000
0001
0000
1000
0000
0000
0001
0010
,  // measure 124
1000
0000
0001
0000
0001
0000
0010
0100
0000
0001
0000
1000
0010
0000
0100
0000
,  // measure 125
0100
0000
0010
0000
0001
0000
0100
0010
0000
1000
0100
0001
0000
0000
1000
0100
,  // measure 126
0001
0000
0010
0000
0100
0000
0001
0010
0000
0100
0000
0001
1000
0200
0000
0300
;
