#TITLE:monster collecting jrpg final battle music;
#SUBTITLE:;
#ARTIST:Spellcasting;
#TITLETRANSLIT:;
#SUBTITLETRANSLIT:;
#ARTISTTRANSLIT:;
#GENRE:;
#CREDIT:;
#BANNER:;
#BACKGROUND:;
#LYRICSPATH:;
#CDTITLE:;
#MUSIC:Monster collecting jrpg final battle music.ogg;
#OFFSET:0.000000;
#SAMPLESTART:100.059883;
#SAMPLELENGTH:12.000000;
#SELECTABLE:YES;
#BPMS:0.000000=66.000000
,8.000000=156.000000
,16.000000=186.000000
,24.000000=166.000000
,120.000000=84.000000
,126.000000=83.000000
,134.000000=166.000000
,138.000000=332.000000
,193.000000=166.000000
,265.500000=20.750000
,266.000000=332.000000
,322.000000=161.000000
,334.000000=83.000000
,347.000000=664.000000
,362.000000=166.000000
;
#STOPS:0.000000=1.600000
;
#BGCHANGES:;
#KEYSOUNDS:;
#ATTACKS:;

//---------------dance-single - ----------------
#NOTES:
     dance-single:
     :
     Challenge:
     19:
     1.084879,1.697250,0.033877,0.028231,1.659985,1345.000000,1339.000000,6.000000,5.000000,0.000000,0.000000,1.084879,1.697250,0.033877,0.028231,1.659985,1345.000000,1339.000000,6.000000,5.000000,0.000000,0.000000:
// measure 0
0000
0000
0000
0000
,  // measure 1
0000
0000
0000
0000
,  // measure 2
1000
0001
0100
0010
,  // measure 3
0001
1000
0001
0100
,  // measure 4
0010
0001
1000
0001
,  // measure 5
0100
0001
0100
1000
,  // measure 6
1000
0000
0100
0000
0001
0000
0100
0000
0001
1000
0100
0001
0100
0000
0001
0000
,  // measure 7
0010
0100
0001
1000
0001
0001
1000
0001
,  // measure 8
0100
0010
0001
1000
0001
0100
0010
0001
,  // measure 9
1000
0000
0001
0000
0100
0000
0001
0000
1000
0100
0001
0100
0001
0000
0010
0000
,  // measure 10
1000
0000
0100
0001
0010
0000
0001
0100
0010
0000
0100
0001
1000
0000
0100
0001
,  // measure 11
0010
0010
0001
1000
0100
0000
0010
0000
0001
1000
0001
1000
0100
0000
0010
0000
,  // measure 12
0001
0100
0010
0001
1000
0001
0100
0010
0100
0001
0100
1000
0100
0000
0000
0000
,  // measure 13
0010
0100
0000
0001
0000
1000
0100
0001
,  // measure 14
0010
0001
0100
0010
0001
0100
0001
0100
0010
0001
1000
0001
0100
0010
0001
1000
,  // measure 15
0001
0100
0010
0001
1000
0001
0100
0010
0001
1000
0001
0100
0010
1000
0001
0100
,  // measure 16
1000
0010
0001
0100
0001
0100
0001
0100
0010
0001
1000
0001
0100
0010
0001
0100
,  // measure 17
0001
0100
0010
0001
1000
0001
0100
0010
0001
0100
0001
0100
0010
0001
1000
0001
,  // measure 18
0100
0010
0001
0100
0001
0100
0010
0001
1000
0001
0100
0010
0001
1000
0001
0100
,  // measure 19
0010
0001
1000
0001
0100
0010
0001
1000
0001
0100
0010
0001
1000
0001
0100
0010
,  // measure 20
0001
1000
0001
0100
0010
0001
1000
0001
0100
0010
0001
1000
0001
0100
0010
0001
,  // measure 21
1000
0001
0100
0010
0001
1000
0001
0100
0010
0001
1000
0001
0100
0010
0001
1000
,  // measure 22
0001
0100
0010
0001
0100
0001
0100
0010
0001
1000
0001
0100
0010
0001
1000
0001
,  // measure 23
0100
0010
0001
1000
0001
0100
0010
0001
1000
0001
0100
0010
0001
1000
0001
0100
,  // measure 24
0010
0000
0001
0000
1000
0000
0001
0000
0100
0000
0010
0000
0001
0000
1000
0000
0001
0010
0100
0001
0010
0100
0001
0010
1000
0100
0001
0010
0100
0001
0100
0010
,  // measure 25
0001
0100
0010
0001
1000
0001
0100
0010
0001
0000
1000
0000
0100
0000
0000
0000
0100
0010
0001
0010
0100
0010
1000
0010
0001
0000
0100
0000
0001
0000
0000
0000
,  // measure 26
1000
0100
0001
1000
0001
0010
0100
0001
1000
0000
0100
0010
0001
1000
0001
0100
,  // measure 27
0001
0010
0001
1000
0001
0100
0010
0001
1000
0001
0100
0010
0001
1000
0001
0100
,  // measure 28
1000
0010
0001
1000
0001
0100
0010
1000
0001
0100
0010
0001
1000
0001
0100
0010
,  // measure 29
1000
0000
0000
1001
0000
0000
0100
0001
0100
0001
0000
0000
,  // measure 30
0010
0001
1000
0001
0100
0010
0001
1000
,  // measure 31
0001
0000
0000
0100
0000
0000
0010
0000
0000
1000
0100
0000
0001
0000
0000
0001
0000
0000
0100
0000
0000
1000
0000
0000
,  // measure 32
0001
0010
0100
0001
1000
0100
0010
0001
0100
0001
0100
0010
0001
1000
0001
0100
,  // measure 33
0010
0000
0000
0001
0000
0000
1000
0000
0000
0001
0000
0000
0100
0000
0000
0010
0000
0000
0100
0000
0000
0001
0000
0000
1000
0000
0000
0000
0000
0000
0000
0000
0010
0000
0000
0000
0100
0000
0000
0000
0000
0000
0000
0000
0001
0000
0000
0000
,  // measure 34
1000
0000
0000
0000
0000
0000
0000
0000
0010
0000
0000
0000
0100
0000
0000
0001
0000
0000
1000
0000
0000
0001
0000
0000
0010
0000
0000
0001
0000
0000
0100
0000
0000
0001
0000
0000
0010
0000
0000
0100
0000
0000
0001
0000
0000
0010
0000
0000
,  // measure 35
1000
0100
0001
0010
0100
0001
0010
0100
0001
0010
1000
0100
0001
0000
0100
0010
,  // measure 36
1000
0000
0000
0000
0100
0000
0000
0000
0001
0100
0010
1000
0100
0000
0000
0000
,  // measure 37
1000
0001
0100
0010
0001
0100
0000
0010
0001
0100
1000
0010
0100
0000
0000
0000
,  // measure 38
0010
0100
0001
0010
1000
0100
0001
0010
0100
0001
0010
0100
0001
0100
1000
0100
,  // measure 39
0001
0010
0100
0010
0001
0010
0100
0010
1000
0000
0000
0000
1000
0100
0001
0010
,  // measure 40
0100
0001
0010
0100
0001
0010
1000
0100
0001
0010
1000
0001
0100
0100
0001
0010
,  // measure 41
0100
0001
0010
1000
0001
0010
1000
0100
0001
0010
0100
0001
0010
0100
0001
0010
,  // measure 42
1000
0100
0001
0010
0100
0010
0010
0001
0100
0000
0000
0000
0001
0100
1000
0010
,  // measure 43
0100
0010
0001
0010
0100
0010
0010
0001
0100
0001
0001
0010
1000
0100
0001
0010
,  // measure 44
0010
0001
0100
0010
0001
0010
0100
0010
0001
0010
0100
0001
0010
0100
0001
0010
,  // measure 45
1000
0100
0001
0010
0100
0001
0010
1000
0001
0010
1000
0100
0001
0010
0100
0001
,  // measure 46
0010
0100
0001
0010
1000
0100
0001
0010
0100
0001
0010
0100
0001
0010
1000
0100
,  // measure 47
0001
0010
0100
0001
0010
0100
0001
0010
1000
0100
0001
0010
0100
0001
0010
0001
,  // measure 48
1000
0100
0001
0010
0100
0001
0010
0001
0100
0010
0001
1000
0001
0100
0001
1000
,  // measure 49
0100
0000
0000
0000
0010
0001
0000
0010
0000
0000
0100
0000
0000
0000
0001
0000
,  // measure 50
0010
0000
0100
0000
0001
0000
0010
0100
0001
0000
1000
0100
0001
0010
0100
0001
,  // measure 51
1000
0000
0100
0001
1000
0001
0010
0100
0001
1000
0001
0010
0100
0010
0001
0100
,  // measure 52
0010
0001
1000
0001
0100
0010
0001
1000
0001
0100
0010
0001
1000
0001
0100
0010
,  // measure 53
0001
1000
0001
0100
0010
0001
1000
0001
0100
0010
0001
1000
0001
0100
0010
0100
,  // measure 54
1000
0100
0001
0100
0001
0001
0100
0010
0001
0100
0010
0001
1000
0001
0100
0010
,  // measure 55
0001
1000
0001
0100
0010
0001
1000
0001
0100
0010
0001
1000
0001
0100
0010
0001
,  // measure 56
1000
0001
0100
0010
0001
1000
0001
0100
0010
0001
1000
0001
0100
0010
0001
1000
,  // measure 57
0001
0000
0000
0100
0000
0000
0001
0000
0000
0100
0000
0000
1000
0000
0000
0000
0010
0000
0000
0000
0001
0000
0000
0000
0100
0000
0000
0000
0010
0000
0000
0000
0001
0000
0000
0000
1000
0000
0000
0000
0001
0000
0000
0000
0100
0000
0000
0000
,  // measure 58
0010
0000
0000
0000
0001
0000
0000
0000
1000
0000
0000
0000
0001
0000
0000
0000
0100
0000
0000
0000
0010
0000
0000
0000
0001
0000
0000
0000
1000
0000
0000
0000
0001
0000
0000
0000
0100
0000
0000
0000
0000
0000
0000
0000
0000
0001
0000
0000
,  // measure 59
0000
0000
0000
0010
0000
0000
0000
0000
0000
0100
0000
0000
0000
0000
0000
0000
0000
0000
0000
0000
1000
0000
0001
0000
,  // measure 60
0100
0010
0001
1000
0001
0100
1000
0100
0010
0001
1000
0001
,  // measure 61
0100
0010
0001
1000
0001
0100
1000
0000
0000
0000
0000
0100
,  // measure 62
0001
0000
0010
0100
0001
1000
0000
0000
0000
0000
0000
0000
,  // measure 63
0000
0000
0000
0000
0000
0000
0100
0000
0001
0000
1000
0000
0010
0001
0010
0001
,  // measure 64
0100
0010
0001
0001
1000
0100
0001
0100
0001
1000
0001
0010
0100
0001
1000
0001
,  // measure 65
0010
0000
0000
0000
0000
0000
0001
0100
0001
0100
0010
0001
1000
0001
0100
0010
,  // measure 66
0001
1000
0001
0100
1000
0100
0001
0000
0100
0010
0001
0100
0001
0100
0010
0001
,  // measure 67
1000
0001
0100
0010
0001
1000
0001
0100
0010
0001
1000
0001
0100
0010
0001
1000
,  // measure 68
0001
0100
0010
0001
1000
0001
0100
0010
0001
1000
0001
0100
0010
0001
1000
0001
,  // measure 69
0100
0010
0001
0100
0001
0100
0010
0001
1000
0001
0100
0010
0001
1000
0001
0100
,  // measure 70
0010
0001
1000
0001
0100
0010
0001
1000
0001
0100
0001
1000
0100
0010
0001
0100
,  // measure 71
0010
0001
1000
0001
0100
0010
0001
1000
0001
0100
0010
0001
1000
0001
0100
0010
,  // measure 72
0001
0100
0001
0100
0010
0001
0100
0001
0100
0010
0001
1000
0001
0100
0010
0001
,  // measure 73
0100
0001
0100
0010
0001
1000
0001
0100
0010
0001
1000
0001
0100
0010
0001
1000
,  // measure 74
0001
0100
0010
0001
1000
0001
0100
0010
0001
1000
0001
0100
0010
0001
0100
0001
,  // measure 75
0100
0010
0001
1000
0001
0100
0010
0001
1000
0001
0100
0010
0001
1000
0001
0100
,  // measure 76
0010
0001
1000
0001
0100
0010
0001
1000
0001
0100
0010
0001
1000
0001
0100
0010
,  // measure 77
0001
1000
0001
0100
0001
0100
0001
0100
0010
0001
1000
0001
0100
0010
0001
0100
,  // measure 78
0001
0100
0010
0001
1000
0001
0100
0010
0001
0100
0001
0100
0010
0001
1000
0001
,  // measure 79
0100
0010
0001
0100
0001
0100
0001
0100
0010
0001
1000
0001
0100
0010
0001
1000
,  // measure 80
0001
0100
0010
0001
1000
0001
0100
0001
0100
0000
0000
0000
0100
0000
0000
0000
,  // measure 81
0010
0001
0200
0000
,  // measure 82
0000
0300
0020
0000
,  // measure 83
0000
0030
2002
0000
,  // measure 84
0000
0000
0000
0000
,  // measure 85
0000
0000
0000
0000
,  // measure 86
0000
0000
0000
0000
,  // measure 87
0000
0000
0000
0000
,  // measure 88
0000
0000
0000
0000
,  // measure 89
0000
0000
0000
0000
,  // measure 90
0000
0000
0000
0000
,  // measure 91
0000
0000
0000
0000
,  // measure 92
0000
0000
0000
0000
0000
0000
3003
0000
0000
1000
0000
1000
,  // measure 93
0000
0000
0000
0000
0000
1000
0000
1000
0000
0000
0000
0000
,  // measure 94
0000
1000
0000
1000
0000
0000
0000
1000
0000
1000
0000
0000
,  // measure 95
0000
0000
1000
1000
0000
0000
1000
1000
0000
1000
1000
0000
,  // measure 96
0000
0000
0000
0000
0000
1000
1000
0000
0000
0000
1000
1000
,  // measure 97
0000
0000
1000
1000
0000
0000
1000
0000
0000
1000
0000
0000
,  // measure 98
1000
1000
1000
1000
,  // measure 99
1000
1000
1000
1000
,  // measure 100
1000
1000
1000
1000
,  // measure 101
1000
0000
1000
0000
1000
0001
0010
0000
,  // measure 102
0100
0001
0010
0000
1000
0000
0100
0000
,  // measure 103
0001
0010
0100
0000
1000
0100
0001
0100
,  // measure 104
0001
0100
1000
0010
,  // measure 105
0001
0100
1000
0000
0001
0000
0100
0000
,  // measure 106
0010
0001
0001
0000
1000
0000
0001
0010
,  // measure 107
0100
0000
0010
0000
0001
0000
1000
0100
,  // measure 108
0001
0000
0010
0000
0100
0000
0000
0000
0010
0001
0100
0001
1000
0010
0100
0001
,  // measure 109
0100
0000
0000
0000
0001
0100
0010
0001
1000
0001
0100
0010
0001
1000
0001
0100
,  // measure 110
1000
0100
0010
0001
0100
0001
0100
0010
0001
1000
0001
0100
0010
0001
1000
0001
,  // measure 111
0100
0010
0001
1000
0001
0100
0010
0001
1000
0001
0100
0010
0001
1000
0001
0100
,  // measure 112
0010
0001
1000
0001
0100
0010
0001
0100
1000
0001
0100
0010
0001
1000
0001
0100
,  // measure 113
0010
0001
1000
0001
0100
0010
0001
1000
0001
0100
0010
0001
1000
0001
0100
0010
,  // measure 114
0001
1000
0001
0100
0010
0001
1000
0001
0100
0010
0001
1000
0001
0100
0010
0001
,  // measure 115
1000
0001
0100
0010
0001
1000
0001
0100
0010
0001
1000
0001
0100
0010
0001
1000
,  // measure 116
0001
0100
1000
0001
0200
0000
0000
0000
0000
0300
0000
0000
0100
0000
0001
0000
,  // measure 117
0000
0000
0010
0000
0010
0001
0100
0000
0001
0100
0010
0000
0001
0100
1000
0000
,  // measure 118
0001
0100
0010
0000
0001
0100
0001
0000
0001
1000
0100
0000
0001
0100
0010
0000
,  // measure 119
0010
0100
0001
0000
1000
0100
0001
0000
0010
0100
0001
0000
0001
1000
0100
0000
,  // measure 120
0010
0100
0001
0000
1000
0100
0001
0000
0010
0100
0001
0000
1000
0100
0001
0000
,  // measure 121
0001
0100
0010
0000
0001
0100
1000
0000
0001
0100
0010
0000
0001
0100
0010
0000
,  // measure 122
0001
1000
0100
0000
0001
0100
0010
0000
0001
0100
1000
0000
0001
0100
0010
0000
,  // measure 123
0001
0100
0010
0000
0000
0000
1000
0000
0000
0000
0100
0000
0001
0000
1001
0000
,  // measure 124
0000
1001
0000
0000
1001
0000
0100
0000
0001
0000
1000
0000
0001
0100
0001
0000
,  // measure 125
0000
1001
0000
0000
;
